osu file format v9

[General]
AudioFilename: 01 - Paradigm ~TV size~.mp3
AudioLeadIn: 2000
PreviewTime: 53720
Countdown: 0
SampleSet: Soft
StackLeniency: 0.4
Mode: 0
LetterboxInBreaks: 0

[Editor]
Bookmarks: 15093,39093
DistanceSpacing: 1
BeatDivisor: 4
GridSize: 4

[Metadata]
Title:Paradigm (TV Size)
Artist:eufonius
Creator:Mafiamaster
Version:Normal
Source:Kokoro Connect
Tags:yyy yeahyeahyeahhh kite bossandy boss opening

[Difficulty]
HPDrainRate:3
CircleSize:3
OverallDifficulty:4
ApproachRate:5
SliderMultiplier:1.2
SliderTickRate:1

[Events]
//Background and Video events
Video,-400,"Kokoro Connect OP.avi"
0,0,"Kokoro Connect BG.jpg"
//Break Periods
//Storyboard Layer 0 (Background)
//Storyboard Layer 1 (Fail)
//Storyboard Layer 2 (Pass)
//Storyboard Layer 3 (Foreground)
//Storyboard Sound Samples
//Background Colour Transformations
3,100,0,0,0

[TimingPoints]
85,375,4,2,1,70,1,0
15280,-100,4,2,1,70,0,0
54085,-100,4,2,1,70,0,1
65991,-100,4,2,1,70,0,0
66085,-100,4,2,1,70,0,1
75085,-100,4,2,1,70,0,0
86811,-100,4,1,1,70,0,0

[Colours]
Combo1 : 130,255,192
Combo2 : 255,155,205
Combo3 : 177,137,243
Combo4 : 128,255,255

[HitObjects]
123,286,85,2,0,B|61:227|72:121|149:79,1,240,4|0
261,43,1210,1,8
261,43,1397,2,0,B|293:82|336:100|378:102|429:75,2,180,4|0|8
261,43,2710,1,8
243,161,3085,6,0,B|221:277,2,120,4|8|8
243,161,4022,2,0,B|328:244,1,120,8|4
415,328,4772,1,0
415,328,4960,2,0,B|464:285|462:217,1,120,8|8
451,102,5710,1,8
356,28,6085,6,0,B|303:2|239:29,1,120,4|8
137,91,6835,1,0
205,189,7210,1,8
205,189,7397,2,0,B|206:257|149:290,1,120
36,325,8147,1,0
47,205,8522,2,0,B|49:164|37:142,1,60,0|8
8,29,9085,6,0,B|131:10,1,120,0|8
157,126,9835,1,0
266,175,10210,1,8
266,175,10397,2,0,B|302:231|269:288,2,120
189,82,11522,1,0
189,82,11710,2,0,B|219:29,1,60,8|0
295,121,12272,5,0
295,121,12460,2,0,B|329:161|381:175|437:167|474:132|500:78|479:15,1,300,4|4
359,22,13772,2,0,B|298:24|242:52,1,120,8|8
232,171,14522,2,0,B|219:222|184:237,1,60,8|8
94,267,15085,6,0,B|49:224|63:155,2,120,4|8|0
202,318,16210,1,8
320,299,16585,2,0,B|373:283|373:283|424:237,1,120,0|8
354,139,17335,2,0,B|338:72|391:34,1,120,0|8
467,126,18085,6,0,B|490:176|480:230|447:266|404:271,1,180,0|0
288,256,19022,2,0,B|227:235|168:264,1,120
63,314,19772,2,0,B|37:339|4:347,2,60,0|8|0
118,207,20522,2,0,B|97:178|96:152,1,60,0|8
196,116,21085,6,0,B|239:71|308:85,2,120,0|8|0
220,233,22210,1,8
338,217,22585,2,0,B|408:215|443:267,2,120,0|8|0
283,324,23710,1,8
163,322,24085,6,0,B|102:314|62:255|82:187,1,180
151,89,25022,2,0,B|256:31,2,120
151,89,25960,1,8
239,169,26335,2,0,B|298:201|358:168,1,120,0|8
447,94,27085,6,0,B|498:131|504:198|464:256,1,180,4|0
376,335,28022,2,0,B|321:366|260:342,1,120
270,162,28960,2,0,B|223:122|157:127,2,120,8|0|8
316,272,30085,6,0,B|387:282|427:218|427:218|417:163,2,180,0|0|8
195,272,31585,2,0,B|124:282|84:218|84:218|94:163,2,180,0|0|8
285,192,33085,6,0,B|315:129|289:69,1,120,0|8
265,21,33647,1,0
145,8,34022,1,0
47,77,34397,1,0
47,77,34585,2,0,B|9:117|2:177|35:229|81:246,1,180
176,265,35522,2,0,B|200:244|204:210,1,60,0|8
189,93,36085,6,0,B|264:39|359:87,1,180
446,168,37022,1,0
423,285,37397,2,0,B|388:340|388:340|332:364,1,120,8|8
278,256,38147,2,0,B|233:217|233:217|166:207,1,120,8|4
113,201,38710,1,0
181,102,39085,6,0,B|219:59|281:33,1,120,4|8
336,19,39647,1,0
315,137,40022,2,0,B|332:201|390:235,1,120
258,360,40960,5,8
146,316,41335,1,0
67,225,41710,1,8
27,111,42085,2,0,B|72:69|72:69|126:47,1,120,0|8
184,30,42647,1,0
299,64,43022,1,0
371,159,43397,2,0,B|393:219|364:278,1,120
89,334,44897,5,0
89,334,45085,2,0,B|37:250|88:162,1,180
191,222,46022,2,0,B|238:259|306:254,1,120
323,74,46960,2,0,B|373:43|441:41,2,120,8|0|8
256,192,47897,12,0,52585
407,313,53522,6,0,B|439:261,2,60
353,340,54085,2,0,B|292:371|226:354|198:294,1,180,4|0
139,188,55022,2,0,B|81:202,2,60,0|8|0
197,170,55585,2,0,B|232:144|244:96|243:53|199:8,2,180,0|0|8
89,224,57085,6,0,B|54:277|86:338,1,120,0|8
193,284,57835,2,0,B|228:231|196:170,1,120,0|8
122,75,58585,2,0,B|162:25|226:16|289:40,1,180
393,137,59522,6,0,B|423:123|454:125,2,60,0|8|0
354,183,60085,2,0,B|328:226|265:246|218:232|218:232|202:206,1,180
104,276,61022,2,0,B|68:324,2,60,0|8|0
70,225,61585,2,0,B|24:186|19:109|74:65,2,180,0|4|8
166,152,63085,6,0,B|207:104|266:85|348:95|400:136,1,240,0|0
439,155,64022,1,0
447,274,64397,1,0
447,274,64585,2,0,B|411:333|354:343|354:343|309:304,1,180,0|4
189,251,65522,6,0,B|159:260|133:282,2,60,0|8|0
247,235,66085,2,0,B|304:209|304:209|334:157|323:94,1,180,4|0
204,82,67022,2,0,B|220:55|223:22,2,60,0|8|0
180,137,67585,2,0,B|156:209|77:218|77:218|55:258,2,180,0|0|8
248,38,69085,6,0,B|306:17|365:36,1,120,0|8
313,144,69835,2,0,B|291:206|314:263,1,120,0|8
420,207,70585,2,0,B|478:139|440:35,1,180
327,77,71522,2,0,B|296:88|261:74,1,60,0|8
150,49,72085,6,0,B|108:77|89:120|104:180|145:209,1,180,4|4
225,285,73022,2,0,B|287:285,1,60,0|8
373,203,73585,2,0,B|408:180|423:120|404:77|362:49,1,180,4|4
256,105,74522,2,0,B|256:168,1,60,0|8
208,275,75085,6,0,B|175:329|95:333|48:292,2,180,4|0|8
249,162,76585,1,0
331,75,76960,1,8
450,67,77335,2,0,B|495:114|478:177,1,120,0|8
256,192,78085,12,0,83335
336,321,84085,6,0,B|290:364|220:363|172:321,1,180,4|4
118,213,85022,2,0,B|82:199|54:209,2,60,0|8|4
232,249,85772,1,8
232,249,85960,2,0,B|281:233|305:172|242:152|270:76|354:42|413:105,1,300,8|4
