osu file format v9

[General]
AudioFilename: 01 - Paradigm ~TV size~.mp3
AudioLeadIn: 2000
PreviewTime: 53720
Countdown: 0
SampleSet: Normal
StackLeniency: 0.4
Mode: 0
LetterboxInBreaks: 0

[Editor]
Bookmarks: 15093,39093
DistanceSpacing: 1
BeatDivisor: 4
GridSize: 4

[Metadata]
Title:Paradigm (TV Size)
Artist:eufonius
Creator:Mafiamaster
Version:Insane
Source:Kokoro Connect
Tags:yyy yeahyeahyeahhh kite bossandy boss opening

[Difficulty]
HPDrainRate:7
CircleSize:4
OverallDifficulty:8
ApproachRate:8
SliderMultiplier:1.8
SliderTickRate:1

[Events]
//Background and Video events
Video,-400,"Kokoro Connect OP.avi"
0,0,"Kokoro Connect BG.jpg"
//Break Periods
//Storyboard Layer 0 (Background)
//Storyboard Layer 1 (Fail)
//Storyboard Layer 2 (Pass)
//Storyboard Layer 3 (Foreground)
//Storyboard Sound Samples
//Background Colour Transformations
3,100,0,0,0

[TimingPoints]
85,375,4,2,1,70,1,0
1303,-100,4,2,1,60,0,0
1491,-100,4,2,1,70,0,0
5999,-100,4,1,1,70,0,0
6186,-100,4,2,1,70,0,0
15280,-100,4,2,1,70,0,0
38428,-100,4,2,1,55,0,0
38616,-100,4,2,1,70,0,0
54085,-100,4,1,0,70,0,1
54186,-100,4,2,1,70,0,1
65991,-100,4,2,1,70,0,0
66085,-100,4,1,1,70,0,1
66178,-100,4,2,1,70,0,1
75085,-100,4,2,1,70,0,0
86616,-100,4,2,1,60,0,0
86811,-100,4,1,0,50,0,0

[Colours]
Combo1 : 130,255,192
Combo2 : 255,155,205
Combo3 : 177,137,243
Combo4 : 128,255,255

[HitObjects]
288,224,85,2,0,B|332:240|376:224,1,90,4|0
224,160,460,2,0,B|180:144|136:160,2,90
288,224,1022,2,0,B|272:268|288:312,1,90,0|8
268,96,1397,6,0,B|180:64|92:96,1,180,4|0
224,160,1960,1,0
340,128,2147,1,8
288,224,2335,2,0,B|332:240|376:224,1,90,0|8
172,256,2710,2,0,B|128:272|84:256,1,90,8|0
84,112,3085,6,0,B|128:96|172:112,1,90,4|0
128,192,3460,2,0,B|84:208|40:192,2,90,8|2|8
300,160,4022,2,0,B|256:144|212:160,1,90,8|0
384,192,4397,6,0,B|428:176|460:124|428:72|384:56,1,180,4|8
300,24,4960,2,0,B|256:8|212:24,1,90,8|0
200,68,5241,1,0
212,112,5335,2,0,B|256:128|300:112,2,90,8|8|8
124,88,5897,1,8
124,88,6085,6,0,B|104:176,1,90,4|0
60,24,6460,2,0,B|40:112,1,90,8|0
20,200,6835,2,0,B|4:244|20:288,1,90,0|0
96,336,7210,1,8
184,320,7397,2,0,B|272:300,1,90,0|0
120,256,7772,2,0,B|208:236,1,90,0|8
336,364,8147,2,0,B|380:380|424:364,2,90
380,288,8710,1,8
404,264,8803,1,0
416,232,8897,1,0
404,200,8991,1,0
380,176,9085,6,0,B|352:136|305:130,1,90
256,56,9460,2,0,B|228:96|181:101,1,90,8|0
108,152,9835,2,0,B|92:196|108:240,2,90,0|0|8
92,64,10397,2,0,B|48:48|4:64,1,90,0|0
108,152,10772,2,0,B|152:168|196:152,2,90,0|8|0
152,232,11335,5,8
132,260,11428,1,8
112,288,11522,1,8
132,316,11616,1,8
152,344,11710,2,0,B|244:344,1,90,8|8
276,344,11991,1,8
312,344,12085,1,4
388,296,12272,6,0,B|425:311|425:311|441:331|433:359,2,90,0|8|4
312,248,12835,2,0,B|275:233|275:233|259:213|267:185,1,90,0|8
380,220,13210,2,0,B|408:180|454:174,1,90,8|4
204,36,13772,5,8
112,44,13960,1,8
56,116,14147,2,0,B|40:156|8:192|8:192|40:228|56:268,1,180,8|8
112,340,14710,1,8
204,348,14897,1,0
256,192,15085,5,4
424,128,15460,2,0,B|440:84|424:40,2,90,8|0|0
360,192,16022,1,0
424,256,16210,2,0,B|408:300|424:344,1,90,8|0
488,192,16585,5,2
424,128,16772,1,0
360,192,16960,2,0,B|316:176|272:192,1,90,8|2
104,236,17335,2,0,B|148:252|192:236,1,90,0|2
28,188,17710,1,8
28,188,18085,5,2
28,188,18460,1,8
104,148,18647,2,0,B|120:104|104:60,2,90,0|0|2
268,192,19210,2,0,B|224:208|180:192,1,90,8|0
352,164,19585,1,2
420,220,19772,2,0,B|468:236|471:287,1,90,0|8
380,356,20147,2,0,B|332:340|328:288,2,90,2|0|2
400,288,20710,1,8
452,356,20897,1,0
320,312,21085,6,0,B|288:224|320:136,1,180,2|8
384,72,21647,2,0,B|428:56|472:72,1,90
300,104,22022,2,0,B|256:120|212:104,2,90,2|8|0
256,24,22585,1,2
352,180,22772,1,0
388,104,22960,2,0,B|344:88|300:104,1,90,8|2
468,236,23335,2,0,B|484:192|468:148,1,90,0|2
300,280,23710,2,0,B|344:296|388:280,1,90,8|0
404,192,24085,5,2
404,192,24460,1,8
420,104,24647,2,0,B|428:72|428:72|412:40|382:41,2,90,0|0|2
260,180,25210,1,8
336,136,25397,1,0
176,136,25585,1,2
92,104,25772,2,0,B|84:72|84:72|100:40|130:41,1,90,0|8
212,72,26147,2,0,B|296:52|284:28|256:8|228:28|216:52|300:72,1,180,2|2
384,40,26710,1,8
336,136,26897,5,0
424,116,27085,2,0,B|440:156|472:192|472:192|440:228|424:268,1,180,6|8
303,296,27647,2,0,B|352:304|376:344,1,90
136,344,28022,2,0,B|160:304|208:296,2,90,2|8|0
256,356,28585,1,2
8,268,28960,6,0,B|52:284|95:260,1,90,8|2
95,123,29335,2,0,B|52:100|8:116,1,90,0|2
56,192,29710,2,0,B|100:208|143:185,1,90,8|0
188,108,30085,2,0,B|224:152|224:152|256:136|288:152|288:152|324:108,1,180,2|8
404,148,30647,6,0,B|428:120|428:120|452:108|479:111,1,90,2|0
479,272,31022,2,0,B|452:276|428:264|428:264|404:236,1,90,0|8
312,240,31397,2,0,B|340:264|340:264|352:288|348:315,1,90,0|2
312,144,31772,2,0,B|340:120|340:120|352:96|348:68,1,90,0|8
256,192,32147,1,2
200,240,32335,2,0,B|172:264|172:264|160:288|163:315,1,90,0|2
144,192,32710,2,0,B|44:192,1,90,8|0
12,112,33085,6,0,B|100:80|188:112,1,180,2|8
268,72,33647,2,0,B|284:24|335:21,1,90,0|0
392,88,34022,2,0,B|376:136|325:139,2,90,2|8|0
400,188,34585,2,0,B|384:232|400:276,1,90,2|0
472,328,34960,2,0,B|488:284|472:240,1,90,8|2
300,320,35335,2,0,B|256:336|212:320,2,90,0|2|8
132,280,35897,5,0
44,268,36085,2,0,B|28:228|-4:192|-4:192|28:156|44:116,1,180,2|8
132,104,36647,1,0
212,236,36835,1,0
132,280,37022,1,2
212,148,37210,1,8
292,104,37397,6,0,B|304:72|304:72|328:56|356:56,1,90,4|0
510,192,37772,2,0,B|420:192,1,90,4|0
292,280,38147,2,0,B|304:312|304:312|328:328|356:327,1,90,4|0
360,148,38522,2,0,B|340:192|360:236,2,90,4|0|0
324,64,39085,6,0,B|300:104|256:120|256:120|212:104|188:64,1,180,4|8
96,64,39647,1,0
60,148,39835,2,0,B|36:192|58:234,2,90,0|2|8
96,320,40397,1,0
172,264,40585,2,0,B|224:248|256:280|256:280|288:248|340:264,1,180,2|8
416,320,41147,2,0,B|504:320,2,90,2|0|2
448,236,41710,2,0,B|424:192|446:150,1,90,8|0
416,64,42085,6,0,B|328:96|240:64,1,180,2|8
160,24,42647,1,0
84,72,42835,1,0
132,148,43022,2,0,B|156:192|134:234,2,90,2|8|0
52,192,43585,2,0,B|28:236|50:278,1,90,2|0
116,340,43960,1,8
204,324,44147,1,2
256,252,44335,2,0,B|272:208|240:208|256:164,2,90,0|2|8
308,324,44897,5,0
396,340,45085,2,0,B|440:364|482:342,2,90,2|0|8
364,256,45647,2,0,B|340:212|362:170,1,90,0|0
276,196,46022,2,0,B|300:152|278:110,1,90,2|8
212,48,46397,1,0
136,96,46585,2,0,B|84:180|188:180|136:264,1,180,2|8
96,344,47147,1,2
212,364,47335,6,0,B|256:388|298:366,2,90,0|2|8
340,292,47897,2,0,B|288:276|256:308|256:308|224:276|172:292,1,180,6|8
388,236,48460,2,0,B|348:212|301:215,1,90,8|0
211,215,48835,2,0,B|164:212|124:236,1,90,2|0
68,168,49210,2,0,B|114:171|154:147,1,90,8|0
357,147,49585,2,0,B|397:171|444:168,1,90,2|0
412,84,49960,2,0,B|372:60|325:63,1,90,8|0
186,63,50335,2,0,B|140:60|100:84,2,90,2|0|8
168,152,50897,6,0,B|256:184|344:152,1,180,6|0
436,156,51460,2,0,B|452:176|464:192|464:192|452:208|436:228,1,90,8|2
324,360,51835,2,0,B|302:318|326:274,1,90,2|0
186,274,52210,2,0,B|210:318|188:360,1,90,8|2
76,228,52585,6,0,B|24:220,3,45
76,156,52960,2,0,B|32:128,3,45
136,192,53335,1,8
186,274,53522,5,0
256,332,53710,1,8
326,274,53897,1,0
364,192,54085,6,0,B|468:192,2,90,4|0|8
332,108,54647,2,0,B|292:92|256:60|256:60|220:92|180:108,1,180,0|2
148,192,55210,2,0,B|44:192,1,90,8|0
104,288,55585,6,0,B|120:328|168:346,1,90,2|0
256,368,55960,1,8
343,346,56147,2,0,B|392:328|408:288,2,90,2|0|2
212,268,56710,1,8
300,268,56897,1,0
256,192,57085,6,0,B|256:104,1,90,2|0
188,216,57460,2,0,B|204:264|256:284|308:264|324:216,1,180,8|0
344,128,58022,1,2
168,36,58210,1,8
344,36,58397,1,0
168,128,58585,1,2
256,20,58772,1,0
256,112,58960,2,0,B|256:204,2,90,8|2|0
104,192,59522,5,2
168,256,59710,1,8
256,280,59897,1,0
344,256,60085,1,2
408,192,60272,2,0,B|452:168|494:190,1,90,0|8
424,108,60647,2,0,B|380:132|338:110,1,90
380,32,61022,6,0,B|424:8|466:30,2,90,0|8|0
256,72,61585,2,0,B|256:160,1,90,2|0
132,32,61960,2,0,B|88:8|46:30,2,90,8|4|0
168,116,62522,6,0,B|144:160|166:202,1,90,0|8
346,202,62897,2,0,B|368:160|344:116,2,90,0|2|0
300,280,63460,1,8
380,324,63647,1,2
256,356,63835,1,0
132,324,64022,1,2
212,280,64210,1,8
256,200,64397,1,0
200,128,64585,5,2
228,108,64678,1,0
256,88,64772,1,0
284,108,64866,1,0
312,128,64960,1,8
396,100,65147,5,4
368,80,65241,1,0
340,60,65335,1,0
312,40,65428,1,0
284,20,65522,1,2
256,0,65616,1,0
228,20,65710,1,8
200,40,65803,1,0
172,60,65897,1,0
144,80,65991,1,0
116,100,66085,6,0,B|92:144|114:186,2,90,4|0|8
36,56,66647,2,0,B|4:144|36:232,1,180,0|2
96,300,67210,2,0,B|148:300|168:255,1,90,8|0
256,236,67585,1,2
256,148,67772,1,0
343,255,67960,2,0,B|364:300|416:300,1,90,8|2
400,192,68335,2,0,B|490:192,2,90,0|2|8
500,116,68897,5,0
416,84,69085,2,0,B|364:84|343:128,1,90,2|0
344,32,69460,2,0,B|256:64|168:32,1,180,8|0
84,64,70022,2,0,B|32:84|38:133,1,90,2|8
108,192,70397,1,0
38,250,70585,2,0,B|32:300|84:320,1,90,2|0
172,336,70960,1,8
256,304,71147,2,0,B|256:216,1,90,2|0
344,344,71522,6,0,B|386:366|430:342,2,90,2|8|0
332,304,71991,1,0
344,264,72085,2,0,B|386:242|430:266,2,90,4|0|8
256,232,72647,1,4
168,40,73022,6,0,B|126:18|82:42,2,90,0|8|0
180,80,73491,1,0
168,120,73585,2,0,B|126:142|82:118,2,90,4|0|8
256,152,74147,1,4
440,104,74522,5,2
504,256,74710,1,8
504,168,74897,1,0
440,320,75085,2,0,B|424:376|384:384|384:384|344:356|301:348,1,180,4|8
211,348,75647,2,0,B|168:356|128:384|128:384|88:376|72:320,1,180,0|2
8,168,76210,1,8
8,256,76397,1,0
72,104,76585,5,2
256,184,76960,1,8
440,104,77335,1,2
256,24,77710,1,8
124,280,78085,6,0,B|100:324|122:366,1,90,4|0
390,366,78460,2,0,B|412:324|388:280,1,90,8|0
184,92,78835,2,0,B|140:108|108:160|140:212|184:228,1,180,2|8
328,228,79397,2,8,B|372:212|404:160|372:108|328:92,1,180,4|0
256,160,79960,2,0,B|256:340,2,180,8|2|8
148,16,80897,6,0,B|192:32|224:84|192:136|148:152,1,180,4|0
364,152,81460,2,0,B|320:136|288:84|320:32|364:16,1,180,8|2
424,84,82022,5,0
488,148,82210,1,8
448,228,82397,1,4
88,84,82772,1,0
24,148,82960,1,8
64,228,83147,1,0
172,316,83335,5,2
204,328,83428,1,0
232,348,83522,1,0
256,372,83616,1,0
280,348,83710,1,8
308,328,83803,1,0
340,316,83897,1,0
308,232,84085,6,0,B|352:152,1,90,4|0
204,232,84460,2,0,B|160:152,1,90,8|4
324,76,85022,1,0
256,16,85210,1,8
188,76,85397,6,0,B|94:130|135:228,1,180,4|8
376,228,85960,2,0,B|418:130|324:76,1,180,2|8
200,172,86522,1,8
256,240,86710,1,8
312,172,86897,1,4
