osu file format v9

[General]
AudioFilename: 01 - Paradigm ~TV size~.mp3
AudioLeadIn: 2000
PreviewTime: 53720
Countdown: 0
SampleSet: Soft
StackLeniency: 0.4
Mode: 0
LetterboxInBreaks: 0

[Editor]
Bookmarks: 15093,39093
DistanceSpacing: 1
BeatDivisor: 4
GridSize: 4

[Metadata]
Title:Paradigm (TV Size)
Artist:eufonius
Creator:Mafiamaster
Version:Hard
Source:Kokoro Connect
Tags:yyy yeahyeahyeahhh kite bossandy boss opening

[Difficulty]
HPDrainRate:6
CircleSize:4
OverallDifficulty:6
ApproachRate:7
SliderMultiplier:1.6
SliderTickRate:1

[Events]
//Background and Video events
Video,-400,"Kokoro Connect OP.avi"
0,0,"Kokoro Connect BG.jpg"
//Break Periods
//Storyboard Layer 0 (Background)
//Storyboard Layer 1 (Fail)
//Storyboard Layer 2 (Pass)
//Storyboard Layer 3 (Foreground)
//Storyboard Sound Samples
//Background Colour Transformations
3,100,0,0,0

[TimingPoints]
85,375,4,2,1,70,1,0
15280,-100,4,2,1,70,0,0
38428,-100,4,2,1,50,0,0
38616,-100,4,2,1,70,0,0
54085,-100,4,2,1,70,0,1
65991,-100,4,2,1,70,0,0
66085,-100,4,2,1,70,0,1
75085,-100,4,2,1,70,0,0
86811,-100,4,1,1,70,0,0

[Colours]
Combo1 : 130,255,192
Combo2 : 255,155,205
Combo3 : 177,137,243
Combo4 : 128,255,255

[HitObjects]
400,320,85,2,0,B|464:288|536:192|464:96|400:64,1,320,4|0
264,144,1210,1,8
200,104,1397,2,0,B|28:104,2,160,4|0|8
328,184,2522,1,0
392,224,2710,1,8
216,264,3085,6,0,B|96:248|96:376,2,160,4|8|8
296,264,4022,2,0,B|416:248|416:376,1,160,0|4
256,160,4960,1,8
184,304,5335,6,0,B|256:364|328:304,1,160,0|8
336,224,5897,1,0
256,224,6085,2,0,B|256:64,1,160,4|8
108,120,6835,1,0
16,252,7210,1,8
16,252,7397,2,0,B|112:224|176:296,1,160
100,336,7960,1,8
176,360,8147,1,0
384,296,8710,5,8
336,360,8897,1,0
256,360,9085,2,0,B|256:188,1,160,0|8
256,120,9647,1,0
184,80,9835,2,0,B|256:20|328:80,1,160,0|8
328,160,10397,2,0,B|256:220|184:160,1,160
112,120,10960,1,8
112,40,11147,1,0
76,188,11522,5,0
148,224,11710,1,8
80,268,11897,1,0
152,308,12085,2,0,B|188:280|224:308,1,80,4|0
304,316,12460,1,8
256,380,12647,1,4
372,188,13022,5,0
440,232,13210,1,8
368,268,13397,1,4
336,120,13772,2,0,B|364:84|336:48,2,80,0|8|8
228,232,14522,2,8,B|148:232,1,80
260,112,15085,6,0,B|188:172|116:112,1,160,4|8
188,68,15647,2,0,B|188:228,1,160
80,352,16397,2,0,B|188:256|296:352,1,240,0|8
456,352,17335,1,0
452,192,17710,1,8
292,192,18085,6,0,B|104:192,1,160,0|8
52,192,18647,1,0
96,36,19022,2,0,B|192:36,1,80,0|8
256,36,19397,1,0
392,120,19772,1,0
428,192,19960,1,8
396,264,20147,1,0
252,192,20522,1,0
172,192,20710,1,8
68,312,21085,6,0,B|228:312,1,160,0|8
308,312,21647,2,0,B|384:244|308:176,1,160
256,116,22210,1,8
324,76,22397,1,0
112,188,22960,5,8
256,116,23335,1,0
396,192,23710,1,8
324,336,24085,6,0,B|256:260|188:336,1,160,0|8
256,380,24647,2,0,B|256:220,1,160
256,140,25210,1,8
324,100,25397,2,0,B|256:176|188:100,1,160
116,112,25960,5,8
256,36,26335,1,0
396,112,26710,1,8
360,184,26897,1,0
440,184,27085,6,0,B|480:264|444:344,1,160,4|8
368,320,27647,2,0,B|204:320,1,160
144,368,28210,2,0,B|104:380|64:368,2,80,8|0|0
76,228,28960,2,0,B|36:152|76:68,2,160,8|0|8
212,140,30085,6,0,B|372:140,1,160,0|8
416,72,30647,2,0,B|464:104|464:176|416:208,2,160,0|0|0
256,68,31772,1,0
256,68,31960,1,8
96,72,32335,2,0,B|48:104|48:176|96:208,1,160,0|8
140,140,32897,5,0
140,140,33085,2,0,B|188:172|188:244|140:276,1,160,0|8
100,344,33647,1,0
256,276,34022,1,0
412,344,34397,1,0
328,120,34960,2,0,B|360:72|432:72|464:120,2,160,8|0|8
396,160,35897,5,0
396,160,36085,2,0,B|396:320,1,160,0|8
396,320,36647,1,0
256,240,37022,2,0,B|256:80,1,160,0|8
116,160,37772,2,0,B|116:320,2,160,8|8|4
116,160,38710,1,0
256,80,39085,6,0,B|324:156|392:80,1,160,4|0
472,80,39647,2,0,B|472:240,1,160,0|0
364,336,40397,2,0,B|256:240|148:336,1,240,0|8
72,196,41335,1,0
148,48,41710,1,8
220,192,42085,6,0,B|380:192,1,160,0|8
460,192,42647,2,0,B|536:124|460:56,2,160,0|0|0
324,144,43772,1,0
256,104,43960,1,8
256,24,44147,1,0
256,260,44522,1,0
256,184,44710,1,8
188,144,44897,5,0
188,144,45085,2,0,B|220:96|292:96|324:144,1,160,0|8
324,224,45647,2,0,B|292:272|220:272|188:224,2,160,0|0|0
408,80,46960,5,8
256,24,47335,1,0
104,80,47710,1,8
104,80,47897,1,4
256,192,48085,12,0,49585
132,332,50522,5,0
132,332,50710,1,8
132,332,50897,1,4
256,192,51085,12,0,52585
180,132,53335,5,8
256,156,53522,1,0
332,132,53710,1,8
256,244,54085,6,0,B|256:84,1,160,4|8
256,84,54647,1,0
84,136,55022,1,0
84,136,55210,2,0,B|148:200|100:284,1,160,8|0
256,324,55960,1,8
256,324,56147,1,0
412,284,56522,1,0
412,284,56710,2,0,B|364:200|428:136,1,160,8|0
280,76,57460,6,0,B|120:76,1,160,8|0
40,216,58210,2,0,B|200:216,1,160,8|0
324,316,58960,1,8
324,316,59147,1,0
452,220,59522,2,0,B|508:160,2,80,0|8|0
408,152,60085,2,0,B|360:184|360:256|408:288,1,160,0|8
408,288,60647,1,0
256,340,61022,5,0
256,340,61210,2,0,B|256:176,1,160,8|0
104,96,61960,1,8
104,96,62147,2,0,B|152:128|152:200|104:232,1,160,4|0
56,168,62710,2,0,B|220:168,1,160,8|0
372,124,63460,5,8
456,260,63835,1,0
456,260,64022,2,0,B|296:260,1,160
256,336,64585,2,0,B|416:336,1,160,0|8
496,336,65147,1,4
440,88,65522,5,0
376,40,65710,2,0,B|284:40,1,80,8|0
216,52,66085,2,0,B|140:120|216:188,1,160,4|8
296,196,66647,2,0,B|372:264|296:332,1,160
296,331,67210,1,8
136,332,67585,5,0
56,196,67960,1,8
56,196,68147,2,0,B|216:196,1,160
296,196,68710,2,0,B|358:133|310:49,1,160,8|0
428,160,69460,6,0,B|380:244|442:306,1,160,8|0
288,352,70210,2,0,B|128:352,1,160,8|0
24,232,70960,1,8
24,232,71147,1,0
184,232,71522,6,0,B|232:200|232:128|184:96,1,160,0|0
140,28,72085,2,0,B|92:60|92:132|140:164,1,160,4|8
140,164,72647,1,4
256,52,73022,1,0
256,52,73210,1,8
372,164,73585,6,0,B|420:132|420:60|372:28,1,160,4|8
328,96,74147,2,0,B|280:128|280:200|328:232,1,160,4|0
328,232,74710,1,8
188,332,75085,6,0,B|220:284|292:284|324:332,1,160,4|8
256,376,75647,2,0,B|256:216,1,160
148,96,76397,2,0,B|256:0|364:96,1,240,0|8
412,248,77335,5,0
256,292,77710,1,8
100,248,78085,1,4
256,192,78272,12,4,80897
256,220,81835,5,0
188,76,82210,1,8
188,76,82397,2,0,B|256:0|324:76,2,160,0|0|0
76,188,83522,5,0
76,188,83710,1,8
116,344,84085,2,0,B|276:344,1,160,4|8
356,344,84647,2,0,B|432:276|356:208,2,160,4|0|4
256,124,85960,1,8
160,252,86335,5,0
216,308,86522,1,0
296,308,86710,1,8
352,252,86897,1,4
