osu file format v12

[General]
AudioFilename: eufonius- Paradigm (TV Size).mp3
AudioLeadIn: 1996
PreviewTime: 53363
Countdown: 0
SampleSet: Soft
StackLeniency: 0.7
Mode: 0
LetterboxInBreaks: 0
WidescreenStoryboard: 0

[Editor]
Bookmarks: 82988
DistanceSpacing: 1
BeatDivisor: 4
GridSize: 4

[Metadata]
Title:Paradigm (TV Size)
TitleUnicode:Paradigm (TV Size)
Artist:eufonius
ArtistUnicode:eufonius
Creator:KSHR
Version:Normal
Source:Kokoro Connect
Tags:Ryafuka Rare Cilvery opening ココロコネクト
BeatmapID:236066
BeatmapSetID:73762

[Difficulty]
HPDrainRate:3
CircleSize:3
OverallDifficulty:4
ApproachRate:5
SliderMultiplier:1.2
SliderTickRate:2

[Events]
//Background and Video events
0,0,"BG.jpg",0,0
Video,0,"Video.flv"
//Break Periods
//Storyboard Layer 0 (Background)
//Storyboard Layer 1 (Fail)
//Storyboard Layer 2 (Pass)
//Storyboard Layer 3 (Foreground)
//Storyboard Sound Samples
//Background Colour Transformations
3,100,163,162,255

[TimingPoints]
113,375,4,2,1,70,1,0
300,-100,4,2,2,70,0,0
1425,-100,4,2,1,70,0,0
1613,-100,4,2,2,70,0,0
2925,-100,4,2,1,70,0,0
3300,-100,4,2,2,70,0,0
4425,-100,4,2,1,70,0,0
4613,-100,4,2,2,70,0,0
5175,-100,4,2,2,60,0,0
5550,-100,4,2,2,70,0,0
5925,-100,4,2,1,70,0,0
6300,-100,4,2,2,70,0,0
12113,-100,4,2,1,70,0,0
12300,-100,4,2,2,70,0,0
13425,-100,4,2,1,70,0,0
13613,-100,4,2,2,70,0,0
14925,-100,4,2,1,60,0,0
15300,-100,4,2,2,60,0,0
27019,-100,4,2,1,60,0,0
27206,-100,4,2,2,60,0,0
37238,-100,4,2,1,50,0,0
38363,-100,4,2,2,60,0,0
38925,-100,4,2,1,60,0,0
39300,-100,4,2,2,70,0,0
41175,-100,4,2,2,60,0,0
41550,-100,4,2,2,70,0,0
47925,-100,4,2,1,70,0,0
48113,-100,4,2,2,70,0,0
50925,-100,4,2,1,70,0,0
51113,-100,4,2,2,70,0,0
53550,-100,4,2,1,60,0,0
54113,-100,4,2,1,70,0,1
54300,-100,4,2,2,70,0,1
62081,-100,4,2,1,70,0,1
62269,-100,4,2,2,70,0,1
65175,-100,4,2,1,70,0,1
65363,-100,4,2,2,70,0,1
66019,-100,4,2,1,70,0,0
66113,-100,4,2,1,70,0,1
66206,-100,4,2,2,70,0,1
72019,-100,4,2,1,70,0,1
72206,-100,4,2,2,70,0,1
72581,-100,4,2,1,70,0,1
72769,-100,4,2,2,70,0,1
73519,-100,4,2,1,70,0,1
73706,-100,4,2,2,70,0,1
74081,-100,4,2,1,70,0,1
74269,-100,4,2,2,70,0,1
75019,-100,4,2,1,70,0,1
75206,-100,4,2,2,70,0,1
78113,-100,4,2,1,70,0,0
80363,-100,4,2,1,60,0,0
81300,-100,4,2,1,70,0,0
81863,-100,4,2,2,70,0,0
81956,-100,4,2,1,70,0,0
82800,-100,4,2,2,70,0,0
82894,-100,4,2,1,70,0,0
83363,-100,4,2,2,70,0,0
83456,-100,4,2,1,70,0,0
85800,-100,4,2,2,70,0,0
85894,-100,4,2,1,70,0,0

[Colours]
Combo1 : 255,128,64
Combo2 : 130,100,180
Combo3 : 0,100,200
Combo4 : 200,0,100

[HitObjects]
132,284,113,2,0,P|192:288|252:276,1,120,4|0,0:0|0:0,0:0:0:0:
344,332,863,1,0,0:0:0:0:
412,248,1238,1,4,0:0:0:0:
376,208,1425,2,0,P|364:152|368:88,1,120,4|0,0:0|0:0,0:0:0:0:
392,40,1988,2,0,L|332:28,1,60,0|4,0:0|0:0,0:0:0:0:
268,116,2550,2,0,L|208:128,1,60,4|0,0:0|0:0,0:0:0:0:
132,52,3113,6,0,P|76:40|4:52,2,120,4|8|0,0:0|0:0|0:0,0:0:0:0:
208,128,4238,2,0,L|200:188,1,60,0|4,0:0|0:0,0:0:0:0:
96,220,4800,2,0,L|104:280,1,60,0|8,0:0|0:0,0:0:0:0:
176,360,5363,1,4,0:0:0:0:
252,284,5738,1,4,0:0:0:0:
324,360,6113,6,0,P|384:368|444:360,1,120,4|8,0:0|0:0,0:0:0:0:
508,276,6863,2,0,L|484:156,1,120,0|8,0:0|0:0,0:0:0:0:
472,104,7425,1,0,0:0:0:0:
380,48,7800,1,0,0:0:0:0:
372,160,8175,2,0,P|320:188|256:192,1,120,4|0,0:0|0:0,0:0:0:0:
212,168,8738,1,8,0:0:0:0:
144,84,9113,6,0,L|24:72,2,120,0|8|0,0:0|0:0|0:0,0:0:0:0:
212,168,10238,2,0,P|236:148|256:120,1,60,8|0,0:0|0:0,0:0:0:0:
304,32,10800,1,4,0:0:0:0:
376,112,11175,2,0,P|384:172|376:232,1,120,4|0,0:0|0:0,0:0:0:0:
404,276,11738,2,0,L|284:296,1,120,8|4,0:0|0:0,0:0:0:0:
208,372,12488,5,8,0:0:0:0:
120,312,12863,2,0,L|60:302,2,60,0|0|8,0:0|0:0|0:0,0:0:0:0:
172,296,13425,2,0,P|192:240|192:180,1,120,4|4,0:0|0:0,0:0:0:0:
124,96,14175,1,4,0:0:0:0:
216,40,14550,2,0,L|280:32,1,60,4|0,0:0|0:0,0:0:0:0:
336,124,15113,6,0,P|396:124|456:108,1,120,4|0,0:0|0:0,0:0:0:0:
492,72,15675,2,0,P|508:132|508:196,1,120
480,236,16238,1,0,0:0:0:0:
512,340,16613,1,4,0:0:0:0:
404,356,16988,1,0,0:0:0:0:
328,280,17363,1,0,0:0:0:0:
356,176,17738,1,0,0:0:0:0:
328,280,18113,6,0,P|268:296|208:296,1,120,4|0,0:0|0:0,0:0:0:0:
164,324,18675,2,0,P|172:264|164:200,1,120,0|4,0:0|0:0,0:0:0:0:
64,244,19425,2,0,P|56:184|64:120,1,120
100,88,19988,2,0,L|92:28,1,60,0|4,0:0|0:0,0:0:0:0:
196,60,20550,2,0,L|204:120,1,60,4|0,0:0|0:0,0:0:0:0:
184,228,21113,6,0,P|244:240|304:236,1,120,4|0,0:0|0:0,0:0:0:0:
348,264,21675,2,0,L|364:144,2,120,0|4|0,0:0|0:0|0:0,0:0:0:0:
340,316,22613,1,4,0:0:0:0:
440,356,22988,1,0,0:0:0:0:
508,272,23363,1,0,0:0:0:0:
452,180,23738,1,0,0:0:0:0:
348,208,24113,6,0,P|288:212|228:204,1,120,4|0,0:0|0:0,0:0:0:0:
188,168,24675,2,0,P|176:228|180:288,1,120,0|4,0:0|0:0,0:0:0:0:
244,372,25425,2,0,L|124:384,1,120
76,360,25988,2,0,L|0:368,1,60,0|4,0:0|0:0,0:0:0:0:
52,264,26550,2,0,L|128:256,1,60,4|0,0:0|0:0,0:0:0:0:
216,280,27113,6,0,P|224:224|212:160,1,120,4|0,0:2|0:0,0:0:0:0:
180,120,27675,2,0,L|60:105,2,120,0|4|0,0:0|0:0|0:0,0:0:0:0:
232,108,28613,1,4,0:0:0:0:
324,164,28988,1,0,0:0:0:0:
400,88,29363,1,0,0:0:0:0:
468,172,29738,2,0,P|476:232|468:292,1,120,0|4,0:0|0:0,0:0:0:0:
388,364,30488,5,0,0:0:0:0:
352,324,30675,2,0,P|292:312|232:316,1,120,4|0,0:0|0:0,0:0:0:0:
144,376,31425,2,0,P|132:316|136:256,1,120
160,208,31988,2,0,L|144:144,1,60,0|4,0:0|0:0,0:0:0:0:
40,172,32550,2,0,L|24:108,1,60,4|0,0:0|0:0,0:0:0:0:
96,32,33113,6,0,P|156:48|216:44,1,120
256,76,33675,2,0,P|259:134|247:194,1,120,0|4,0:0|0:0,0:0:0:0:
188,288,34425,2,0,L|248:300,1,60,0|4,0:0|0:0,0:0:0:0:
320,376,34988,2,0,L|380:364,1,60,0|4,0:0|0:0,0:0:0:0:
460,296,35550,2,0,P|448:240|448:176,1,120,4|0,0:0|0:0,0:0:0:0:
500,196,36113,6,0,P|512:139|512:77,1,120,4|0,0:0|0:0,0:0:0:0:
480,36,36675,2,0,P|428:60|364:68,1,120,0|4,0:0|0:0,0:0:0:0:
268,20,37425,5,4,0:0:0:0:
228,120,37800,1,4,0:0:0:0:
284,212,38175,1,4,0:0:0:0:
244,312,38550,2,0,L|176:324,1,60,2|2,0:0|0:0,0:0:0:0:
76,344,39113,6,0,P|60:288|60:224,1,120,4|0,0:0|0:0,0:0:0:0:
88,180,39675,2,0,P|148:192|208:184,2,120,0|4|0,0:0|0:0|0:0,0:0:0:0:
56,136,40613,1,4,0:0:0:0:
124,52,40988,1,0,0:0:0:0:
232,52,41363,1,4,0:0:0:0:
288,144,41738,6,0,P|300:204|296:264,1,120,4|4,0:0|0:0,0:0:0:0:
232,348,42488,1,0,0:0:0:0:
280,372,42675,2,0,P|340:376|400:360,1,120,0|4,0:0|0:0,0:0:0:0:
504,380,43425,2,0,L|484:260,1,120,0|4,0:0|0:0,0:0:0:0:
492,208,43988,2,0,L|456:160,1,60,0|8,0:0|0:0,0:0:0:0:
376,228,44550,2,0,L|340:180,2,60,0|8|0,0:0|0:0|0:0,0:0:0:0:
344,272,45113,6,0,P|284:276|224:260,1,120,0|4,0:0|0:0,0:0:0:0:
192,220,45675,2,0,P|136:244|76:252,2,120,0|4|0,0:0|0:0|0:0,0:0:0:0:
224,176,46613,1,4,0:0:0:0:
144,104,46988,1,0,0:0:0:0:
80,192,47363,2,0,P|76:252|92:312,1,120,0|4,0:0|0:0,0:0:0:0:
80,364,47925,6,0,L|200:348,1,120,4|0,0:0|0:0,0:0:0:0:
236,308,48488,2,0,P|296:332|352:332,1,120,4|0,0:0|0:0,0:0:0:0:
396,304,49050,2,0,L|404:244,1,60,0|4,0:0|0:0,0:0:0:0:
504,204,49613,2,0,L|496:144,1,60,4|0,0:0|0:0,0:0:0:0:
460,104,49988,2,0,P|404:128|340:128,1,120,4|4,0:0|0:0,0:0:0:0:
260,64,50738,5,0,0:0:0:0:
224,104,50925,2,0,P|216:164|228:224,1,120,4|0,0:0|0:0,0:0:0:0:
248,272,51488,2,0,P|192:296|128:300,1,120,4|0,0:0|0:0,0:0:0:0:
80,312,52050,2,0,L|68:252,1,60,0|4,0:0|0:0,0:0:0:0:
108,152,52613,2,0,L|80:20,2,120,4|4|8,0:0|0:0|0:0,0:0:0:0:
192,220,53738,1,4,0:0:0:0:
144,316,54113,6,0,P|204:332|264:328,1,120,4|0,0:0|0:0,0:0:0:0:
308,356,54675,2,0,L|328:236,1,120,4|0,0:0|0:0,0:0:0:0:
368,200,55238,1,8,0:0:0:0:
444,276,55613,1,0,0:0:0:0:
500,184,55988,2,0,L|492:116,1,60,8|0,0:0|0:0,0:0:0:0:
424,40,56550,1,4,0:0:0:0:
392,84,56738,2,0,P|332:100|272:96,1,120,8|4,0:0|0:0,0:0:0:0:
188,32,57488,5,8,0:0:0:0:
92,84,57863,2,0,L|32:96,2,60,0|4|8,0:0|0:0|0:0,0:0:0:0:
184,140,58613,2,0,P|192:200|184:260,1,120,4|8,0:0|0:0,0:0:0:0:
156,304,59175,2,0,B|192:296|240:312|276:304,1,120,4|4,0:0|0:0,0:0:0:0:
316,268,59738,1,8,0:0:0:0:
364,356,60113,6,0,P|420:368|484:360,1,120,4|8,0:0|0:0,0:0:0:0:
512,316,60675,2,0,L|492:196,1,120,4|4,0:0|0:0,0:0:0:0:
480,144,61238,1,8,0:0:0:0:
388,208,61613,2,0,P|368:152|368:88,1,120,0|8,0:0|0:0,0:0:0:0:
388,40,62175,2,0,L|272:68,1,120,4|4,0:0|0:0,0:0:0:0:
220,48,62738,1,8,0:0:0:0:
144,128,63113,6,0,P|148:192|168:248,1,120,0|8,0:0|0:0,0:0:0:0:
264,288,63863,2,0,L|320:268,2,60,0|4|8,0:0|0:0|0:0,0:0:0:0:
180,356,64613,2,0,P|116:368|60:360,1,120,4|8,0:0|0:0,0:0:0:0:
28,320,65175,1,4,0:0:0:0:
68,220,65550,2,0,L|128:208,1,60,0|8,0:0|0:0,0:0:0:0:
228,248,66113,6,0,P|244:192|240:128,1,120,4|8,0:0|0:0,0:0:0:0:
208,88,66675,2,0,P|256:112|328:112,1,120,4|4,0:0|0:0,0:0:0:0:
364,80,67238,1,8,0:0:0:0:
456,136,67613,1,4,0:0:0:0:
376,208,67988,2,0,P|380:248|384:268,1,60,8|4,0:0|0:0,0:0:0:0:
472,328,68550,1,4,0:0:0:0:
428,360,68738,2,0,P|372:372|308:372,1,120,8|4,0:0|0:0,0:0:0:0:
224,312,69488,5,8,0:0:0:0:
132,368,69863,2,0,L|60:360,2,60,0|4|8,0:0|0:0|0:0,0:0:0:0:
224,312,70613,2,0,P|240:252|232:180,1,120,0|8,0:0|0:0,0:0:0:0:
208,148,71175,1,4,0:0:0:0:
116,200,71550,2,0,L|56:208,1,60,0|8,0:0|0:0,0:0:0:0:
0,116,72113,6,0,L|135:96,1,120,4|4,0:0|0:0,0:0:0:0:
152,56,72675,1,4,0:0:0:0:
208,148,73050,2,0,L|200:208,2,60,0|4|4,0:0|0:0|0:0,0:0:0:0:
244,108,73613,2,0,P|304:96|364:100,1,120,4|4,0:0|0:0,0:0:0:0:
400,72,74175,2,0,L|412:204,1,120,4|4,0:0|0:0,0:0:0:0:
416,244,74738,1,8,0:0:0:0:
484,336,75113,6,0,P|428:352|364:348,1,120,4|8,0:0|0:0,0:0:0:0:
324,316,75675,2,0,L|208:344,2,120,4|4|4,0:0|0:0|0:0,0:0:0:0:
360,276,76613,2,0,P|364:220|352:156,1,120,4|8,0:0|0:0,0:0:0:0:
256,104,77363,1,4,0:0:0:0:
159,157,77738,1,8,0:0:0:0:
256,192,78113,12,4,80925,0:0:0:0:
332,340,81488,6,0,P|272:352|212:348,1,120,8|4,0:0|0:0,0:0:0:0:
116,300,82238,1,8,0:0:0:0:
152,260,82425,2,0,P|164:204|164:140,1,120,4|4,0:0|0:0,0:0:0:0:
128,100,82988,2,0,P|64:116|4:112,2,120,8|4|8,0:0|0:0|0:0,0:0:0:0:
208,28,84113,5,4,0:0:0:0:
292,96,84488,2,0,L|300:160,1,60,8|4,0:0|0:0,0:0:0:0:
392,212,85050,2,0,L|380:276,1,60,0|8,0:0|0:0,0:0:0:0:
368,324,85425,2,0,P|308:312|248:316,1,120,4|4,0:0|0:0,0:0:0:0:
208,348,85988,1,8,0:0:0:0:
112,300,86363,2,0,L|44:312,2,60,0|0|8,0:0|0:0|0:0,0:0:0:0:
148,260,86925,1,4,0:0:0:0:
