osu file format v14

[General]
AudioFilename: narcissu.mp3
AudioLeadIn: 0
PreviewTime: 96968
Countdown: 0
SampleSet: Soft
StackLeniency: 0.7
Mode: 0
LetterboxInBreaks: 0
WidescreenStoryboard: 0

[Editor]
DistanceSpacing: 1.4
BeatDivisor: 2
GridSize: 4
TimelineZoom: 0.5999999

[Metadata]
Title:Narcissus
TitleUnicode:ナルキッソス
Artist:eufonius
ArtistUnicode:eufonius
Creator:[Teichan]
Version:Normal
Source:ナルキッソス -SIDE 2nd-
Tags:stage-nana riya 菊地創 Kikuchi Hajime Σ Narcissu
BeatmapID:689547
BeatmapSetID:306616

[Difficulty]
HPDrainRate:2
CircleSize:3
OverallDifficulty:3
ApproachRate:4
SliderMultiplier:1.2
SliderTickRate:0.5

[Events]
//Background and Video events
0,0,"23873927.png",0,0
Video,-1978,"nar01.flv"
//Break Periods
2,35668,43748
//Storyboard Layer 0 (Background)
//Storyboard Layer 1 (Fail)
//Storyboard Layer 2 (Pass)
//Storyboard Layer 3 (Foreground)
//Storyboard Sound Samples

[TimingPoints]
1868,600,4,2,1,70,1,0
97868,600,3,2,1,90,1,1
126668,600,4,2,2,70,1,0
128468,-100,4,2,2,50,0,0
130268,-100,4,2,2,70,0,0
131468,-100,4,2,2,40,0,0
133268,-100,4,2,2,70,0,0
135068,-100,4,2,1,50,0,0
135668,-100,4,2,1,27,0,0
136268,-100,4,2,2,70,0,0
137468,-100,4,2,2,40,0,0
138068,-100,4,2,2,70,0,0
138668,-100,4,2,2,60,0,0
139868,-100,4,2,2,50,0,0
141068,-100,4,2,2,18,0,0
142868,-100,4,2,2,70,0,0
143468,-100,4,2,2,50,0,0
143768,-100,4,2,1,10,0,0
145868,-100,4,2,1,50,0,0

[Colours]
Combo1 : 255,130,255
Combo2 : 109,253,102
Combo3 : 248,237,33
Combo4 : 91,255,255

[HitObjects]
192,92,1868,5,4,0:3:0:0:
440,132,2768,2,0,P|460:196|452:272,1,120,0|0,0:0|0:0,0:0:0:0:
396,304,3668,1,0,0:0:0:0:
316,324,3968,2,0,P|236:328|108:332,1,180,0|0,0:0|0:0,0:0:0:0:
96,256,5168,2,0,P|100:188|84:128,1,120,0|0,0:0|0:0,0:0:0:0:
224,40,6368,6,0,P|220:108|236:168,1,120,0|0,0:0|0:0,0:0:0:0:
296,212,7268,1,0,0:0:0:0:
440,92,9068,5,4,0:3:0:0:
112,280,11468,5,4,0:3:0:0:
205,46,12368,5,0,0:0:0:0:
280,84,12668,2,0,P|340:84|408:76,1,120,0|0,0:0|0:0,0:0:0:0:
476,112,13568,1,0,0:0:0:0:
456,192,13868,2,0,L|464:328,1,120,2|0,0:3|0:0,0:0:0:0:
380,292,14768,2,0,P|320:288|256:336,2,120,0|0|0,0:0|0:0|0:3,0:0:0:0:
340,368,16268,1,4,0:3:0:0:
80,276,18668,5,4,0:3:0:0:
128,84,20768,5,0,2:0:0:0:
204,120,21068,2,0,P|212:180|216:256,1,120,4|0,0:3|0:0,0:0:0:0:
188,320,21968,1,0,0:0:0:0:
272,308,22268,2,0,P|304:308|348:316,1,60,0|0,0:0|0:0,0:0:0:0:
408,352,22868,1,0,0:0:0:0:
468,296,23168,6,0,L|452:132,1,120,0|0,0:0|0:0,0:0:0:0:
444,92,24068,1,0,0:0:0:0:
376,144,24368,2,0,P|316:160|220:140,1,120,0|0,0:0|0:0,0:0:0:0:
116,244,25568,5,0,0:0:0:0:
40,212,25868,2,0,P|16:148|32:72,1,120,4|0,0:3|0:0,0:0:0:0:
72,32,26768,1,0,0:0:0:0:
152,64,27068,2,0,L|220:68,1,60,0|0,0:0|0:0,0:0:0:0:
284,28,27668,1,0,0:0:0:0:
364,52,27968,6,0,P|376:116|388:212,1,120,0|0,0:0|0:0,0:0:0:0:
356,248,28868,1,0,0:0:0:0:
392,324,29168,1,0,0:0:0:0:
120,284,30668,5,4,0:3:0:0:
256,72,31568,6,0,P|316:68|404:84,1,120,0|0,0:0|0:0,0:0:0:0:
444,124,32468,2,0,L|460:212,1,60,0|0,0:0|0:0,0:0:0:0:
392,240,33068,2,0,P|380:308|396:396,1,120,2|0,0:3|0:0,0:0:0:0:
300,344,33968,2,0,L|168:356,2,120,0|0|0,0:0|0:0|0:0,0:0:0:0:
304,260,35468,1,8,0:3:0:0:
256,192,45068,5,4,0:0:0:0:
476,72,45968,6,0,L|352:76,1,120,0|0,0:0|0:0,0:0:0:0:
280,40,46868,1,0,0:0:0:0:
224,104,47168,2,0,P|148:128|16:112,1,180,0|0,0:0|0:0,0:0:0:0:
12,200,48368,2,0,P|20:264|24:336,1,120,0|0,0:0|0:0,0:0:0:0:
184,368,49568,6,0,P|187:308|195:248,1,120,0|0,0:0|0:0,0:0:0:0:
260,196,50468,1,0,0:0:0:0:
456,104,52268,5,8,0:3:0:0:
472,276,54668,5,8,0:3:0:0:
292,100,55568,5,0,0:0:0:0:
228,44,55868,2,0,P|172:36|92:76,1,120,0|0,0:0|0:0,0:0:0:0:
84,136,56768,1,0,0:0:0:0:
56,216,57068,2,0,P|56:280|68:352,1,120,4|0,0:1|0:0,0:0:0:0:
144,312,57968,2,0,P|144:256|152:180,2,120,0|0|0,0:0|0:0|0:0,0:0:0:0:
216,352,59468,1,0,0:0:0:0:
176,80,61868,5,0,0:0:0:0:
328,352,63968,5,0,0:0:0:0:
408,328,64268,2,0,P|428:276|436:204,1,120,8|0,0:3|0:0,0:0:0:0:
404,136,65168,1,0,0:0:0:0:
336,88,65468,2,0,L|272:84,1,60,0|0,0:0|0:0,0:0:0:0:
204,128,66068,1,0,0:0:0:0:
140,72,66368,6,0,P|88:56|8:104,1,120,0|0,0:0|0:0,0:0:0:0:
88,140,67268,1,0,0:0:0:0:
24,196,67568,2,0,L|12:340,1,120,0|0,0:0|0:0,0:0:0:0:
180,344,68768,5,0,0:0:0:0:
244,292,69068,2,0,P|300:284|384:300,1,120,8|0,0:3|0:0,0:0:0:0:
432,340,69968,1,0,0:0:0:0:
504,300,70268,2,0,L|512:212,1,60,0|0,0:0|0:0,0:0:0:0:
468,168,70868,1,0,0:0:0:0:
384,184,71168,6,0,L|224:176,1,120,0|0,0:0|0:0,0:0:0:0:
188,140,72068,1,0,0:0:0:0:
112,180,72368,1,0,0:0:0:0:
388,68,73868,5,8,0:3:0:0:
268,292,74768,6,0,P|272:236|271:172,1,120,0|0,0:0|0:0,0:0:0:0:
228,100,75668,2,0,P|228:64|232:12,1,60,0|0,0:0|0:0,0:0:0:0:
148,64,76268,2,0,P|100:56|24:64,1,120,8|0,0:3|0:0,0:0:0:0:
32,148,77168,2,0,P|20:212|76:280,2,120,4|0|0,0:1|0:0|0:0,0:0:0:0:
100,196,78668,1,4,0:0:0:0:
164,144,78968,6,0,L|300:152,1,120,2|2,0:0|0:0,0:0:0:0:
356,104,79868,2,0,L|368:36,1,60,2|2,0:0|0:0,0:0:0:0:
452,40,80468,2,0,L|440:108,1,60,2|2,0:0|0:0,0:0:0:0:
492,164,81068,2,0,P|496:228|468:312,1,120,8|2,0:3|0:0,0:0:0:0:
416,332,81968,2,0,L|220:344,1,180,0|0,0:0|0:0,0:0:0:0:
84,272,83468,5,4,0:0:0:0:
136,208,83768,2,0,L|140:68,1,120,2|2,0:0|0:0,0:0:0:0:
208,36,84668,2,0,P|240:28|288:28,1,60,2|2,0:0|0:0,0:0:0:0:
344,56,85268,1,2,0:0:0:0:
384,132,85568,2,0,P|380:192|384:284,1,120,2|0,0:0|0:0,0:0:0:0:
340,324,86468,2,0,P|260:344|152:320,1,180,2|0,0:3|0:0,0:0:0:0:
268,96,88268,5,4,0:0:0:0:
192,60,88568,2,0,P|132:52|64:68,1,120
32,136,89468,2,0,L|20:224,1,60,2|2,0:0|0:0,0:0:0:0:
104,224,90068,2,0,L|116:136,1,60,2|2,0:0|0:0,0:0:0:0:
188,204,90668,2,0,L|196:352,1,120,8|2,0:3|0:0,0:0:0:0:
268,368,91568,2,0,P|364:364|464:316,1,180,0|0,0:0|0:0,0:0:0:0:
496,172,93068,5,2,0:0:0:0:
436,112,93368,2,0,L|428:24,2,60,0|2|0,0:0|0:0|0:0,0:0:0:0:
380,176,94268,2,0,P|328:196|224:188,1,120,2|2,0:0|0:0,0:0:0:0:
188,160,95168,1,0,0:0:0:0:
108,184,95468,2,0,P|64:280|88:392,1,180,4|0,0:3|0:0,0:0:0:0:
228,300,96968,2,0,L|240:196,2,60,0|0|0,0:0|0:0|0:0,0:0:0:0:
296,352,97868,6,0,P|352:364|448:368,1,120,4|2,0:0|0:0,0:0:0:0:
480,216,99068,2,0,P|424:204|328:200,1,120,2|2,0:0|0:0,0:0:0:0:
228,300,100268,2,0,P|152:304|28:248,1,180,2|2,0:0|0:0,0:0:0:0:
16,196,101468,6,0,L|8:68,1,120,2|0,0:0|0:0,0:0:0:0:
176,52,102668,1,2,0:0:0:0:
256,80,102968,1,2,0:0:0:0:
332,44,103268,2,0,P|396:48|464:92,2,120,2|2|2,0:0|0:0|0:0,0:0:0:0:
192,136,105068,5,0,0:0:0:0:
360,160,105668,2,0,P|368:220|368:284,2,120,2|2|2,0:0|0:0|0:0,0:0:0:0:
412,96,107168,1,2,0:0:0:0:
464,160,107468,2,0,P|456:220|456:284,1,120,2|0,0:0|0:0,0:0:0:0:
412,352,108368,1,2,0:0:0:0:
368,279,108668,6,0,P|280:256|176:292,1,180,2|0,0:0|0:0,0:0:0:0:
132,336,109868,1,2,0:0:0:0:
52,308,110168,1,2,0:0:0:0:
68,224,110468,2,0,P|68:164|60:92,2,120,2|2|0,0:0|0:0|0:0,0:0:0:0:
164,88,112268,6,0,P|208:136|296:152,1,120,4|2,0:0|0:0,0:0:0:0:
392,52,113468,2,0,L|432:200,1,120,2|2,0:0|0:0,0:0:0:0:
492,216,114368,1,0,0:0:0:0:
480,300,114668,2,0,P|400:344|284:320,1,180,2|2,0:0|0:0,0:0:0:0:
232,348,115868,2,0,P|144:332|60:368,1,180,2|0,0:0|0:0,0:0:0:0:
20,296,117068,2,0,L|8:212,1,60,2|2,0:0|0:0,0:0:0:0:
80,188,117668,6,0,L|88:36,2,120,2|2|0,0:0|0:0|0:0,0:0:0:0:
176,328,119468,1,8,0:3:0:0:
264,184,120068,1,2,0:0:0:0:
184,158,120368,1,2,0:0:0:0:
184,74,120668,1,2,0:0:0:0:
264,48,120968,1,2,0:0:0:0:
313,116,121268,6,0,P|376:128|476:100,2,120,2|2|0,0:0|0:0|0:0,0:0:0:0:
264,48,122768,1,2,0:0:0:0:
184,74,123068,2,0,L|160:224,2,120,2|2|2,0:0|0:0|0:0,0:0:0:0:
272,216,124868,6,0,P|276:280|296:348,1,120,2|0,0:0|0:0,0:0:0:0:
452,372,126068,2,0,P|448:308|428:240,1,120,2|2,0:0|0:3,0:0:0:0:
472,92,127268,5,0,0:3:0:0:
308,52,127868,1,2,0:3:0:0:
272,216,128468,1,8,0:3:0:0:
144,324,129068,6,0,P|80:332|8:320,1,120,4|0,0:3|0:3,0:0:0:0:
24,156,130268,2,0,P|88:148|160:160,1,120,2|8,0:3|0:1,0:0:0:0:
284,60,131468,5,4,0:1:0:0:
372,204,132068,1,0,0:3:0:0:
456,56,132668,1,0,0:3:0:0:
284,60,133268,1,2,0:3:0:0:
372,204,133868,6,0,P|380:268|376:360,1,120,2|0,0:1|0:3,0:0:0:0:
216,292,135068,2,0,P|208:228|212:136,1,120,8|8,0:1|0:1,0:0:0:0:
320,48,136268,5,2,0:3:0:0:
160,96,136868,1,0,0:3:0:0:
320,144,137468,1,8,0:1:0:0:
160,192,138068,1,2,0:3:0:0:
284,304,138668,6,0,P|348:305|419:283,1,120,4|0,0:3|0:3,0:0:0:0:
320,144,139868,2,0,P|355:90|374:18,1,120,8|0,0:3|0:3,0:0:0:0:
480,164,141068,6,0,L|496:316,1,120,4|0,0:0|0:3,0:0:0:0:
332,232,142268,2,0,L|348:384,1,120,0|2,0:3|0:3,0:0:0:0:
188,288,143468,1,4,0:3:0:0:
256,192,143768,12,8,145868,0:3:0:0:
