osu file format v9

[General]
AudioFilename: .mp3
AudioLeadIn: 0
PreviewTime: -1
Countdown: 0
SampleSet: Soft
StackLeniency: 0.7
Mode: 0
LetterboxInBreaks: 1

[Editor]
DistanceSpacing: 1.2
BeatDivisor: 4
GridSize: 4

[Metadata]
Title:Narcissu
Artist:eufonius
Creator:o0cannian0o
Version:Normal
Source:Narcissu -Side 2nd- CD Edition Disc B (Sound Track)
Tags:STAGE NANA Setsumi Kataoka Tomo

[Difficulty]
HPDrainRate:4
CircleSize:3
OverallDifficulty:4
ApproachRate:4
SliderMultiplier:1.4
SliderTickRate:1

[Events]
//Background and Video events
0,0,"narcissu1.jpg"
//Break Periods
2,38383,47663
2,53683,57263
2,81583,98663
2,131083,148463
2,182383,200063
//Storyboard Layer 0 (Background)
//Storyboard Layer 1 (Fail)
//Storyboard Layer 2 (Pass)
//Storyboard Layer 3 (Foreground)
//Storyboard Sound Samples
//Background Colour Transformations
3,100,163,162,255

[TimingPoints]
4883,600,4,2,1,25,1,0
48991,-100,4,2,1,30,0,0
99991,-100,4,2,1,35,0,0
100891,-100,4,2,1,35,0,1
129691,-200,4,2,1,25,0,0
132091,-100,4,2,1,45,0,0
132241,-100,4,2,1,25,0,0
201391,-100,4,2,1,15,0,0
222391,-100,4,2,1,40,0,0
223291,-100,4,2,1,40,0,1
250133,-200,4,2,1,25,0,1
252091,-100,4,2,1,25,0,0

[Colours]
Combo1 : 255,150,0
Combo2 : 5,240,5
Combo3 : 5,5,240
Combo4 : 240,5,5
Combo5 : 222,240,4

[HitObjects]
260,128,5783,1,0
184,160,6083,1,0
148,236,6383,1,0
160,320,6683,6,0,B|240:320|240:320,1,70
428,164,7883,5,0
356,120,8183,1,0
188,120,8783,1,0
336,44,9383,1,0
240,180,9983,1,0
172,228,10283,1,0
256,192,12083,5,4
404,192,14483,5,0
152,220,15383,5,0
168,136,15683,1,0
244,100,15983,1,0
324,128,16283,1,0
328,212,16583,1,0
272,276,16883,2,0,B|176:164,1,140
224,100,17783,1,0
392,116,18383,5,0
396,284,18983,1,0
144,192,21683,5,4
236,192,23783,5,0
164,148,24083,2,0,B|88:96,2,70
164,232,24983,2,0,B|92:288,2,70
216,300,25883,1,0
292,260,26183,2,0,B|504:228|404:148|404:148,1,210
336,104,27383,1,0
68,192,28583,6,0,B|160:192|160:192,1,70
220,192,29183,2,0,B|312:192|312:192,1,70
372,192,29783,1,0
448,156,30083,1,0
448,72,30383,1,0
372,40,30683,1,0
296,72,30983,2,0,B|120:216|120:216,1,210
128,288,32183,1,0
256,192,33683,5,2
208,64,34583,5,0
260,132,34883,1,0
216,204,35183,1,0
260,276,35483,1,0
344,292,35783,2,0,B|344:196|344:196,1,70
176,228,36683,2,0,B|176:312|176:312,1,70
324,220,37583,1,0
224,84,38183,1,4
48,64,48983,5,0
132,64,49283,2,0,B|196:120|196:120,1,70
184,196,49883,1,0
268,200,50183,2,0,B|268:328|268:328,1,140
348,360,51083,1,0
428,340,51383,2,0,B|428:196|428:196,1,140
364,144,52283,1,0
280,132,52583,1,0
116,164,53183,1,0
92,244,53483,1,0
404,192,58583,6,0,B|312:192|312:192,1,70
252,176,59183,1,0
212,104,59483,2,0,B|112:104|112:104,1,70
60,104,60083,2,0,B|60:8|60:8,2,70
96,180,60983,1,0
244,96,61583,1,0
240,264,62183,1,0
180,192,64883,6,0,B|272:192,3,70
16,112,66983,5,0
84,164,67283,1,0
148,112,67583,1,0
216,164,67883,1,0
212,248,68183,1,0
144,300,68483,1,0
80,244,68783,1,0
80,160,69083,1,0
148,112,69383,2,0,B|292:112|292:112,1,140
356,160,70283,1,0
356,244,70583,1,0
360,188,71783,6,0,B|360:96|360:96,1,70
288,76,72383,2,0,B|240:144|240:144,1,70
172,92,72983,1,0
96,128,73283,1,0
160,180,73583,1,0
228,232,73883,1,0
208,312,74183,2,0,B|48:312|48:312,1,140
4,260,75083,1,0
60,196,75383,2,0,B|132:196|132:196,1,70
308,256,76883,5,2
128,256,77783,5,0
176,188,78083,1,0
256,144,78383,1,0
332,188,78683,1,0
384,256,78983,1,0
296,256,79283,2,0,B|296:336|296:336,1,70
216,328,79883,2,0,B|217:252|217:252|220:251,1,70
416,192,80783,1,0
256,192,81383,1,0
160,96,99983,5,0
244,80,100283,1,0
288,152,100583,1,0
232,216,100883,1,0
124,344,101483,2,0,B|220:344|220:344,1,70
240,272,102083,2,0,B|336:272|336:272,1,70
324,184,102683,1,0
400,220,102983,1,0
456,284,103283,1,0
292,96,104183,5,0
208,104,104483,2,0,B|96:232|256:260|256:260,1,210
304,196,105683,1,0
328,276,105983,1,0
404,308,106283,2,0,B|404:148|404:148,1,140
304,192,108683,6,0,B|144:192|144:192,1,140
292,84,109883,1,0
364,128,110183,1,0
436,84,110483,1,0
256,268,111383,5,0
220,192,111683,2,0,B|76:192|76:192,1,140
204,80,112883,1,0
128,116,113183,1,0
156,196,113483,2,0,B|236:244|236:244,1,70
300,248,114083,1,0
388,156,115283,6,0,B|292:156|292:156,1,70
240,124,115883,2,0,B|144:124|144:124,1,70
108,180,116483,2,0,B|108:276|108:276,1,70
160,316,117083,1,0
240,340,117383,1,0
296,276,117683,1,0
136,80,118583,5,0
220,68,118883,2,0,B|372:68|372:68,2,140
236,152,120383,1,0
288,220,120683,2,0,B|236:292|148:208|148:208,1,140
144,112,123083,5,0
224,80,123383,1,0
304,80,123683,1,0
384,112,123983,1,0
400,196,124283,2,0,B|256:272|128:200|128:200,1,280
100,280,125783,5,0
176,316,126083,2,0,B|272:316|272:316,1,70
288,244,126683,2,0,B|384:244|384:244,1,70
436,280,127283,2,0,B|436:184|436:184,1,70
360,172,127883,2,0,B|56:172|56:172,1,280
208,284,129683,2,0,B|496:284|496:284,1,280,0|4
256,96,149783,5,0
204,164,150083,1,0
260,228,150383,1,0
204,292,150683,1,0
120,296,150983,2,0,B|120:152|120:152,1,140
176,96,151883,5,0
260,96,152183,2,0,B|420:96|420:96,1,140
400,264,153383,2,0,B|256:264|256:264,1,140
228,184,154283,1,0
144,184,154583,1,0
384,192,156083,6,0,B|300:264|204:264|128:192|128:192,1,280,0|4
368,288,159383,5,0
288,308,159683,1,0
204,308,159983,1,0
124,280,160283,1,0
76,212,160583,1,0
144,164,160883,2,0,B|288:164|288:164,1,140
360,128,161783,5,0
196,100,162383,2,0,B|52:100|52:100,1,140
152,240,163583,1,0
220,288,163883,1,0
392,160,165683,6,0,B|380:224|312:240|260:228|240:184|236:144|236:144,1,210
48,196,167783,6,0,B|48:96|48:96,1,70
128,104,168383,2,0,B|128:24|128:24,1,70
208,56,168983,1,0
208,140,169283,1,0
284,108,169583,1,0
284,24,169883,1,0
364,52,170183,2,0,B|364:212|364:212,1,140
324,264,171083,1,0
240,252,171383,1,0
484,224,172583,5,0
484,140,172883,1,0
412,100,173183,1,0
344,148,173483,1,0
348,232,173783,2,0,B|348:332|348:332,1,70
268,276,174383,2,0,B|268:184|268:184,1,70
200,156,174983,1,0
44,216,175583,1,0
96,280,175883,1,0
176,300,176183,1,0
216,52,177683,5,0
168,300,178583,6,0,B|264:300|264:300,1,70
272,224,179183,2,0,B|192:224|192:224,1,70
168,148,179783,2,0,B|248:148|248:148,1,70
404,120,180683,1,0
432,200,180983,1,0
180,224,181883,1,0
156,144,182183,1,0
112,80,201383,5,0
192,60,201683,2,0,B|284:40,1,70
320,104,202283,2,0,B|416:92,1,70
404,180,202883,2,0,B|472:192,1,70
436,268,203483,2,0,B|360:304,1,70
292,324,204083,1,0
208,316,204383,1,0
136,276,204683,1,0
228,80,206783,6,0,B|304:80|304:80,2,70
144,80,207683,1,0
68,116,207983,1,0
48,196,208283,1,0
80,272,208583,1,0
148,320,208883,2,0,B|236:352|236:352,1,70
288,308,209483,1,0
324,232,209783,1,0
440,124,211583,6,0,B|392:188|392:188,1,70
312,176,212183,2,0,B|258:104|258:104,1,70
184,120,212783,2,0,B|140:184|140:184,1,70
80,124,213383,1,0
40,200,213683,2,0,B|76:344|236:324|232:184|232:184,1,280
420,296,216683,6,0,B|356:232|356:232,1,70
404,168,217283,1,0
376,88,217583,1,0
300,56,217883,1,0
216,72,218183,1,0
152,128,218483,2,0,B|40:208|168:304|168:304,1,210
256,192,219683,12,0,221483
104,252,222383,5,0
144,176,222683,1,0
208,232,222983,1,0
280,192,223283,1,0
448,176,223883,2,0,B|480:256|480:256,1,70
388,244,224483,2,0,B|420:324|420:324,1,70
332,308,225083,2,0,B|356:380,2,70
112,188,226583,5,0
132,108,226883,2,0,B|300:68|276:204|276:204,1,210
340,256,228083,1,0
276,308,228383,1,0
192,324,228683,2,0,B|112:324|112:324,1,70
92,244,229283,1,0
356,36,230483,5,0
420,80,231083,2,0,B|372:144|372:144,1,70
304,96,231683,2,0,B|256:160|256:160,1,70
212,84,232283,2,0,B|148:148|228:212|228:212,1,140
68,240,233783,5,0
152,244,234083,2,0,B|264:116|264:116,1,140
304,80,234983,1,0
388,80,235283,1,0
444,144,235583,1,0
396,212,235883,2,0,B|284:340|284:340,1,140
80,80,237683,6,0,B|80:176|80:176,1,70
164,136,238283,2,0,B|164:216|164:216,1,70
244,184,238883,2,0,B|244:280|244:280,1,70
320,216,239483,1,0
320,132,239783,1,0
320,48,240083,1,0
116,96,240983,5,0
116,180,241283,2,0,B|180:244|180:244|272:168|272:168,1,210
216,104,242483,2,0,B|280:72|280:72,1,70
364,72,243083,1,0
368,156,243383,1,0
368,240,243683,1,0
80,176,245483,5,0
112,256,245783,1,0
144,336,246083,1,0
176,256,246383,1,0
208,176,246683,1,0
376,176,247283,1,0
468,80,248183,5,0
468,164,248483,2,0,B|420:244|420:244,1,70
396,284,249083,2,0,B|328:224|328:224,1,70
388,168,249683,2,0,B|328:112|328:112,1,70
276,168,250283,2,0,B|248:260|152:260|128:168|128:168,1,210
256,192,252383,12,0,254483
