osu file format v6

[General]
AudioFilename: eufonius - Metro Chrome.mp3
AudioLeadIn: 0
PreviewTime: 40595
Countdown: 0
SampleSet: Soft
StackLeniency: 0.7
Mode: 0
LetterboxInBreaks: 0

[Editor]
Bookmarks: 72105,90855,106855,118355
DistanceSpacing: 0.600000023841858
BeatDivisor: 4
GridSize: 8

[Metadata]
Title:Metro Chrome
Artist:eufonius
Creator:S i R i R u
Version:Normal
Source:Metro Chrome
Tags:

[Difficulty]
HPDrainRate:4
CircleSize:3
OverallDifficulty:5
SliderMultiplier:1.6
SliderTickRate:2

[Events]
//Background and Video events
0,0,"BG.jpg"
//Break Periods
2,24783,31133
2,64783,71383
//Storyboard Layer 0 (Background)
//Storyboard Layer 1 (Fail)
//Storyboard Layer 2 (Pass)
//Storyboard Layer 3 (Foreground)
//Storyboard Sound Samples
//Background Colour Transformations
3,100,163,162,255

[TimingPoints]
4583,500,4,2,1,61,1,0
24470,-100,4,2,1,61,0,1
25595,-100,4,2,1,61,0,0
39480,-200,4,2,1,40,0,0
40730,-100,4,2,1,41,0,1
44720,-100,4,2,1,41,0,0
48470,-100,4,2,1,41,0,1
52470,-100,4,2,1,41,0,0
56470,-100,4,2,1,41,0,0
105470,-200,4,2,1,41,0,0
106470,-100,4,2,1,41,0,0
114470,-100,4,2,1,41,0,1
118720,-100,4,2,1,41,0,0
122470,-100,4,2,1,41,0,1
125970,-100,4,2,1,41,0,0
141595,-100,4,2,1,41,0,1
142095,-100,4,2,0,41,0,0

[Colours]
Combo1 : 98,104,223
Combo2 : 255,168,168
Combo3 : 0,181,0
Combo4 : 211,228,3

[HitObjects]
112,192,8583,2,0,B|304:192,2,160
112,96,10083,1,0
160,96,10333,1,0
208,96,10583,2,0,B|312:96,2,80
208,192,11583,5,2
208,240,11833,1,0
208,288,12083,1,0
304,264,12583,1,2
352,264,12833,1,0
352,120,13583,6,0,B|288:120|240:152|224:216,1,160
228,202,14333,2,0,B|224:312,2,80,2|0|0
228,202,15083,1,0
224,104,15583,1,2
272,104,15833,1,2
416,104,16333,5,0
432,152,16583,1,0
416,200,16833,1,0
432,248,17083,1,0
360,312,17583,6,0,B|304:312|272:360,2,80
360,216,18583,2,0,B|360:120,2,80,0|2|0
264,216,19583,2,0,B|168:216,1,80,2|2
112,152,20333,5,0
112,104,20583,1,0
136,64,20833,1,0
184,48,21083,1,0
280,48,21583,1,2
328,48,21833,1,2
328,192,22583,6,0,B|328:304,2,80
328,96,23583,2,0,B|328:40,2,40
184,96,24583,1,0
80,192,32333,5,0
128,192,32583,1,2
176,192,32833,2,0,B|224:192|224:248|336:248,1,160,2|0
416,248,33833,5,2
416,248,34083,2,0,B|416:136,1,80,2|0
352,96,34833,1,0
304,96,35083,1,2
256,184,35583,1,0
208,184,35833,1,2
128,272,36333,6,0,B|128:360,2,80,0|2|0
128,224,37083,2,0,B|128:136,2,80
168,256,37833,2,0,B|336:256,1,160,0|2
424,256,38833,1,0
424,208,39083,1,0
424,208,39333,1,0
424,160,39583,2,0,B|376:120|288:120,1,120,0|2
256,192,40583,5,4
160,192,41083,2,0,B|48:192,2,80,8|0|0
208,112,42083,1,8
256,112,42333,1,0
304,112,42583,1,0
400,112,43083,2,0,B|400:176|344:192|352:272,1,160,8|0
448,264,44083,5,8
448,264,44333,2,0,B|448:352,2,80,2|0|0
448,216,45083,1,8
448,168,45333,1,2
448,120,45583,1,2
376,64,46083,2,0,B|304:64|320:136|200:128,1,160,8|0
136,128,47083,1,8
136,128,47333,1,0
136,224,47833,6,0,B|136:320,2,80,0|8|0
136,224,48583,2,0,B|304:224,2,160,4|8|0
136,128,50083,2,0,B|136:72|192:48,2,80,8|0|0
136,224,51083,5,8
104,264,51333,1,0
72,304,51583,1,0
160,344,52083,1,8
208,344,52333,1,0
256,344,52583,6,0,B|424:344,2,160,0|8|0
256,248,54083,2,0,B|249:192|281:136|374:132,1,160,8|0
440,136,55083,1,8
344,136,55583,2,0,B|256:136,2,80,0|0|8
344,136,56333,1,0
344,136,56583,1,2
344,256,57083,5,8
312,296,57333,1,2
280,336,57583,1,2
208,232,58083,5,8
160,232,58333,1,2
112,232,58583,1,2
160,120,59083,5,8
208,120,59333,2,0,B|296:120,2,80,2|2|0
160,120,60083,1,8
152,216,60583,6,0,B|144:288|200:328|264:328,1,160,4|8
256,232,61583,2,0,B|432:232,2,160,0|8|0
248,136,63083,2,0,B|184:136|160:176,2,80,8|2|2
344,136,64083,1,8
392,136,64333,1,2
440,136,64583,1,2
176,192,72583,5,0
256,112,73083,1,0
336,192,73583,1,0
256,272,74083,1,0
160,272,74583,6,0,B|56:272,2,80,2|0|0
160,176,75583,1,2
232,112,76083,1,0
272,136,76333,1,0
312,112,76583,1,2
352,136,76833,1,0
392,112,77083,1,0
392,208,77583,1,2
392,256,77833,1,2
256,256,78333,6,0,B|192:256|136:288|104:360,2,160
256,256,79583,1,2
256,160,80083,1,0
304,160,80333,1,0
352,160,80583,1,2
352,160,80833,2,0,B|440:160,2,80,0|0|2
256,80,81833,5,0
208,80,82083,1,0
160,80,82333,1,0
112,80,82583,2,0,B|112:272,1,160,2|0
200,192,83583,1,0
200,192,83833,2,0,B|272:192|320:240|328:304,1,160,2|0
416,280,84833,1,2
464,280,85083,1,2
464,184,85583,6,0,B|464:120|408:72|352:80,1,160,2|0
320,80,86333,1,0
272,80,86583,2,0,B|96:80,2,160,2|0|0
272,176,88083,2,0,B|272:232|240:264,2,80
272,176,88833,2,0,B|168:176,2,80,2|0|2
272,176,89583,2,0,B|336:176|384:224|368:288,1,160,2|0
272,272,90583,1,2
144,272,91083,6,0,B|96:272|72:312,2,80,0|0|2
144,176,92083,2,0,B|144:88,2,80,0|0|2
224,224,93083,2,0,B|320:224,2,80,0|0|2
224,128,94083,5,0
272,112,94333,1,0
320,128,94583,1,2
368,112,94833,1,0
416,128,95083,1,2
416,224,95583,6,0,B|416:296|280:328,1,160,2|0
296,224,96583,2,0,B|152:240|160:320,1,160,2|0
161,293,97583,1,0
64,296,98083,6,0,B|64:200,2,80,0|2|2
161,293,99083,2,0,B|232:296|240:216|320:224,1,160,2|0
304,320,100083,2,0,B|408:320,2,80,0|2|2
304,224,101083,1,0
280,184,101333,1,2
232,176,101583,6,0,B|176:168|104:216|112:296,1,160,2|0
208,264,102583,2,0,B|208:368,2,80,0|2|2
208,168,103583,2,0,B|208:112|168:72,2,80,0|2|2
304,168,104583,5,0
352,168,104833,1,2
400,168,105083,1,2
376,80,105583,2,0,B|232:80,1,120
256,80,106583,5,4
160,80,107083,2,0,B|64:80,2,80,8|0|0
160,176,108083,1,8
192,216,108333,1,0
240,216,108583,1,0
336,216,109083,2,0,B|384:216|408:256,2,80,8|0|0
280,296,110083,6,0,B|88:296,1,160,8|0
88,208,111083,1,8
104,168,111333,1,0
88,120,111583,1,0
184,120,112083,6,0,B|272:120,2,80,8|0|0
184,216,113083,2,0,B|176:288|240:328|304:312,1,160,8|0
280,216,114083,2,0,B|400:216,2,80,8|0|4
280,120,115083,5,8
184,120,115583,1,0
88,120,116083,2,0,B|88:240,2,80,8|0|0
184,120,117083,2,0,B|248:120|248:208|328:192,1,160,8|0
320,96,118083,1,8
416,96,118583,6,0,B|416:296,1,160,2|8
336,200,119583,2,0,B|336:280|280:320|216:320,1,160,2|8
240,224,120583,2,0,B|72:224,2,160,2|8|0
240,224,122083,1,8
240,128,122583,6,0,B|240:64|176:40,2,80,4|0|8
320,176,123583,2,0,B|392:176|368:240|480:232,1,160,0|8
464,136,124583,2,0,B|464:48,2,80,0|0|8
464,232,125583,1,0
464,280,125833,1,0
464,328,126083,1,8
376,296,126583,6,0,B|184:296,1,160,0|8
136,248,127583,1,0
88,248,127833,1,0
40,248,128083,1,8
64,152,128583,6,0,B|64:88|128:48|192:56,1,160,0|8
176,152,129583,2,0,B|352:152,2,160,0|8|4
176,272,131083,5,8
272,272,131583,1,0
368,272,132083,1,8
448,216,132583,2,0,B|448:112,2,80,0|0|8
368,272,133583,1,0
320,272,133833,1,0
272,272,134083,6,0,B|224:272|184:320,2,80,8|0|2
264,176,135083,2,0,B|264:72,2,80,8|0|2
168,176,136083,1,8
128,208,136333,1,0
96,240,136583,1,2
96,336,137083,2,0,B|192:336,2,80,8|0|2
96,336,138083,1,2
256,208,138583,12,2,141583
