osu file format v6

[General]
AudioFilename: eufonius - Metro Chrome.mp3
AudioLeadIn: 0
PreviewTime: 40595
Countdown: 0
SampleSet: Soft
StackLeniency: 0.7
Mode: 0
LetterboxInBreaks: 0

[Editor]
Bookmarks: 38605,74855,90855,130855
DistanceSpacing: 1
BeatDivisor: 4
GridSize: 8

[Metadata]
Title:Metro Chrome
Artist:eufonius
Creator:S i R i R u
Version:Hard
Source:Metro Chrome
Tags:

[Difficulty]
HPDrainRate:7
CircleSize:4
OverallDifficulty:7
SliderMultiplier:1.6
SliderTickRate:2

[Events]
//Background and Video events
0,0,"BG.jpg"
//Break Periods
2,24783,31433
2,36033,37933
//Storyboard Layer 0 (Background)
//Storyboard Layer 1 (Fail)
//Storyboard Layer 2 (Pass)
//Storyboard Layer 3 (Foreground)
//Storyboard Sound Samples
//Background Colour Transformations
3,100,163,162,255

[TimingPoints]
4583,500,4,2,1,61,1,0
24470,-100,4,2,1,61,0,1
25595,-100,4,2,1,61,0,0
39480,-200,4,2,1,40,0,0
40730,-100,4,2,1,41,0,1
44720,-100,4,2,1,41,0,0
48470,-100,4,2,1,41,0,1
52470,-100,4,2,1,41,0,0
56470,-100,4,2,1,41,0,0
105470,-200,4,2,1,41,0,0
106470,-100,4,2,1,41,0,1
109970,-100,4,2,1,41,0,0
114470,-100,4,2,1,41,0,1
118720,-100,4,2,1,41,0,0
122470,-100,4,2,1,41,0,1
125970,-100,4,2,1,41,0,0
141595,-100,4,2,1,41,0,1
142095,-100,4,2,0,41,0,0

[Colours]
Combo1 : 98,104,223
Combo2 : 255,168,168
Combo3 : 0,181,0
Combo4 : 211,228,3

[HitObjects]
112,192,8583,2,0,B|208:192,1,80,2|0
256,144,9083,1,0
256,144,9333,1,0
336,144,9583,1,2
416,144,9833,2,0,B|480:152|480:272|384:256,1,160
336,256,10583,1,2
288,328,10833,2,0,B|192:328,1,80
240,256,11333,2,0,B|120:256,1,80,0|2
112,328,11833,1,0
40,128,12333,6,0,B|48:80|104:80,1,80,0|2
176,80,12833,1,0
256,80,13083,1,0
216,152,13333,2,0,B|408:152,1,160
376,152,14083,1,0
376,72,14333,2,0,B|432:72|464:120|472:168|432:208,1,160,2|0
400,248,15083,1,2
248,296,15583,1,2
168,296,15833,1,2
72,112,16333,6,0,B|72:224,1,80,0|2
144,152,16833,1,0
216,112,17083,1,0
376,112,17583,6,0,B|496:112,1,80,2|0
424,192,18083,2,0,B|328:192,1,80
304,264,18583,1,2
240,320,18833,1,0
160,320,19083,1,0
64,192,19583,1,2
64,112,19833,1,2
368,48,20333,6,0,B|416:56|440:104,1,80,0|2
312,112,20833,2,0,B|360:120|384:168,1,80,0|0
256,176,21333,2,0,B|304:184|328:232,1,80,0|2
336,344,21833,5,0
336,344,22083,2,0,B|248:344,2,80,0|0|2
416,344,22833,1,0
416,344,23083,1,0
416,48,23583,5,2
336,48,23833,1,2
256,192,24583,5,4
120,192,32333,6,0,B|224:192,1,80
256,256,32833,1,0
336,256,33083,2,0,B|336:344,2,80,2|0|0
416,256,33833,2,0,B|416:152,2,80,0|2|0
416,96,34833,1,2
336,96,35083,1,2
176,96,35583,1,2
176,176,35833,1,2
40,192,38833,6,0,B|128:192,1,80
96,272,39333,1,0
152,336,39583,2,0,B|199:348|264:312|256:232,1,160,0|4
256,160,40833,5,0
256,160,40958,1,0
256,160,41083,1,8
328,112,41333,2,0,B|416:112,2,80
256,64,42083,1,8
176,64,42333,1,0
176,144,42583,6,0,B|104:144|64:208|88:280,1,160,0|8
160,248,43333,1,0
240,248,43583,2,0,B|248:304|200:360|104:352,1,160,0|8
56,352,44333,6,0,B|56:264,1,80
112,208,44833,2,0,B|112:120,2,80,0|8|0
192,208,45583,2,0,B|248:208|240:272|352:256,1,160,0|8
424,256,46333,5,0
424,256,46583,1,0
472,200,46833,1,0
424,144,47083,1,8
472,88,47333,1,0
168,80,47833,5,0
96,120,48083,1,8
56,192,48333,1,0
136,240,48583,6,0,B|256:240,1,80,4|0
376,288,49083,2,0,B|288:288,1,80,8|0
136,328,49583,6,0,B|240:328,1,80
376,200,50083,2,0,B|280:200,1,80,8|0
256,112,50583,5,0
192,64,50833,1,0
112,64,51083,1,8
112,192,51333,6,0,B|112:296,2,80
192,192,52083,1,8
256,240,52333,1,0
320,192,52583,2,0,B|320:104,2,80,2|2|8
384,240,53333,1,2
456,280,53583,2,0,B|456:368,2,80,0|2|8
456,200,54333,5,0
456,120,54583,1,2
384,160,54833,1,2
384,80,55083,1,8
312,120,55333,2,0,B|120:120,1,160,0|0
96,184,56083,1,8
96,184,56208,1,0
96,184,56333,1,0
96,264,56583,6,0,B|280:264,1,160,2|8
336,264,57333,2,0,B|384:264|424:320,2,80,0|2|0
288,200,58083,1,8
232,144,58333,2,0,B|128:144,1,80,0|2
96,200,58833,1,0
96,200,59083,1,8
96,40,59583,5,2
176,40,59833,1,2
256,40,60083,1,8
312,192,60583,5,2
384,152,60833,1,2
456,192,61083,1,8
384,336,61583,5,2
304,336,61833,1,2
224,336,62083,1,8
72,192,62583,6,2,B|168:192,1,80
232,192,63083,2,0,B|328:192,2,80,8|0|0
232,112,63833,1,0
232,112,64083,6,0,B|240:48|352:56|352:136,1,160,8|4
352,192,64833,1,0
352,272,65083,1,8
192,272,65583,5,0
128,320,65833,1,0
64,272,66083,1,8
64,112,66583,6,0,B|160:112|136:200|232:184,1,160,0|8
280,184,67333,1,0
320,256,67583,2,0,B|416:256,2,80,0|0|8
280,328,68333,2,0,B|176:328,2,80,0|2|0
280,328,69083,1,8
440,48,69583,5,2
440,128,69833,1,2
440,208,70083,1,8
56,192,70583,5,2
136,192,70833,1,2
216,192,71083,2,0,B|216:288,2,80,8|0|2
208,112,71833,2,0,B|280:112|312:168|288:240,1,160,2|0
296,296,72583,5,2
296,296,73083,1,8
376,296,73333,1,0
440,248,73583,1,0
376,200,73833,2,0,B|376:104,1,80,0|8
216,120,74583,1,2
72,192,75083,5,0
72,272,75333,1,0
72,272,75583,1,2
144,232,75833,2,0,B|248:232,1,80
384,232,76583,1,2
304,232,76833,6,0,B|312:304|376:304,1,80,0|2
384,232,77333,2,0,B|384:40,1,160,0|0
256,64,78333,5,0
216,136,78583,2,0,B|112:136,1,80,2|0
176,208,79083,2,0,B|72:208,1,80
328,208,79583,6,0,B|424:208,1,80,2|0
368,280,80083,2,0,B|464:280,1,80
448,280,80583,1,0
448,128,80833,5,2
384,80,81083,1,2
320,128,81333,2,0,B|216:128,1,80,0|2
184,184,81833,1,0
256,328,82333,6,0,B|352:328,1,80,0|2
256,328,82833,2,0,B|152:328,1,80,0|2
256,240,83333,5,0
256,160,83583,1,0
328,200,83833,2,0,B|392:192|448:248|448:328,1,160,2|0
360,288,84583,1,2
296,336,84833,1,2
216,336,85083,1,2
80,64,85583,6,0,B|80:160|136:216,1,160,0|2
432,320,86583,2,0,B|432:224|376:168,1,160,0|2
304,168,87333,5,0
224,168,87583,1,0
264,96,87833,2,0,B|264:48|208:32,2,80,2|2|2
224,168,88583,2,0,B|224:344,1,160,0|2
304,328,89333,1,2
304,248,89583,2,0,B|376:240|432:296|432:360,2,160,2|0|2
256,56,91083,5,2
176,56,91333,1,0
216,128,91583,1,2
216,208,91833,2,0,B|320:208|336:112,2,160,2|0|0
216,128,93083,2,0,B|48:128,2,160,2|0|0
256,56,94333,6,0,B|352:56,2,80,2|2|2
176,56,95083,1,0
136,56,95208,1,0
96,56,95333,1,0
88,136,95583,1,2
88,216,95833,1,0
88,216,96083,1,2
152,264,96333,1,0
232,264,96583,6,0,B|320:264,2,80,2|0|2
152,264,97333,2,0,B|88:264|80:328,1,80,0|2
88,144,98083,1,0
168,144,98333,5,0
248,144,98583,2,0,B|336:144,2,80,2|2|2
168,280,99583,1,0
168,280,99833,1,0
248,280,100083,2,0,B|296:280|320:328,2,80,2|2|2
248,200,100833,1,0
328,200,101083,1,0
328,40,101583,6,0,B|407:35|441:89|440:135,1,160,0|2
440,208,102333,1,0
440,128,102583,2,0,B|440:32,2,80,2|0|2
368,168,103333,1,0
296,208,103583,6,0,B|296:312,2,80,2|0|2
296,128,104333,1,0
224,168,104583,2,0,B|168:168,2,40
296,128,105083,1,2
296,208,105333,1,0
352,272,105583,2,0,B|360:320|416:336,1,80,2|0
400,330,106333,1,2
448,192,106583,6,0,B|336:192,1,80,4|0
312,248,107083,1,8
312,248,107333,1,0
256,312,107583,2,0,B|160:312,2,80,0|0|8
312,248,108333,5,0
312,168,108583,1,0
312,168,108833,1,0
360,104,109083,1,8
440,104,109333,2,0,B|440:208,1,80
440,264,109833,5,0
360,264,110083,1,8
280,264,110333,1,0
200,264,110583,6,0,B|144:272|128:328,2,80,0|0|8
200,184,111333,1,0
200,104,111583,2,0,B|256:104|280:168,2,80,0|0|8
200,104,112333,1,0
72,184,112583,5,2
136,232,112833,1,2
200,184,113083,2,0,B|296:184,2,80,8|2|2
200,104,113833,1,0
256,48,114083,1,8
256,48,114208,1,0
256,48,114333,1,0
336,48,114583,5,4
336,208,115083,1,8
256,208,115333,1,0
256,288,115583,2,0,B|152:288,2,80,0|0|8
256,208,116333,1,0
208,144,116583,5,0
168,144,116708,1,0
128,144,116833,1,0
48,144,117083,2,0,B|40:224|104:264|152:256,1,160,8|0
216,256,117833,1,0
296,256,118083,2,0,B|392:256,2,80,8|0|2
256,184,118833,5,0
256,104,119083,2,0,B|248:48|136:40|136:120,1,160,8|2
136,184,119833,2,0,B|136:272,1,80,2|8
208,232,120333,2,0,B|208:336,1,80,2|0
280,280,120833,5,0
360,280,121083,1,8
440,280,121333,1,0
440,280,121583,1,0
440,200,121833,2,0,B|440:152|472:120,2,80,0|8|0
440,280,122583,5,4
280,280,123083,1,8
280,120,123583,1,0
280,200,123833,1,0
280,280,124083,1,8
208,240,124333,2,0,B|104:240,2,80
280,280,125083,1,8
280,200,125333,2,0,B|368:200,2,80
256,72,126083,5,8
192,120,126333,1,2
128,168,126583,2,0,B|128:344,1,160,2|8
200,288,127333,1,2
200,208,127583,2,0,B|272:208|296:288|272:328,1,160,2|8
200,288,128333,5,2
200,208,128583,2,0,B|200:112,2,80,2|2|8
272,248,129333,2,0,B|344:248|344:320|440:304,1,160
416,224,130083,1,8
416,144,130333,1,0
416,64,130583,5,4
256,64,131083,1,8
336,64,131333,1,0
256,64,131583,1,0
200,120,131833,6,0,B|200:208,1,80,0|8
272,168,132333,1,0
272,168,132583,2,0,B|272:336,1,160,0|8
200,296,133333,2,0,B|144:296|120:344,2,80
200,216,134083,1,8
176,184,134208,1,0
152,152,134333,1,0
72,152,134583,6,0,B|72:240,2,80,2|2|8
112,80,135333,2,2,B|112:32,2,40
192,80,135833,2,0,B|280:80,1,80,0|8
352,80,136333,1,0
272,80,136583,1,2
272,160,136833,2,0,B|272:280,2,80,2|8|2
112,160,137833,5,2
64,224,138083,1,8
112,288,138333,1,2
256,208,138583,12,2,141583
