osu file format v6

[General]
AudioFilename: eufonius-Megumeru_cuckool_mix_2007_-TV_animation_ver.-.mp3
AudioLeadIn: 993
PreviewTime: 40454
Countdown: 0
SampleSet: Soft
StackLeniency: 0.7
Mode: 0
LetterboxInBreaks: 1
SkinPreference:Default

[Editor]
Bookmarks: 730,13971,27212,40454,53695,66523
DistanceSpacing: 1.10000002384186
BeatDivisor: 4
GridSize: 16

[Metadata]
Title:Megumeru ~Cuckool Mix 2007~ (TV Size)
Artist:eufonius
Creator:roxkyuubiforever
Version:Insane
Source:Clannad
Tags:Nagisa Opening Azure_Kyte

[Difficulty]
HPDrainRate:6
CircleSize:5
OverallDifficulty:8
SliderMultiplier:1.6
SliderTickRate:1

[Events]
//Background and Video events
0,0,"clannad_wallpaper_0009_1600x1200.jpg"
Video,-6500,"Clannad OP - No credits version.flv"
//Break Periods
//Storyboard Layer 0 (Background)
//Storyboard Layer 1 (Fail)
//Storyboard Layer 2 (Pass)
//Storyboard Layer 3 (Foreground)
//Storyboard Sound Samples
//Background Colour Transformations
3,100,255,255,255

[TimingPoints]
730,413.793103448276,4,2,0,60,1,0
13764,-100,4,2,2,70,0,0
25247,-200,4,2,1,60,0,0
26798,-100,4,2,2,80,0,0
33626,-100,4,2,2,90,0,0
34040,-100,4,2,2,80,0,0
40454,-100,4,2,2,81,0,1
66730,-100,4,2,1,100,0,0
79350,-100,4,2,1,50,0,0
85143,-100,4,2,2,0,0,0

[Colours]
Combo1 : 128,255,255
Combo2 : 140,198,255
Combo3 : 255,206,231
Combo4 : 255,193,255

[HitObjects]
176,128,730,2,0,B|112:208|176:288,1,160
336,272,1350,2,0,B|400:192|320:112,2,160
256,112,2592,5,2
256,112,2695,1,2
256,112,2798,1,2
304,192,3005,1,0
208,192,3212,1,0
256,272,3419,1,2
256,272,3523,1,2
256,272,3626,1,2
320,336,3833,5,0
400,336,4040,2,0,B|464:328|464:224|384:224,1,160
112,224,4661,2,0,B|48:224|48:336|112:336,1,160
192,288,5281,1,0
256,224,5488,2,0,B|256:128,1,80
192,80,5902,5,2
192,80,6005,1,2
192,80,6109,1,2
128,16,6316,1,0
64,80,6523,1,0
128,144,6729,1,2
128,144,6833,1,2
128,144,6936,1,2
384,208,7350,6,0,B|336:128|384:48,1,160
128,208,7971,2,0,B|176:128|128:48,1,160
256,64,8798,2,0,B|304:144|208:208|272:304,1,240
448,320,9833,6,0,B|448:144,1,160
352,160,10454,2,0,B|352:336,1,160
256,320,11074,1,0
256,144,11488,1,2
80,48,11902,5,0
80,48,12109,2,2,B|48:144|128:208,1,160
240,48,12729,2,2,B|272:144|192:208,1,160
160,16,13557,1,2
112,176,13971,6,0,B|160:336,1,160
352,328,14592,2,0,B|400:152,1,160
256,48,15419,1,0
256,224,15833,5,2
256,224,15936,1,2
256,224,16040,1,2
336,176,16247,1,0
256,128,16454,1,0
176,176,16661,1,2
176,176,16764,1,2
176,176,16867,1,2
128,112,17074,5,0
128,112,17281,2,0,B|64:128|64:224|128:240,1,160
384,240,17902,2,0,B|448:224|448:128|384:112,1,160
336,64,18523,1,0
256,112,18729,2,0,B|256:224,1,80
256,272,19143,5,2
256,272,19247,1,2
256,272,19350,1,2
292,351,19557,2,0,B|255:384|217:349,1,80
256,272,19971,1,2
256,272,20074,1,2
256,272,20178,1,2
96,208,20592,6,0,B|160:144|240:144,1,160
416,208,21212,2,0,B|352:144|272:144,2,160
256,352,22661,1,0
256,352,22867,1,0
224,96,23488,5,0
160,48,23695,2,2,B|80:96|64:176|96:272,1,240
160,320,24523,2,2,B|240:352|320:320,1,160
320,240,25143,1,0
288,160,25350,2,2,B|192:160,1,80
256,336,27212,6,0,B|160:336|48:288|16:192|48:64|64:64,1,400
240,16,28661,2,2,B|336:16|448:112|416:256,1,320
256,304,29902,1,0
256,304,30109,1,0
256,64,30523,6,0,B|144:48|48:112|16:240|128:336,1,400
288,368,31971,2,2,B|368:384|480:352|480:240,1,240
480,176,32798,1,0
256,80,33419,5,0
304,288,33833,6,0,B|208:288,1,80,8|0
224,128,34247,2,0,B|320:128,1,80
192,288,34661,6,0,B|144:208,1,80,8|0
336,128,35074,2,0,B|384:208,1,80
144,192,35488,6,0,B|208:112,1,80,8|0
384,224,35902,2,0,B|320:304,1,80
224,128,36316,6,0,B|320:128,1,80,8|0
304,288,36730,2,0,B|192:288,1,80
128,288,37143,5,8
128,288,37350,1,0
64,224,37557,1,8
64,224,37764,1,0
128,160,37971,5,8
128,160,38178,1,0
64,96,38385,1,8
64,96,38592,1,0
144,48,38798,5,8
224,32,39005,1,8
304,64,39212,1,8
368,128,39419,1,8
400,208,39626,1,8
416,296,39833,5,8
376,320,39936,1,8
336,336,40040,1,8
288,344,40143,1,8
240,336,40247,1,8
200,320,40350,1,8
160,296,40454,5,12
32,160,40867,2,0,B|64:64|160:48,1,160,8|0
224,48,41488,1,0
304,80,41695,1,8
368,144,41902,1,0
400,224,42109,1,0
352,288,42316,1,0
352,288,42419,1,0
352,288,42523,1,8
256,288,42730,1,0
256,288,42833,1,0
256,288,42936,2,0,B|256:192,1,80
208,128,43350,6,0,B|144:64,1,80,8|0
256,112,43764,2,0,B|256:16,1,80
304,128,44178,2,0,B|384:64,1,80,8|0
416,144,44592,1,0
464,224,44798,1,0
368,224,45005,1,8
272,224,45212,2,0,B|80:224,2,160,0|0|0
272,304,46247,6,0,B|368:304,1,80,0|0
272,144,46661,2,8,B|176:144,1,80,8|0
96,144,47074,6,0,B|72:184|96:224,1,80,8|0
160,272,47488,1,8
240,256,47695,1,0
304,192,47902,1,0
288,96,48109,1,0
288,96,48212,1,0
288,96,48316,1,8
368,64,48523,2,0,B|448:112|448:208,1,160
400,288,49143,1,8
304,288,49350,6,0,B|288:208|336:128,1,160
208,288,49971,2,0,B|224:208|176:128,1,160,8|0
96,112,50592,1,0
96,112,50695,1,0
96,112,50798,1,8
160,48,51005,6,0,B|256:48,1,80
240,128,51419,2,0,B|336:128,1,80,0|8
352,208,51833,1,0
352,208,51936,1,0
352,208,52040,1,0
432,208,52247,2,0,B|432:256|384:288,1,80,0|8
160,208,52661,5,0
160,208,52764,1,0
160,208,52867,1,0
80,208,53074,2,0,B|80:160|128:128,1,80,0|8
176,80,53488,1,0
256,48,53695,6,0,B|320:112,1,80,8|0
384,48,54109,2,0,B|448:112,1,80,8|0
448,192,54523,1,0
400,272,54730,1,0
464,336,54936,1,8
400,272,55143,1,0
336,336,55350,1,0
256,304,55557,5,0
240,272,55661,1,0
224,240,55764,1,8
256,112,55971,1,0
272,144,56074,1,0
288,176,56178,1,0
336,256,56385,5,0
416,256,56592,1,8
496,256,56798,2,0,B|496:352,2,80
496,160,57419,1,8
448,80,57626,1,0
400,160,57833,1,0
320,112,58040,5,0
320,192,58247,1,8
240,160,58454,2,0,B|240:128|224:112|192:96,1,80
240,224,58867,2,0,B|240:256|256:272|288:288,1,80,0|8
192,192,59281,2,0,B|160:192|144:208|128:240,1,80,0|0
288,192,59695,2,0,B|320:192|336:176|352:144,1,80,0|8
448,288,60316,5,8
352,288,60523,1,0
256,288,60730,2,0,B|176:240,1,80,8|0
112,192,61143,2,0,B|192:128,1,80
256,96,61557,1,8
336,48,61764,6,0,B|416:80|448:160,1,160
256,192,62385,1,8
80,160,62592,2,0,B|112:80|192:48,1,160
256,112,63212,6,0,B|256:288,1,160,8|0
336,304,63833,1,0
256,352,64040,1,8
176,304,64247,2,0,B|96:240,1,80,0|0
176,192,64661,2,0,B|96:128,1,80,0|8
176,80,65074,1,0
256,32,65281,6,8,B|448:32,1,160
336,192,66109,2,0,B|240:192,1,80,8|0
256,112,66523,5,12
416,48,66936,1,0
480,208,67350,1,0
448,288,67557,1,0
440,272,67661,1,0
432,256,67764,1,2
352,288,67971,1,0
344,272,68074,1,0
336,256,68178,1,2
256,288,68385,5,0
248,272,68488,1,0
240,256,68592,1,2
160,288,68798,1,0
152,272,68902,1,0
144,256,69005,1,2
64,288,69212,1,0
56,272,69316,1,0
48,256,69419,1,2
256,112,69833,5,4
96,48,70247,1,0
32,208,70661,1,0
64,288,70867,1,0
72,272,70971,1,0
80,256,71074,1,2
160,288,71281,1,0
168,272,71385,1,0
176,256,71488,1,2
256,288,71695,5,0
264,272,71798,1,0
272,256,71902,1,2
352,288,72109,1,0
360,272,72212,1,0
368,256,72316,1,2
448,288,72523,1,0
456,272,72626,1,0
464,256,72730,1,2
464,80,73143,5,4
320,176,73557,1,0
176,80,73971,1,0
80,80,74178,1,0
72,88,74281,1,0
64,96,74385,1,2
144,136,74592,1,0
136,144,74695,1,0
128,152,74798,1,2
208,184,75005,5,0
200,192,75109,1,0
192,200,75212,1,2
272,232,75419,1,0
264,240,75523,1,0
256,248,75626,1,2
336,288,75833,1,0
328,296,75936,1,0
320,304,76040,1,2
48,80,76454,5,4
192,176,76867,1,0
336,80,77281,1,0
432,80,77488,5,0
440,88,77592,1,0
448,96,77695,1,2
368,144,77902,1,0
376,152,78005,1,0
384,160,78109,1,2
304,192,78316,1,0
312,200,78419,1,0
320,208,78523,1,4
256,208,79350,12,0,85143
