osu file format v7

[General]
AudioFilename: Koisuru KOKORO.mp3
AudioLeadIn: 0
PreviewTime: 60701
Countdown: 0
SampleSet: Soft
StackLeniency: 0.9
Mode: 0
LetterboxInBreaks: 0

[Editor]
DistanceSpacing: 1.10000002384186
BeatDivisor: 4
GridSize: 8

[Metadata]
Title:Koisuru KOKORO
Artist:eufonius
Creator:gdeath
Version:Normal
Source:Kasimasi ~ Girl Meets Girl ~
Tags:quintitem Anime

[Difficulty]
HPDrainRate:4
CircleSize:4
OverallDifficulty:4
SliderMultiplier:1.3
SliderTickRate:0.5

[Events]
//Background and Video events
0,0,"BG 02.jpg"
//Break Periods
2,98010,101066
//Storyboard Layer 0 (Background)
//Storyboard Layer 1 (Fail)
//Storyboard Layer 2 (Pass)
//Storyboard Layer 3 (Foreground)
Sprite,Foreground,Centre,"Storyboard\title.png",320,240 M,0,1210,2227,217,420,217,403 F,0,1210,2227,0,1 F,0,2227,15956,1 M,0,15956,16973,217,403,217,420 F,0,15956,16973,1,0
Sprite,Foreground,Centre,"Storyboard\aa.png",320,240 M,0,29430,,315,430 F,0,29430,29685,0,1 F,0,29685,36040,1 F,0,36040,36295,1,0
Sprite,Foreground,Centre,"Storyboard\ab.png",320,240 M,0,33498,,541,430 F,0,33498,33752,0,1 F,0,33752,36040,1 F,0,36040,36295,1,0
Sprite,Foreground,Centre,"Storyboard\ac.png",320,240 M,0,37566,,315,430 F,0,37566,37820,0,1 F,0,37820,44176,1 F,0,44176,44430,1,0
Sprite,Foreground,Centre,"Storyboard\ad.png",320,240 M,0,41634,,520,430 F,0,41634,41888,0,1 F,0,41888,44176,1 F,0,44176,44430,1,0
Sprite,Foreground,Centre,"Storyboard\ae.png",320,240 M,0,44939,,315,430 F,0,44939,45193,0,1 F,0,45193,49007,1 F,0,49007,49261,1,0
Sprite,Foreground,Centre,"Storyboard\af.png",320,240 M,0,49769,,315,430 F,0,49769,50024,0,1 F,0,50024,52312,1 F,0,52312,52566,1,0
Sprite,Foreground,Centre,"Storyboard\ag.png",320,240 M,0,54091,,315,430 F,0,54091,54346,0,1 F,0,54346,60447,1 F,0,60447,60701,1,0
Sprite,Foreground,Centre,"Storyboard\ah.png",320,240 M,0,57651,,509,430 F,0,57651,57905,0,1 F,0,57905,60447,1 F,0,60447,60701,1,0
Sprite,Foreground,Centre,"Storyboard\ba.png",320,240 M,0,60956,,315,430 F,0,60956,61210,0,1 F,0,61210,68583,1 F,0,68583,68837,1,0
Sprite,Foreground,Centre,"Storyboard\bb.png",320,240 M,0,65278,,493,430 F,0,65278,65532,0,1 F,0,65532,68583,1 F,0,68583,68837,1,0
Sprite,Foreground,Centre,"Storyboard\bc.png",320,240 M,0,70363,,315,430 F,0,70363,70617,0,1 F,0,70617,77227,1 F,0,77227,77481,1,0
Sprite,Foreground,Centre,"Storyboard\bd.png",320,240 M,0,74430,,507,430 F,0,74430,74685,0,1 F,0,74685,77227,1 F,0,77227,77481,1,0
Sprite,Foreground,Centre,"Storyboard\be.png",320,240 M,0,77990,,315,430 F,0,77990,78244,0,1 F,0,78244,85871,1 F,0,85871,86125,1,0
Sprite,Foreground,Centre,"Storyboard\bf.png",320,240 M,0,81549,,410,430 F,0,81549,81803,0,1 F,0,81803,85871,1 F,0,85871,86125,1,0
Sprite,Foreground,Centre,"Storyboard\bg.png",320,240 M,0,86634,,315,430 F,0,86634,86888,0,1 F,0,86888,89939,1 F,0,89939,90193,1,0
Sprite,Foreground,Centre,"Storyboard\bh.png",320,240 M,0,90701,,315,430 F,0,90701,90956,0,1 F,0,90956,97566,1 F,0,97566,97820,1,0
Sprite,Foreground,Centre,"Storyboard\bi.png",320,240 M,0,93244,,406,430 F,0,93244,93498,0,1 F,0,93498,97566,1 F,0,97566,97820,1,0
Sprite,Foreground,Centre,"Storyboard\ca.png",320,240 M,0,102651,,315,430 F,0,102651,102905,0,1 F,0,102905,109261,1 F,0,109261,109515,1,0
Sprite,Foreground,Centre,"Storyboard\cb.png",320,240 M,0,106718,,498,430 F,0,106718,106973,0,1 F,0,106973,109261,1 F,0,109261,109515,1,0
Sprite,Foreground,Centre,"Storyboard\cc.png",320,240 M,0,110786,,315,430 F,0,110786,111040,0,1 F,0,111040,117396,1 F,0,117396,117651,1,0
Sprite,Foreground,Centre,"Storyboard\cd.png",320,240 M,0,114854,,497,430 F,0,114854,115108,0,1 F,0,115108,117396,1 F,0,117396,117651,1,0
Sprite,Foreground,Centre,"Storyboard\ce.png",320,240 M,0,118159,,315,430 F,0,118159,118413,0,1 F,0,118413,122227,1 F,0,122227,122481,1,0
Sprite,Foreground,Centre,"Storyboard\cf.png",320,240 M,0,122990,,315,430 F,0,122990,123244,0,1 F,0,123244,125532,1 F,0,125532,125786,1,0
Sprite,Foreground,Centre,"Storyboard\cg.png",320,240 M,0,127312,,315,430 F,0,127312,127566,0,1 F,0,127566,133668,1 F,0,133668,133922,1,0
Sprite,Foreground,Centre,"Storyboard\ch.png",320,240 M,0,130871,,476,430 F,0,130871,131125,0,1 F,0,131125,133668,1 F,0,133668,133922,1,0
Sprite,Foreground,Centre,"Storyboard\da.png",320,240 M,0,134176,,315,430 F,0,134176,134430,0,1 F,0,134430,141803,1 F,0,141803,142057,1,0
Sprite,Foreground,Centre,"Storyboard\db.png",320,240 M,0,138498,,468,430 F,0,138498,138752,0,1 F,0,138752,141803,1 F,0,141803,142057,1,0
Sprite,Foreground,Centre,"Storyboard\bc.png",320,240 M,0,143583,,315,430 F,0,143583,143837,0,1 F,0,143837,150447,1 F,0,150447,150701,1,0
Sprite,Foreground,Centre,"Storyboard\bd.png",320,240 M,0,147651,,507,430 F,0,147651,147905,0,1 F,0,147905,150447,1 F,0,150447,150701,1,0
Sprite,Foreground,Centre,"Storyboard\dc.png",320,240 M,0,151210,,315,430 F,0,151210,151464,0,1 F,0,151464,159091,1 F,0,159091,159346,1,0
Sprite,Foreground,Centre,"Storyboard\dd.png",320,240 M,0,154769,,417,430 F,0,154769,155024,0,1 F,0,155024,159091,1 F,0,159091,159346,1,0
Sprite,Foreground,Centre,"Storyboard\de.png",320,240 M,0,159854,,315,430 F,0,159854,160108,0,1 F,0,160108,163159,1 F,0,163159,163413,1,0
Sprite,Foreground,Centre,"Storyboard\df.png",320,240 M,0,163922,,315,430 F,0,163922,164176,0,1 F,0,164176,170786,1 F,0,170786,171040,1,0
Sprite,Foreground,Centre,"Storyboard\dg.png",320,240 M,0,166464,,413,430 F,0,166464,166718,0,1 F,0,166718,170786,1 F,0,170786,171040,1,0
//Storyboard Sound Samples
//Background Colour Transformations
3,100,163,162,255

[TimingPoints]
692,508.474576271186,4,2,2,40,1,0
44430,-100,4,2,2,45,0,0
53837,-100,4,2,2,40,0,0
57651,-100,4,2,2,50,0,0
92735,-100,4,2,2,55,0,0
95024,-100,4,2,2,40,0,0
117651,-100,4,2,2,45,0,0
127312,-100,4,2,2,40,0,0
130871,-100,4,2,2,50,0,0
165956,-100,4,2,2,55,0,0
168244,-100,4,2,2,40,0,0
171040,-100,4,2,2,50,0,0

[Colours]
Combo1 : 255,188,107
Combo2 : 63,150,87
Combo3 : 143,120,140
Combo4 : 242,136,147

[HitObjects]
256,192,17471,12,2,21030
256,80,21539,5,0
156,184,22047,1,2
316,328,22810,1,0
316,328,23064,2,0,B|417:299|451:180,2,195,2|0|0
256,200,25098,5,2
188,328,25607,1,0
128,200,26115,1,2
292,60,26878,1,0
292,60,27132,2,0,B|393:89|427:208,2,195,2|0|0
148,60,29166,6,0,B|84:72|74:139,2,97.5,2|0|0
400,316,31200,2,0,B|460:293|460:225,2,97.5,2|0|0
328,324,32217,1,2
328,324,32471,2,0,B|328:240,2,65
256,316,33234,6,0,B|48:316,2,195,2|0|0
256,172,35268,2,0,B|256:88,2,65,2|0|0
328,172,36030,1,0
400,172,36285,1,2
400,172,36539,2,0,B|492:172,2,65
400,100,37302,6,0,B|192:100,2,195,2|0|0
400,244,39336,1,2
256,192,39844,12,2,41369
220,108,41878,6,0,B|148:131|140:208,2,130,0|2|0
292,104,43149,2,0,B|364:127|372:204,1,130
380,268,43912,1,0
200,340,44929,6,0,B|128:316|120:239,1,130,0|2
112,104,45946,2,0,B|36:104,2,65,0|0|2
256,88,46963,2,0,B|327:111|335:188,1,130,0|2
360,324,47980,2,0,B|436:324,2,65,0|0|2
256,228,48997,1,0
112,244,49505,5,2
112,244,49759,1,0
112,244,50014,2,0,B|52:267|52:335,2,97.5,0|0|0
180,224,51030,1,0
224,88,51539,2,0,B|300:88,2,65,2|0|0
256,192,52302,12,2,53573
292,88,54081,6,0,B|400:88,2,97.5
220,76,55098,2,0,B|149:99|141:176,1,130,0|2
120,240,55861,2,0,B|48:240,2,65
256,284,56878,1,0
256,284,57132,2,0,B|256:364,2,65,0|0|2
256,140,58149,1,0
256,140,58403,1,0
256,192,58658,12,2,60692
192,96,61708,6,0,B|121:119|113:196,2,130,2|0|2
336,96,63234,2,0,B|407:119|415:196,1,130,0|2
420,260,63997,1,0
420,260,64251,2,0,B|496:260,2,65,0|0|2
288,316,65268,6,0,B|132:316,2,130,0|2|0
368,196,66793,2,0,B|360:124|289:101,1,130,2|0
148,96,67810,2,0,B|148:16,2,65,2|0|0
40,192,68827,1,2
148,284,69336,2,0,B|148:356,2,65,0|0|2
276,220,70353,6,0,B|345:242|353:314,2,130,0|2|0
144,160,71878,2,0,B|155:87|225:68,1,130,2|0
368,60,72895,2,0,B|452:60,2,65,2|0|0
316,192,73912,6,0,B|176:192,2,130,2|0|2
348,332,75437,2,0,B|500:332,2,130,0|2|0
204,332,76963,1,2
204,332,77217,1,0
204,332,77471,1,0
104,228,77980,5,2
160,96,78488,2,0,B|231:119|239:196,1,130,0|2
344,288,79505,2,0,B|415:265|423:188,1,130,0|2
428,124,80268,1,0
428,124,80522,2,0,B|504:124,2,65,0|0|2
292,80,81539,5,0
292,80,82047,2,0,B|136:80,1,130,2|0
72,192,83064,2,0,B|224:192,1,130,2|0
344,220,84081,2,0,B|415:243|423:320,2,130,2|0|2
256,336,85607,1,0
256,336,85861,1,0
256,336,86115,1,2
148,240,86624,6,0,B|79:262|71:334,2,130,0|2|0
192,104,88149,2,0,B|324:104,1,130,2|0
436,192,89166,2,0,B|436:272,2,65,2|0|0
292,192,90183,5,2
292,192,90692,2,0,B|223:214|215:286,1,130,0|2
108,192,91708,1,0
108,192,92217,2,0,B|39:170|31:98,1,130,2|0
168,56,93234,1,2
168,56,93488,1,0
168,56,93742,1,0
256,168,94251,2,0,B|256:244,2,65,2|0|0
256,192,95014,12,0,97810
368,56,102386,6,0,B|472:56,2,97.5,2|0|0
144,332,104420,2,0,B|44:332,2,97.5,2|0|0
188,276,105437,1,2
188,276,105692,1,0
232,332,105946,1,0
232,332,106200,1,0
276,276,106454,6,0,B|374:240|400:118,2,195,2|0|0
160,192,108488,2,0,B|84:192,2,65,2|0|0
188,124,109251,1,0
240,76,109505,1,2
240,76,109759,1,0
308,48,110014,1,0
308,48,110268,1,0
376,76,110522,6,0,B|474:111|500:233,2,195,2|0|0
300,196,112556,1,2
256,192,113064,12,2,114590
184,192,115098,6,0,B|112:169|104:92,2,130,0|2|0
256,192,116369,1,0
256,192,116878,1,0
256,192,117132,1,0
188,52,118149,6,0,B|56:52,2,130,0|2|0
188,52,119420,1,0
188,52,119675,1,2
316,120,120183,2,0,B|464:120,2,130,0|2|0
316,120,121454,1,0
316,120,121708,1,2
192,192,122217,1,0
320,252,122725,5,2
320,252,122980,1,0
320,252,123234,2,0,B|428:252,2,97.5,0|0|0
248,252,124251,2,0,B|176:275|168:352,1,130,0|2
169,345,125014,1,0
169,345,125268,1,0
256,192,125522,12,2,126793
144,96,127302,6,0,B|84:119|84:187,2,97.5,0|0|0
212,72,128319,1,0
352,92,128827,2,0,B|424:92,2,65,2|0|0
352,164,129590,2,0,B|340:238|265:258,1,130
200,260,130353,1,0
200,260,130607,1,0
200,260,130861,2,0,B|56:260,1,130,2|0
70,259,131624,1,0
256,192,131878,12,2,133912
84,92,134929,5,2
152,216,135437,1,0
284,160,135946,2,0,B|355:183|363:260,2,130,2|0|2
220,132,137217,1,0
220,132,137471,2,0,B|220:64,2,65,0|0|2
220,276,138488,5,0
344,348,138997,1,2
396,216,139505,2,0,B|465:235|477:308,2,130,0|2|0
276,140,141030,1,2
276,140,141285,1,0
276,140,141539,2,0,B|124:140,1,130,0|2
84,268,142556,1,0
84,268,142810,1,0
84,268,143064,1,2
220,308,143573,5,0
332,220,144081,1,2
220,132,144590,2,0,B|231:59|301:40,2,130,0|2|0
92,192,146115,1,2
92,192,146369,1,0
92,192,146624,1,0
216,260,147132,5,2
344,328,147641,1,0
396,196,148149,1,2
344,64,148658,2,0,B|496:64,2,130,0|2|0
200,64,150183,1,2
200,64,150437,1,0
200,64,150692,2,0,B|128:85|119:162,1,130,0|2
84,296,151708,6,0,B|240:296,1,130,0|2
356,292,152725,2,0,B|427:269|435:192,1,130,0|2
476,140,153488,1,0
476,140,153742,1,0
432,84,153997,1,0
432,84,154251,1,2
296,44,154759,6,0,B|140:44,1,130,0|2
52,132,155776,2,0,B|204:132,1,130,0|2
296,220,156793,2,0,B|152:220,1,130,0|2
52,308,157810,2,0,B|212:308,1,130,0|2
320,340,158827,2,0,B|396:340,2,65,0|0|2
408,224,159844,6,0,B|477:202|485:130,1,130,0|2
344,136,160861,2,0,B|275:114|267:42,1,130,0|2
128,68,161878,1,0
128,68,162386,2,0,B|60:68,2,65,2|0|0
124,212,163403,6,0,B|193:234|201:306,1,130,2|0
344,328,164420,2,0,B|413:306|421:234,1,130,2|0
460,96,165437,2,0,B|324:96,1,130,2|0
188,92,166454,2,0,B|188:20,2,65,2|0|0
256,220,167471,2,0,B|256:296,2,65,2|0|0
256,192,168234,12,0,171030
328,208,171539,6,0,B|397:230|405:302,2,130,2|0|2
188,176,173064,2,0,B|119:154|111:82,1,130,0|2
256,192,174081,12,2,175607
