osu file format v7

[General]
AudioFilename: Koisuru KOKORO.mp3
AudioLeadIn: 0
PreviewTime: 60701
Countdown: 0
SampleSet: Soft
StackLeniency: 0.9
Mode: 0
LetterboxInBreaks: 0

[Editor]
DistanceSpacing: 1.10000002384186
BeatDivisor: 4
GridSize: 8

[Metadata]
Title:Koisuru KOKORO
Artist:eufonius
Creator:gdeath
Version:Hard
Source:Kasimasi ~ Girl Meets Girl ~
Tags:quintitem Anime

[Difficulty]
HPDrainRate:8
CircleSize:5
OverallDifficulty:7
SliderMultiplier:1.6
SliderTickRate:0.5

[Events]
//Background and Video events
0,0,"BG 03.jpg"
//Break Periods
2,98020,101496
2,175817,190988
2,207342,219971
//Storyboard Layer 0 (Background)
//Storyboard Layer 1 (Fail)
//Storyboard Layer 2 (Pass)
//Storyboard Layer 3 (Foreground)
Sprite,Foreground,Centre,"Storyboard\title.png",320,240 M,0,1210,2227,217,420,217,403 F,0,1210,2227,0,1 F,0,2227,15956,1 M,0,15956,16973,217,403,217,420 F,0,15956,16973,1,0
Sprite,Foreground,Centre,"Storyboard\aa.png",320,240 M,0,29430,,315,430 F,0,29430,29685,0,1 F,0,29685,36040,1 F,0,36040,36295,1,0
Sprite,Foreground,Centre,"Storyboard\ab.png",320,240 M,0,33498,,541,430 F,0,33498,33752,0,1 F,0,33752,36040,1 F,0,36040,36295,1,0
Sprite,Foreground,Centre,"Storyboard\ac.png",320,240 M,0,37566,,315,430 F,0,37566,37820,0,1 F,0,37820,44176,1 F,0,44176,44430,1,0
Sprite,Foreground,Centre,"Storyboard\ad.png",320,240 M,0,41634,,520,430 F,0,41634,41888,0,1 F,0,41888,44176,1 F,0,44176,44430,1,0
Sprite,Foreground,Centre,"Storyboard\ae.png",320,240 M,0,44939,,315,430 F,0,44939,45193,0,1 F,0,45193,49007,1 F,0,49007,49261,1,0
Sprite,Foreground,Centre,"Storyboard\af.png",320,240 M,0,49769,,315,430 F,0,49769,50024,0,1 F,0,50024,52312,1 F,0,52312,52566,1,0
Sprite,Foreground,Centre,"Storyboard\ag.png",320,240 M,0,54091,,315,430 F,0,54091,54346,0,1 F,0,54346,60447,1 F,0,60447,60701,1,0
Sprite,Foreground,Centre,"Storyboard\ah.png",320,240 M,0,57651,,509,430 F,0,57651,57905,0,1 F,0,57905,60447,1 F,0,60447,60701,1,0
Sprite,Foreground,Centre,"Storyboard\ba.png",320,240 M,0,60956,,315,430 F,0,60956,61210,0,1 F,0,61210,68583,1 F,0,68583,68837,1,0
Sprite,Foreground,Centre,"Storyboard\bb.png",320,240 M,0,65278,,493,430 F,0,65278,65532,0,1 F,0,65532,68583,1 F,0,68583,68837,1,0
Sprite,Foreground,Centre,"Storyboard\bc.png",320,240 M,0,70363,,315,430 F,0,70363,70617,0,1 F,0,70617,77227,1 F,0,77227,77481,1,0
Sprite,Foreground,Centre,"Storyboard\bd.png",320,240 M,0,74430,,507,430 F,0,74430,74685,0,1 F,0,74685,77227,1 F,0,77227,77481,1,0
Sprite,Foreground,Centre,"Storyboard\be.png",320,240 M,0,77990,,315,430 F,0,77990,78244,0,1 F,0,78244,85871,1 F,0,85871,86125,1,0
Sprite,Foreground,Centre,"Storyboard\bf.png",320,240 M,0,81549,,410,430 F,0,81549,81803,0,1 F,0,81803,85871,1 F,0,85871,86125,1,0
Sprite,Foreground,Centre,"Storyboard\bg.png",320,240 M,0,86634,,315,430 F,0,86634,86888,0,1 F,0,86888,89939,1 F,0,89939,90193,1,0
Sprite,Foreground,Centre,"Storyboard\bh.png",320,240 M,0,90701,,315,430 F,0,90701,90956,0,1 F,0,90956,97566,1 F,0,97566,97820,1,0
Sprite,Foreground,Centre,"Storyboard\bi.png",320,240 M,0,93244,,406,430 F,0,93244,93498,0,1 F,0,93498,97566,1 F,0,97566,97820,1,0
Sprite,Foreground,Centre,"Storyboard\ca.png",320,240 M,0,102651,,315,430 F,0,102651,102905,0,1 F,0,102905,109261,1 F,0,109261,109515,1,0
Sprite,Foreground,Centre,"Storyboard\cb.png",320,240 M,0,106718,,498,430 F,0,106718,106973,0,1 F,0,106973,109261,1 F,0,109261,109515,1,0
Sprite,Foreground,Centre,"Storyboard\cc.png",320,240 M,0,110786,,315,430 F,0,110786,111040,0,1 F,0,111040,117396,1 F,0,117396,117651,1,0
Sprite,Foreground,Centre,"Storyboard\cd.png",320,240 M,0,114854,,497,430 F,0,114854,115108,0,1 F,0,115108,117396,1 F,0,117396,117651,1,0
Sprite,Foreground,Centre,"Storyboard\ce.png",320,240 M,0,118159,,315,430 F,0,118159,118413,0,1 F,0,118413,122227,1 F,0,122227,122481,1,0
Sprite,Foreground,Centre,"Storyboard\cf.png",320,240 M,0,122990,,315,430 F,0,122990,123244,0,1 F,0,123244,125532,1 F,0,125532,125786,1,0
Sprite,Foreground,Centre,"Storyboard\cg.png",320,240 M,0,127312,,315,430 F,0,127312,127566,0,1 F,0,127566,133668,1 F,0,133668,133922,1,0
Sprite,Foreground,Centre,"Storyboard\ch.png",320,240 M,0,130871,,476,430 F,0,130871,131125,0,1 F,0,131125,133668,1 F,0,133668,133922,1,0
Sprite,Foreground,Centre,"Storyboard\da.png",320,240 M,0,134176,,315,430 F,0,134176,134430,0,1 F,0,134430,141803,1 F,0,141803,142057,1,0
Sprite,Foreground,Centre,"Storyboard\db.png",320,240 M,0,138498,,468,430 F,0,138498,138752,0,1 F,0,138752,141803,1 F,0,141803,142057,1,0
Sprite,Foreground,Centre,"Storyboard\bc.png",320,240 M,0,143583,,315,430 F,0,143583,143837,0,1 F,0,143837,150447,1 F,0,150447,150701,1,0
Sprite,Foreground,Centre,"Storyboard\bd.png",320,240 M,0,147651,,507,430 F,0,147651,147905,0,1 F,0,147905,150447,1 F,0,150447,150701,1,0
Sprite,Foreground,Centre,"Storyboard\dc.png",320,240 M,0,151210,,315,430 F,0,151210,151464,0,1 F,0,151464,159091,1 F,0,159091,159346,1,0
Sprite,Foreground,Centre,"Storyboard\dd.png",320,240 M,0,154769,,417,430 F,0,154769,155024,0,1 F,0,155024,159091,1 F,0,159091,159346,1,0
Sprite,Foreground,Centre,"Storyboard\de.png",320,240 M,0,159854,,315,430 F,0,159854,160108,0,1 F,0,160108,163159,1 F,0,163159,163413,1,0
Sprite,Foreground,Centre,"Storyboard\df.png",320,240 M,0,163922,,315,430 F,0,163922,164176,0,1 F,0,164176,170786,1 F,0,170786,171040,1,0
Sprite,Foreground,Centre,"Storyboard\dg.png",320,240 M,0,166464,,413,430 F,0,166464,166718,0,1 F,0,166718,170786,1 F,0,170786,171040,1,0
Sprite,Foreground,Centre,"Storyboard\ea.png",320,240 M,0,207396,,315,430 F,0,207396,207651,0,1 F,0,207651,215024,1 F,0,215024,215278,1,0
Sprite,Foreground,Centre,"Storyboard\eb.png",320,240 M,0,211718,,487,430 F,0,211718,211973,0,1 F,0,211973,215024,1 F,0,215024,215278,1,0
Sprite,Foreground,Centre,"Storyboard\ec.png",320,240 M,0,216803,,315,430 F,0,216803,217057,0,1 F,0,217057,223668,1 F,0,223668,223922,1,0
Sprite,Foreground,Centre,"Storyboard\ed.png",320,240 M,0,220871,,502,430 F,0,220871,221125,0,1 F,0,221125,223668,1 F,0,223668,223922,1,0
Sprite,Foreground,Centre,"Storyboard\fa.png",320,240 M,0,224430,,315,430 F,0,224430,224685,0,1 F,0,224685,231295,1 F,0,231295,231549,1,0
Sprite,Foreground,Centre,"Storyboard\fb.png",320,240 M,0,227990,,412,430 F,0,227990,228244,0,1 F,0,228244,231295,1 F,0,231295,231549,1,0
Sprite,Foreground,Centre,"Storyboard\bc.png",320,240 M,0,233074,,315,430 F,0,233074,233329,0,1 F,0,233329,239939,1 F,0,239939,240193,1,0
Sprite,Foreground,Centre,"Storyboard\bd.png",320,240 M,0,237142,,507,430 F,0,237142,237396,0,1 F,0,237396,239939,1 F,0,239939,240193,1,0
Sprite,Foreground,Centre,"Storyboard\be.png",320,240 M,0,240701,,315,430 F,0,240701,240956,0,1 F,0,240956,248583,1 F,0,248583,248837,1,0
Sprite,Foreground,Centre,"Storyboard\fc.png",320,240 M,0,244007,,411,430 F,0,244007,244261,0,1 F,0,244261,248583,1 F,0,248583,248837,1,0
Sprite,Foreground,Centre,"Storyboard\bg.png",320,240 M,0,249346,,315,430 F,0,249346,249600,0,1 F,0,249600,252651,1 F,0,252651,252905,1,0
Sprite,Foreground,Centre,"Storyboard\fd.png",320,240 M,0,253413,,315,430 F,0,253413,253668,0,1 F,0,253668,259515,1 F,0,259515,259769,1,0
Sprite,Foreground,Centre,"Storyboard\fe.png",320,240 M,0,255956,,420,430 F,0,255956,256210,0,1 F,0,256210,259515,1 F,0,259515,259769,1,0
Sprite,Foreground,Centre,"Storyboard\ff.png",320,240 M,0,260278,,315,430 F,0,260278,260532,0,1 F,0,260532,268922,1 F,0,268922,269176,1,0
Sprite,Foreground,Centre,"Storyboard\bi.png",320,240 M,0,264091,,413,430 F,0,264091,264346,0,1 F,0,264346,268922,1 F,0,268922,269176,1,0
//Storyboard Sound Samples
//Background Colour Transformations
3,100,163,162,255

[TimingPoints]
692,508.474576271186,4,2,2,40,1,0
44430,-100,4,2,2,45,0,0
53837,-100,4,2,2,40,0,0
57651,-100,4,2,2,50,0,0
92608,-100,4,2,2,55,0,0
95024,-100,4,2,2,40,0,0
117651,-100,4,2,2,45,0,0
127312,-100,4,2,2,40,0,0
130871,-100,4,2,2,50,0,0
165829,-100,4,2,2,55,0,0
168244,-100,4,2,2,40,0,0
171040,-100,4,2,2,50,0,0
191379,-100,4,2,2,45,0,0
223159,-100,4,2,2,40,0,0
224430,-100,4,2,2,50,0,1
224494,-100,4,2,2,50,0,0
255320,-100,4,2,2,55,0,0
257735,-100,4,2,2,40,0,0
260024,-100,4,2,2,55,0,0
261803,-100,4,2,2,40,0,0
263583,-100,4,2,2,55,0,0
263837,-100,4,2,2,65,0,0
265871,-100,4,2,2,40,0,0
269176,-100,4,2,2,55,0,0

[Colours]
Combo1 : 255,188,107
Combo2 : 63,150,87
Combo3 : 143,120,140
Combo4 : 242,136,147

[HitObjects]
256,192,17471,12,2,21030
120,56,21539,5,0
120,56,21793,1,0
120,128,22047,1,2
120,128,22302,2,0,B|67:207|132:296,1,160
164,336,23064,1,2
212,284,23319,1,0
264,336,23573,1,0
312,284,23827,1,0
360,336,24081,1,2
360,336,24336,2,0,B|448:336,2,80
360,336,25098,1,2
320,196,25607,5,0
320,196,25861,1,0
316,124,26115,1,2
316,124,26369,2,0,B|292:31|183:20,1,160,0|0
132,28,27132,1,2
72,68,27386,1,0
72,140,27641,1,0
136,176,27895,1,0
136,104,28149,2,0,B|200:104,4,40,2|0|0|0|0
248,192,29166,5,2
248,192,29420,2,0,B|248:96|352:64,1,160,0|0
364,68,30056,2,0,B|488:68,1,120
488,140,30691,1,0
428,180,30946,1,0
488,216,31200,1,2
432,260,31454,1,0
432,260,31581,2,0,B|423:330|353:349,1,120
288,348,32217,1,2
284,276,32471,1,0
256,208,32725,1,0
200,164,32980,1,0
128,156,33234,5,2
128,156,33488,2,0,B|80:156|72:224,2,80
128,132,34124,2,0,B|136:61|206:42,1,120,0|0
260,84,34759,2,0,B|308:80|320:20,1,80
388,32,35268,1,2
388,32,35522,1,0
388,32,35649,2,0,B|458:40|477:110,1,120
420,148,36285,1,2
480,184,36539,1,0
484,256,36793,1,0
424,296,37047,1,0
420,224,37302,6,0,B|372:224|364:284,1,80,2|0
316,324,37810,2,0,B|264:324|264:260,1,80
264,252,38192,2,0,B|256:181|186:162,1,120,0|0
124,140,38827,2,0,B|124:56,2,80,0|0|2
60,176,39590,2,0,B|60:232,2,40
256,192,40098,12,2,41369
168,120,41624,6,0,B|176:72|224:68,1,80
292,68,42132,1,0
292,68,42259,2,0,B|354:84|362:155,1,120,0|0
368,228,42895,1,0
332,288,43149,1,0
332,288,43658,5,0
344,164,43912,1,0
88,116,44929,5,0
144,68,45183,1,0
200,116,45437,1,2
256,68,45692,1,0
308,116,45946,1,0
360,64,46200,2,0,B|392:92,2,40,0|0|2
424,268,46963,5,0
368,316,47217,1,0
312,268,47471,1,2
256,316,47725,1,0
204,268,47980,1,0
152,320,48234,2,0,B|120:292,2,40,0|0|2
64,324,48742,5,0
88,196,48997,1,0
160,92,49251,1,0
280,48,49505,1,2
280,48,49759,5,0
340,88,50014,1,0
400,48,50268,2,0,B|400:4,2,40,0|0|2
460,88,50776,1,0
460,160,51030,1,0
400,204,51285,1,0
384,272,51539,1,2
312,260,51793,2,0,B|272:212,2,40
192,340,52556,1,2
136,296,52810,1,0
136,224,53064,1,0
192,180,53319,2,0,B|236:180,2,40,0|0|2
112,60,54081,5,0
176,28,54336,1,0
176,28,54463,2,0,B|238:44|246:115,1,120,0|0
280,180,55098,1,0
280,180,55353,1,0
348,208,55607,1,2
348,208,55861,2,0,B|348:160,2,40
420,224,56369,2,0,B|413:317|325:336,1,160,0|0
252,348,57132,2,0,B|164:348,2,80,0|0|2
188,220,58149,1,0
188,220,58403,2,0,B|188:129|96:102,1,160,0|0
100,32,59166,6,0,B|8:32,2,80,0|0|2
256,152,59929,1,0
412,32,60183,2,0,B|468:32,4,40,0|0|0|0|2
448,316,61708,5,2
304,340,62217,1,0
304,340,62471,1,0
304,340,62725,2,0,B|215:326|202:231,1,160,2|0
180,164,63488,2,0,B|180:116|124:108,1,80,0|2
60,108,63997,2,0,B|60:20,2,80
60,180,64759,6,0,B|56:270|147:300,1,160,2|0
216,316,65522,2,0,B|216:360,2,40,0|0|2
256,256,66030,1,0
296,316,66285,1,0
332,252,66539,2,0,B|332:196,2,40,0|0|2
376,308,67047,2,0,B|420:304|432:248,1,80
472,196,67556,2,0,B|472:148|412:140,1,80,0|2
356,120,68064,2,0,B|356:60,2,40,0|0|0
212,124,68827,1,2
212,124,69081,1,0
212,124,69336,2,0,B|124:124,2,80,0|0|2
180,264,70353,5,0
124,308,70607,1,0
124,308,70734,2,0,B|55:289|50:224,1,120,0|0
48,152,71369,1,0
48,152,71624,1,0
48,152,71878,2,0,B|48:24,2,120,2|0|0
120,160,72895,1,2
184,192,73149,1,0
232,244,73403,1,0
244,316,73658,2,0,B|244:360,2,40,0|0|2
384,340,74420,5,0
384,268,74675,1,0
384,268,74802,2,0,B|384:203|450:177,1,120,0|0
480,112,75437,1,0
428,64,75692,1,0
376,116,75946,2,0,B|313:102|303:31,2,120,2|0|0
376,188,76963,2,0,B|376:236,4,40,2|0|0|0|0
268,96,77980,6,0,B|178:95|151:187,1,160,2|0
88,224,78742,1,0
152,260,78997,2,0,B|180:349|270:349,1,160,2|0
328,304,79759,2,0,B|328:220,2,80,0|2|0
384,348,80522,2,0,B|468:348,2,80,0|0|2
460,224,81539,5,0
460,224,81793,2,0,B|460:172,2,40,0|0|2
388,208,82302,1,0
320,188,82556,1,0
320,188,82810,2,0,B|320:232,2,40,0|0|2
252,164,83319,1,0
252,164,83573,1,0
180,152,83827,1,0
180,152,84081,2,0,B|56:152,2,120,2|0|0
204,84,85098,2,0,B|204:36|260:28,1,80,2|0
324,44,85607,2,0,B|328:92|384:96,1,80,0|0
376,96,86115,1,2
484,192,86624,5,0
428,236,86878,2,0,B|428:296,2,40,0|0|2
356,224,87386,2,0,B|311:234|311:282,1,80
256,328,87895,2,0,B|212:315|212:267,1,80,0|2
196,200,88403,2,0,B|140:200|140:260,1,80
84,292,88912,2,0,B|40:292|36:236,1,80,0|2
36,168,89420,1,0
36,168,89675,2,0,B|36:112,4,40,0|0|0|0|2
112,44,90692,5,0
112,44,90946,2,0,B|199:62|208:156,1,160,0|0
208,228,91708,1,0
208,228,91963,2,0,B|160:228,2,40,0|0|2
272,260,92471,1,0
332,220,92725,1,0
332,208,92853,1,0
332,196,92980,1,0
332,184,93107,1,0
332,172,93234,2,0,B|332:84,1,80,2|0
292,32,93742,1,0
220,32,93997,1,0
180,92,94251,1,2
256,96,94505,2,0,B|256:144,2,40
256,192,95014,12,2,97810
76,104,102386,5,2
148,52,102641,2,0,B|241:73|249:182,1,160,0|0
248,188,103276,2,0,B|372:188,1,120
368,188,103912,1,0
424,120,104166,1,0
480,188,104420,1,2
424,256,104675,1,0
424,256,104802,2,0,B|415:326|345:345,1,120
272,304,105437,1,2
196,344,105692,1,0
116,308,105946,1,0
36,344,106200,1,0
32,256,106454,5,2
40,168,106708,2,0,B|40:120|108:112,1,80,0|0
164,68,107217,1,0
164,68,107344,2,0,B|232:87|240:159,1,120,0|0
272,232,107980,2,0,B|320:228|332:168,1,80
312,96,108488,1,2
388,56,108742,1,0
388,56,108869,2,0,B|458:64|477:134,1,120
476,216,109505,1,2
476,216,109759,2,0,B|384:216,2,80
472,304,110522,5,2
396,348,110776,1,0
308,348,111030,1,0
232,304,111285,1,0
232,304,111412,2,0,B|224:233|154:214,1,120,0|0
96,156,112047,2,0,B|96:72,2,80,0|0|2
184,156,112810,2,0,B|240:156,2,40
256,192,113319,12,2,114590
316,104,114844,6,0,B|324:56|372:52,2,80
316,124,115480,2,0,B|184:124,1,120
108,136,116115,2,0,B|57:147|58:204,1,80
256,352,116878,5,0
256,192,117132,1,0
440,352,118149,6,0,B|488:276,1,80
480,196,118658,2,0,B|436:116,1,80,2|0
376,68,119166,1,0
376,68,119420,2,0,B|376:20,2,40,0|0|2
72,32,120183,6,0,B|24:108,1,80
32,188,120692,2,0,B|76:268,1,80,2|0
136,316,121200,1,0
136,316,121454,2,0,B|136:364,2,40,0|0|2
220,340,121963,5,0
408,280,122217,1,0
220,228,122471,1,0
408,168,122725,1,2
408,168,122980,5,0
408,80,123234,1,0
320,56,123488,2,0,B|260:56,2,40,0|0|2
312,144,123997,1,0
280,224,124251,1,0
208,272,124505,1,0
128,296,124759,1,2
40,304,125014,2,0,B|40:352,2,40
40,128,125776,2,0,B|40:44,2,80,2|0|0
128,128,126539,1,0
140,128,126666,1,0
152,128,126793,2,0,B|241:142|254:237,1,160,2|0
300,308,127556,5,0
300,308,127683,2,0,B|363:298|378:228,1,120,0|0
408,144,128319,2,0,B|464:148|468:212,2,80,0|0|2
324,116,129081,2,0,B|324:68,2,40
240,144,129590,1,0
240,144,130098,1,0
176,80,130353,1,0
88,80,130607,1,0
28,144,130861,6,0,B|116:160|125:255,1,160,2|0
36,256,131624,2,0,B|200:256,1,160
196,256,132386,1,0
196,256,132641,1,0
256,320,132895,5,2
460,192,133149,1,0
256,64,133403,1,0
244,64,133530,1,0
232,64,133658,1,0
220,64,133785,1,0
208,64,133912,1,2
44,332,134929,6,0,B|133:318|146:223,1,160,2|0
56,224,135692,1,0
56,224,135946,2,0,B|228:224,1,160,2|0
292,180,136708,1,0
344,252,136963,1,2
396,180,137217,1,0
444,252,137471,2,0,B|444:340,2,80,0|0|2
440,76,138488,5,0
440,76,138742,2,0,B|484:76,2,40,0|0|2
352,76,139251,2,0,B|296:76|292:140,1,80
288,208,139759,2,0,B|336:208,2,40,0|0|2
256,288,140268,1,0
256,288,140522,1,0
180,332,140776,1,0
180,332,141030,1,2
104,288,141285,2,0,B|44:288,2,40,0|0|0
44,124,142047,1,2
92,48,142302,1,0
180,48,142556,1,0
224,124,142810,1,0
136,128,143064,2,0,B|135:218|227:245,1,160,2|0
296,192,143827,5,0
296,192,143954,2,0,B|295:127|361:101,1,120,0|0
416,172,144590,1,0
416,172,144844,1,0
416,172,145098,2,0,B|478:157|488:86,2,120,2|0|0
416,260,146115,2,0,B|420:320|484:320,2,80,2|0|0
340,216,146878,1,0
328,216,147005,1,0
316,216,147132,2,0,B|226:225|208:319,1,160,2|0
120,332,147895,5,0
120,332,148022,2,0,B|52:310|48:245,1,120,0|0
104,180,148658,1,0
48,112,148912,1,0
48,112,149166,2,0,B|53:47|122:27,2,120,2|0|0
136,116,150183,1,2
148,116,150310,1,0
160,116,150437,1,0
172,116,150564,1,0
184,116,150692,1,0
256,276,151200,6,0,B|343:256|349:161,1,160,2|0
436,160,151963,1,0
436,160,152217,2,0,B|264:160,1,160,2|0
256,76,152980,1,0
256,76,153234,1,2
180,120,153488,1,0
180,120,153742,1,0
132,196,153997,1,0
132,196,154251,1,2
256,320,154759,5,0
344,308,155014,2,0,B|344:360,2,40,0|0|2
420,264,155522,1,0
472,192,155776,1,0
472,104,156030,2,0,B|472:60,2,40,0|0|2
384,84,156539,1,0
304,44,156793,1,0
252,116,157047,1,0
176,72,157302,2,0,B|107:91|102:156,2,120,2|0|0
196,160,158319,1,2
196,160,158573,1,0
256,224,158827,1,0
256,224,159081,1,0
196,288,159336,1,2
364,340,159844,5,0
424,276,160098,2,0,B|484:276,2,40,0|0|2
420,188,160607,2,0,B|420:140|468:128,2,80
336,164,161369,2,0,B|280:164|280:104,2,80,2|0|0
352,252,162132,2,0,B|308:252|304:308,2,80,0|2|0
416,192,162895,1,0
416,180,163022,1,0
416,168,163149,1,0
416,156,163276,1,0
416,144,163403,1,2
256,68,163912,5,0
172,40,164166,2,0,B|84:54|69:147,1,160,0|0
64,236,164929,1,0
64,236,165183,2,0,B|20:236,2,40,0|0|2
136,284,165691,1,0
208,332,165946,1,0
220,332,166073,1,0
232,332,166200,1,0
244,332,166327,1,0
256,332,166454,5,2
312,248,166708,1,0
192,212,166963,1,0
360,144,167217,1,0
140,104,167471,1,2
396,40,167725,2,0,B|448:40,2,40,0|0|0
256,192,168234,12,0,171030
216,48,171539,6,0,B|160:48|152:116,1,80,2|0
80,136,172047,2,0,B|80:184|136:204,1,80
204,160,172556,2,0,B|252:160|256:224,1,80,2|0
280,296,173064,2,0,B|328:296|340:244,1,80
340,164,173573,2,0,B|340:108|400:108,1,80,2|0
428,184,174081,2,0,B|476:188|480:248,1,80
412,292,174590,2,0,B|412:336,2,40,2|0|0
332,256,175098,1,0
320,256,175225,1,0
308,256,175353,1,0
296,256,175480,1,0
284,256,175607,1,2
256,192,191878,12,2,194929
256,192,195437,5,0
256,192,195946,12,0,199505
148,108,200014,6,0,B|60:122|45:215,2,160,2|0|2
192,280,201539,1,0
256,220,201793,1,0
320,280,202047,2,0,B|488:280,2,160,2|0|2
320,280,203319,1,0
320,280,203573,1,0
436,148,204081,6,0,B|431:59|340:34,2,160,2|0|2
288,244,205607,1,0
216,192,205861,1,0
144,244,206115,1,2
72,192,206369,1,0
112,112,206624,1,0
124,112,206751,1,0
136,112,206878,1,0
148,112,207005,1,0
160,112,207132,1,2
256,192,220861,12,0,222895
256,120,223403,6,0,B|208:120,3,40,2|0|0|0
256,120,223912,6,0,B|256:56,4,40,0|0|0|0|2
424,64,224929,1,0
484,128,225183,1,0
424,192,225437,2,0,B|425:282|333:309,1,160,2|0
248,308,226200,2,0,B|192:308|192:372,2,80,0|2|0
292,232,226963,2,0,B|292:180|232:184,2,80,0|0|2
404,96,227980,5,0
320,68,228234,2,0,B|320:24,2,40,0|0|2
236,96,228742,1,0
236,96,228997,1,0
236,96,229251,2,0,B|236:152,2,40,0|0|2
156,64,229759,2,0,B|76:108,1,80
124,180,230268,2,0,B|88:260,1,80,0|2
88,340,230776,2,0,B|28:340,2,40,0|0|0
216,220,231539,1,2
216,220,231793,2,0,B|276:220|272:288,1,80
320,340,232302,2,0,B|372:340|372:276,1,80,0|2
472,148,233064,5,0
472,148,233319,2,0,B|420:148,1,40
312,92,233827,2,0,B|260:92|260:40,2,80
344,172,234590,2,0,B|341:235|273:259,2,120,2|0|0
344,172,235607,1,2
428,204,235861,1,0
428,292,236115,1,0
344,324,236369,2,0,B|344:372,2,40,0|0|2
168,304,237132,5,0
168,304,237386,2,0,B|168:240,1,40
124,140,237895,2,0,B|72:140|68:200,2,80
208,116,238658,2,0,B|271:100|280:29,2,120,2|0|0
192,204,239675,2,0,B|208:244,4,40,2|0|0|0|0
304,340,240691,6,0,B|391:320|397:225,1,160,2|0
468,172,241454,2,0,B|468:120|404:112,1,80,0|2
332,108,241963,2,0,B|280:108|276:40,1,80
192,40,242471,2,0,B|132:40|128:112,1,80,0|2
196,144,242980,2,0,B|188:196|128:200,1,80
148,284,243488,1,0
160,284,243615,1,0
172,284,243742,1,2
184,284,243869,1,0
196,284,243997,1,0
208,284,244124,1,0
220,284,244251,2,0,B|308:284,2,80,0|0|2
320,140,245268,5,0
388,84,245522,2,0,B|388:40,2,40,0|0|2
456,140,246030,1,0
456,140,246285,2,0,B|456:204|388:200,1,80
344,252,246793,2,0,B|275:271|270:336,2,120,2|0|0
332,164,247810,2,0,B|280:92,1,80,2|0
200,72,248319,2,0,B|124:112,1,80
129,109,248827,1,2
52,268,249336,5,0
132,308,249590,2,0,B|132:356,2,40,0|0|2
212,268,250098,1,0
212,268,250353,2,0,B|268:280|268:328,1,80,0|0
352,344,250861,1,2
352,344,251115,2,0,B|404:340|404:276,1,80
468,232,251624,1,0
468,232,251878,2,0,B|468:184|408:176,1,80,2|0
332,160,252386,2,0,B|332:112,4,40,0|0|0|0|2
188,60,253403,5,0
112,104,253658,1,0
112,104,254166,1,0
72,184,254420,1,0
64,272,254675,2,0,B|20:272,2,40,0|0|2
148,300,255183,1,0
232,276,255437,1,0
244,276,255564,1,0
256,276,255691,1,0
268,276,255819,1,0
280,276,255946,1,2
368,276,256200,1,0
344,192,256454,2,0,B|348:140|404:140,2,80,0|0|2
256,192,257217,2,0,B|212:192,2,40
256,192,257725,12,2,260014
164,128,260268,6,0,B|172:84|224:80,1,80
288,140,260776,2,0,B|336:144|340:212,1,80,0|2
388,268,261285,2,0,B|432:268,2,40
256,192,261793,12,0,263573
104,296,264081,6,0,B|176:360,2,80,2|0|0
40,236,264844,2,0,B|76:144,1,80,0|2
108,84,265353,2,0,B|152:84,2,40
256,192,265861,12,2,269166
