osu file format v7

[General]
AudioFilename: Koisuru KOKORO.mp3
AudioLeadIn: 0
PreviewTime: 60701
Countdown: 0
SampleSet: Soft
StackLeniency: 0.5
Mode: 0
LetterboxInBreaks: 1

[Editor]
DistanceSpacing: 0.600000023841858
BeatDivisor: 4
GridSize: 8

[Metadata]
Title:Koisuru KOKORO
Artist:eufonius
Creator:gdeath
Version:Challenging
Source:Kasimasi ~ Girl Meets Girl ~
Tags:quintitem Anime

[Difficulty]
HPDrainRate:6
CircleSize:5
OverallDifficulty:7
SliderMultiplier:1.4
SliderTickRate:1

[Events]
//Background and Video events
0,0,"BG 01.jpg"
//Break Periods
2,98010,101486
2,175807,190978
//Storyboard Layer 0 (Background)
//Storyboard Layer 1 (Fail)
//Storyboard Layer 2 (Pass)
//Storyboard Layer 3 (Foreground)
Sprite,Foreground,Centre,"Storyboard\title2.png",320,240 M,0,1210,2227,217,420,217,403 F,0,1210,2227,0,1 F,0,2227,15956,1 M,0,15956,16973,217,403,217,420 F,0,15956,16973,1,0
Sprite,Foreground,Centre,"Storyboard\aa.png",320,240 M,0,29430,,315,430 F,0,29430,29685,0,1 F,0,29685,36040,1 F,0,36040,36295,1,0
Sprite,Foreground,Centre,"Storyboard\ab.png",320,240 M,0,33498,,541,430 F,0,33498,33752,0,1 F,0,33752,36040,1 F,0,36040,36295,1,0
Sprite,Foreground,Centre,"Storyboard\ac.png",320,240 M,0,37566,,315,430 F,0,37566,37820,0,1 F,0,37820,44176,1 F,0,44176,44430,1,0
Sprite,Foreground,Centre,"Storyboard\ad.png",320,240 M,0,41634,,520,430 F,0,41634,41888,0,1 F,0,41888,44176,1 F,0,44176,44430,1,0
Sprite,Foreground,Centre,"Storyboard\ae.png",320,240 M,0,44939,,315,430 F,0,44939,45193,0,1 F,0,45193,49007,1 F,0,49007,49261,1,0
Sprite,Foreground,Centre,"Storyboard\af.png",320,240 M,0,49769,,315,430 F,0,49769,50024,0,1 F,0,50024,52312,1 F,0,52312,52566,1,0
Sprite,Foreground,Centre,"Storyboard\ag.png",320,240 M,0,54091,,315,430 F,0,54091,54346,0,1 F,0,54346,60447,1 F,0,60447,60701,1,0
Sprite,Foreground,Centre,"Storyboard\ah.png",320,240 M,0,57651,,509,430 F,0,57651,57905,0,1 F,0,57905,60447,1 F,0,60447,60701,1,0
Sprite,Foreground,Centre,"Storyboard\ba.png",320,240 M,0,60956,,315,430 F,0,60956,61210,0,1 F,0,61210,68583,1 F,0,68583,68837,1,0
Sprite,Foreground,Centre,"Storyboard\bb.png",320,240 M,0,65278,,493,430 F,0,65278,65532,0,1 F,0,65532,68583,1 F,0,68583,68837,1,0
Sprite,Foreground,Centre,"Storyboard\bc.png",320,240 M,0,70363,,315,430 F,0,70363,70617,0,1 F,0,70617,77227,1 F,0,77227,77481,1,0
Sprite,Foreground,Centre,"Storyboard\bd.png",320,240 M,0,74430,,507,430 F,0,74430,74685,0,1 F,0,74685,77227,1 F,0,77227,77481,1,0
Sprite,Foreground,Centre,"Storyboard\be.png",320,240 M,0,77990,,315,430 F,0,77990,78244,0,1 F,0,78244,85871,1 F,0,85871,86125,1,0
Sprite,Foreground,Centre,"Storyboard\bf.png",320,240 M,0,81549,,410,430 F,0,81549,81803,0,1 F,0,81803,85871,1 F,0,85871,86125,1,0
Sprite,Foreground,Centre,"Storyboard\bg.png",320,240 M,0,86634,,315,430 F,0,86634,86888,0,1 F,0,86888,89939,1 F,0,89939,90193,1,0
Sprite,Foreground,Centre,"Storyboard\bh.png",320,240 M,0,90701,,315,430 F,0,90701,90956,0,1 F,0,90956,97566,1 F,0,97566,97820,1,0
Sprite,Foreground,Centre,"Storyboard\bi.png",320,240 M,0,93244,,406,430 F,0,93244,93498,0,1 F,0,93498,97566,1 F,0,97566,97820,1,0
Sprite,Foreground,Centre,"Storyboard\ca.png",320,240 M,0,102651,,315,430 F,0,102651,102905,0,1 F,0,102905,109261,1 F,0,109261,109515,1,0
Sprite,Foreground,Centre,"Storyboard\cb.png",320,240 M,0,106718,,498,430 F,0,106718,106973,0,1 F,0,106973,109261,1 F,0,109261,109515,1,0
Sprite,Foreground,Centre,"Storyboard\cc.png",320,240 M,0,110786,,315,430 F,0,110786,111040,0,1 F,0,111040,117396,1 F,0,117396,117651,1,0
Sprite,Foreground,Centre,"Storyboard\cd.png",320,240 M,0,114854,,497,430 F,0,114854,115108,0,1 F,0,115108,117396,1 F,0,117396,117651,1,0
Sprite,Foreground,Centre,"Storyboard\ce.png",320,240 M,0,118159,,315,430 F,0,118159,118413,0,1 F,0,118413,122227,1 F,0,122227,122481,1,0
Sprite,Foreground,Centre,"Storyboard\cf.png",320,240 M,0,122990,,315,430 F,0,122990,123244,0,1 F,0,123244,125532,1 F,0,125532,125786,1,0
Sprite,Foreground,Centre,"Storyboard\cg.png",320,240 M,0,127312,,315,430 F,0,127312,127566,0,1 F,0,127566,133668,1 F,0,133668,133922,1,0
Sprite,Foreground,Centre,"Storyboard\ch.png",320,240 M,0,130871,,476,430 F,0,130871,131125,0,1 F,0,131125,133668,1 F,0,133668,133922,1,0
Sprite,Foreground,Centre,"Storyboard\da.png",320,240 M,0,134176,,315,430 F,0,134176,134430,0,1 F,0,134430,141803,1 F,0,141803,142057,1,0
Sprite,Foreground,Centre,"Storyboard\db.png",320,240 M,0,138498,,468,430 F,0,138498,138752,0,1 F,0,138752,141803,1 F,0,141803,142057,1,0
Sprite,Foreground,Centre,"Storyboard\bc.png",320,240 M,0,143583,,315,430 F,0,143583,143837,0,1 F,0,143837,150447,1 F,0,150447,150701,1,0
Sprite,Foreground,Centre,"Storyboard\bd.png",320,240 M,0,147651,,507,430 F,0,147651,147905,0,1 F,0,147905,150447,1 F,0,150447,150701,1,0
Sprite,Foreground,Centre,"Storyboard\dc.png",320,240 M,0,151210,,315,430 F,0,151210,151464,0,1 F,0,151464,159091,1 F,0,159091,159346,1,0
Sprite,Foreground,Centre,"Storyboard\dd.png",320,240 M,0,154769,,417,430 F,0,154769,155024,0,1 F,0,155024,159091,1 F,0,159091,159346,1,0
Sprite,Foreground,Centre,"Storyboard\de.png",320,240 M,0,159854,,315,430 F,0,159854,160108,0,1 F,0,160108,163159,1 F,0,163159,163413,1,0
Sprite,Foreground,Centre,"Storyboard\df.png",320,240 M,0,163922,,315,430 F,0,163922,164176,0,1 F,0,164176,170786,1 F,0,170786,171040,1,0
Sprite,Foreground,Centre,"Storyboard\dg.png",320,240 M,0,166464,,413,430 F,0,166464,166718,0,1 F,0,166718,170786,1 F,0,170786,171040,1,0
Sprite,Foreground,Centre,"Storyboard\ea.png",320,240 M,0,207396,,315,430 F,0,207396,207651,0,1 F,0,207651,215024,1 F,0,215024,215278,1,0
Sprite,Foreground,Centre,"Storyboard\eb.png",320,240 M,0,211718,,487,430 F,0,211718,211973,0,1 F,0,211973,215024,1 F,0,215024,215278,1,0
Sprite,Foreground,Centre,"Storyboard\ec.png",320,240 M,0,216803,,315,430 F,0,216803,217057,0,1 F,0,217057,223668,1 F,0,223668,223922,1,0
Sprite,Foreground,Centre,"Storyboard\ed.png",320,240 M,0,220871,,502,430 F,0,220871,221125,0,1 F,0,221125,223668,1 F,0,223668,223922,1,0
Sprite,Foreground,Centre,"Storyboard\fa.png",320,240 M,0,224430,,315,430 F,0,224430,224685,0,1 F,0,224685,231295,1 F,0,231295,231549,1,0
Sprite,Foreground,Centre,"Storyboard\fb.png",320,240 M,0,227990,,412,430 F,0,227990,228244,0,1 F,0,228244,231295,1 F,0,231295,231549,1,0
Sprite,Foreground,Centre,"Storyboard\bc.png",320,240 M,0,233074,,315,430 F,0,233074,233329,0,1 F,0,233329,239939,1 F,0,239939,240193,1,0
Sprite,Foreground,Centre,"Storyboard\bd.png",320,240 M,0,237142,,507,430 F,0,237142,237396,0,1 F,0,237396,239939,1 F,0,239939,240193,1,0
Sprite,Foreground,Centre,"Storyboard\be.png",320,240 M,0,240701,,315,430 F,0,240701,240956,0,1 F,0,240956,248583,1 F,0,248583,248837,1,0
Sprite,Foreground,Centre,"Storyboard\fc.png",320,240 M,0,244007,,411,430 F,0,244007,244261,0,1 F,0,244261,248583,1 F,0,248583,248837,1,0
Sprite,Foreground,Centre,"Storyboard\bg.png",320,240 M,0,249346,,315,430 F,0,249346,249600,0,1 F,0,249600,252651,1 F,0,252651,252905,1,0
Sprite,Foreground,Centre,"Storyboard\fd.png",320,240 M,0,253413,,315,430 F,0,253413,253668,0,1 F,0,253668,259515,1 F,0,259515,259769,1,0
Sprite,Foreground,Centre,"Storyboard\fe.png",320,240 M,0,255956,,420,430 F,0,255956,256210,0,1 F,0,256210,259515,1 F,0,259515,259769,1,0
Sprite,Foreground,Centre,"Storyboard\ff.png",320,240 M,0,260278,,315,430 F,0,260278,260532,0,1 F,0,260532,268922,1 F,0,268922,269176,1,0
Sprite,Foreground,Centre,"Storyboard\bi.png",320,240 M,0,264091,,413,430 F,0,264091,264346,0,1 F,0,264346,268922,1 F,0,268922,269176,1,0
//Storyboard Sound Samples
//Background Colour Transformations
3,100,163,162,255

[TimingPoints]
692,508.474576271186,4,2,1,70,1,0
29812,-100,4,2,1,60,0,0
30574,-100,4,2,1,74,0,0
33879,-100,4,2,1,60,0,0
34642,-100,4,2,1,75,0,0
42015,-100,4,2,1,60,0,0
42778,-100,4,2,1,71,0,0
44303,-100,4,2,1,0,0,0
44812,-100,4,2,1,75,0,0
54218,-100,4,2,1,60,0,0
54981,-100,4,2,1,76,0,0
59812,-100,4,2,1,60,0,0
61591,-100,4,2,1,60,0,0
102269,-100,4,2,1,76,0,0
105066,-100,4,2,1,60,0,0
106591,-100,4,2,1,75,0,0
108625,-100,4,2,1,60,0,0
110659,-100,4,2,1,74,0,0
112947,-200,4,2,1,60,0,0
113964,-100,4,2,1,0,0,0
114473,-100,4,2,1,76,0,0
117015,-200,4,2,1,60,0,0
117524,-200,4,2,1,0,0,0
118032,-100,4,2,1,74,0,0
119303,-100,4,2,1,60,0,0
120066,-100,4,2,1,75,0,0
121337,-100,4,2,1,60,0,0
122100,-100,4,2,1,75,0,0
123371,-100,4,2,1,60,0,0
124134,-100,4,2,1,75,0,0
125659,-100,4,2,1,60,0,0
126168,-100,4,2,1,75,0,0
126676,-100,4,2,1,60,0,0
127185,-100,4,2,1,75,0,0
133032,-100,4,2,1,60,0,0
142947,-200,4,2,1,60,0,0
143456,-100,4,2,1,60,0,0
169642,-200,4,2,1,60,0,0
170151,-100,4,2,1,60,0,0
191761,-200,4,2,1,80,0,0
207269,-100,4,2,1,75,0,0
209812,-100,4,2,1,50,0,0
210193,-100,4,2,1,75,0,0
211591,-100,4,2,1,75,0,0
215151,-100,4,2,1,0,0,0
215659,-100,4,2,1,75,0,0
216168,-100,4,2,1,60,0,0
216676,-100,4,2,1,75,0,0
216930,-100,4,2,1,60,0,0
217693,-100,4,2,1,74,0,0
224303,-100,4,2,1,60,0,0
232439,-200,4,2,1,60,0,0
232947,-100,4,2,1,60,0,0
259134,-200,4,2,1,60,0,0
259642,-100,4,2,1,60,0,0

[Colours]
Combo1 : 249,151,104
Combo2 : 249,134,245
Combo3 : 138,252,129

[HitObjects]
256,192,17471,12,2,21030
360,96,21539,5,0
424,168,21793,1,0
400,264,22047,2,0,B|416:312|464:328,2,70,8|0|0
304,248,22810,2,0,B|296:208|240:192,1,70,0|8
160,208,23319,1,0
88,144,23573,1,0
88,48,23827,2,0,B|128:40|160:8,2,70,0|8|0
160,112,24590,2,0,B|240:136|272:200,1,140,0|8
440,96,25607,5,0
464,192,25861,1,0
424,280,26115,1,8
328,304,26369,2,0,B|280:312|256:360,1,70
168,336,26878,2,0,B|128:328|112:280,1,70,0|8
136,192,27386,2,0,B|176:176|192:112,2,70
216,248,28149,2,0,B|304:264|344:336,2,140,8|0|8
136,184,29420,6,0,B|112:152|120:96,1,70
152,24,29929,1,2
152,24,30056,1,2
240,64,30310,1,2
240,64,30437,1,2
336,48,30691,2,0,B|376:48|416:24,1,70
448,120,31200,2,0,B|480:160|480:208,1,70,8|0
424,264,31708,1,0
424,264,31963,5,0
239,374,32217,1,8
77,232,32471,1,0
162,35,32725,1,0
376,54,32980,1,0
256,192,33234,1,8
256,192,33488,5,0
304,104,33742,1,0
400,96,33997,1,2
400,96,34124,1,2
312,56,34378,1,2
312,56,34505,1,2
216,32,34759,2,0,B|176:40|136:0,1,70
64,56,35268,2,0,B|24:72|16:128,1,70,8|0
40,200,35776,1,0
112,272,36030,1,0
208,288,36285,2,0,B|288:272|368:312,1,140,8|0
345,301,37047,1,0
345,301,37302,1,8
424,240,37556,5,0
440,144,37810,1,0
384,64,38064,1,0
384,64,38192,2,0,B|320:64|272:24,1,105
184,32,38827,1,0
104,96,39081,1,0
112,192,39336,2,0,B|152:272|240:272,1,140,8|0
312,240,40098,1,0
368,160,40353,2,0,B|448:160|504:216,2,140,8|0|8
280,120,41624,5,0
192,72,41878,1,0
104,120,42132,1,2
104,120,42259,1,2
64,208,42514,1,2
64,208,42641,1,2
80,304,42895,1,0
168,336,43149,2,0,B|208:344|232:384,2,70,0|8|0
128,248,43912,2,0,B|128:168|200:104,1,140,2|0
360,48,44929,5,0
432,112,45183,1,0
416,208,45437,1,8
472,288,45692,1,0
456,192,45946,1,0
368,144,46200,2,0,B|352:112|296:112,2,70,0|8|0
304,216,46963,5,0
304,216,47217,1,0
232,288,47471,1,8
136,312,47725,1,0
136,312,47980,1,0
48,272,48234,1,0
48,272,48361,1,0
48,272,48488,2,0,B|24:200|56:128,1,140,8|0
136,80,49251,1,0
136,80,49505,1,8
224,40,49759,5,0
320,72,50014,1,0
416,80,50268,1,0
496,144,50522,1,8
496,240,50776,1,0
424,304,51030,1,0
328,328,51285,2,0,B|288:328|256:288,1,70,0|8
208,216,51793,5,0
200,200,51920,1,0
192,184,52047,1,0
184,168,52175,1,0
176,152,52302,1,0
120,72,52556,2,0,B|80:64|40:96,2,70,8|0|0
216,72,53319,1,0
304,120,53573,6,0,B|376:104|424:40,1,140,8|0
419,45,54336,1,2
419,45,54463,1,2
472,128,54717,1,2
472,128,54844,1,2
440,224,55098,1,0
440,224,55353,1,0
352,264,55607,1,8
264,216,55861,5,0
264,216,55988,1,0
240,120,56242,1,0
240,120,56369,1,0
144,88,56624,1,8
144,88,56751,1,0
144,88,56878,1,0
56,136,57132,1,0
24,232,57386,1,0
64,320,57641,6,0,B|112:368|208:360,1,140,8|0
280,304,58403,2,0,B|312:272|368:272,1,70,0|8
440,296,58912,1,0
480,208,59166,1,0
464,112,59420,1,0
464,112,59547,1,0
464,112,59675,2,0,B|440:72|384:64,1,70,8|4
360,152,60183,2,0,B|344:192|288:208,1,70,4|4
216,176,60692,1,4
216,176,60946,5,0
152,104,61200,1,0
56,104,61454,1,0
16,192,61708,2,0,B|24:272|80:320,1,140,2|4
168,336,62471,1,0
256,296,62725,1,0
272,280,62853,1,0
288,264,62980,1,0
304,248,63107,1,0
320,232,63234,1,4
416,248,63488,5,0
416,248,63615,1,0
440,152,63869,1,0
440,152,63997,2,0,B|440:104|384:72,1,70,0|4
312,80,64505,2,0,B|224:80,2,70
312,80,65268,1,4
312,80,65395,2,0,B|360:96|400:160,1,105
400,240,66030,1,0
448,328,66285,1,4
400,240,66539,5,0
400,240,66666,1,0
416,144,66920,1,0
416,144,67047,1,0
368,56,67302,1,4
368,56,67556,1,0
272,32,67810,1,0
272,32,68064,1,0
176,32,68319,2,0,B|96:40|32:80,1,140,4|0
24,168,69081,5,0
24,192,69208,1,0
24,216,69336,1,4
104,160,69590,1,0
112,184,69717,1,0
120,208,69844,1,0
128,232,69971,1,0
136,256,70098,1,0
216,208,70353,5,4
280,280,70607,1,0
280,280,70734,1,0
376,312,70988,1,0
376,312,71115,1,0
472,296,71369,1,4
416,216,71624,1,0
368,128,71878,6,0,B|384:80|424:64,1,70
144,127,72386,2,0,B|95:137|61:110,1,70,4|0
255,320,72895,2,0,B|288:358|282:401,2,70,0|0|4
256,296,73530,1,0
256,272,73658,1,0
256,248,73785,1,0
256,224,73912,2,0,B|248:152|184:96,1,140,0|4
104,64,74675,1,0
104,64,74802,1,0
16,112,75056,1,0
16,112,75183,1,0
24,208,75437,1,4
104,272,75692,1,0
200,296,75946,6,0,B|240:312|296:304,1,70
193,91,76454,2,0,B|160:118|139:170,1,70,4|0
374,188,76963,2,0,B|367:145|332:101,1,70
256,192,77471,1,4
64,32,77980,6,0,B|72:72|104:96,1,70
152,176,78488,1,4
240,216,78742,1,0
336,224,78997,2,0,B|384:232|424:272,1,70
456,328,79505,1,4
360,328,79759,2,0,B|320:328|272:288,1,70
208,264,80268,2,0,B|176:248|120:264,1,70,0|4
64,192,80776,1,0
48,160,80903,1,0
48,128,81030,1,0
56,96,81158,1,0
80,72,81285,1,0
168,32,81539,5,4
264,56,81793,1,0
264,56,81920,1,0
360,88,82175,1,0
360,88,82302,1,0
400,176,82556,1,4
344,256,82810,1,0
344,256,82937,2,0,B|304:288|240:288|240:288,1,105
168,224,83573,1,4
104,152,83827,1,0
112,56,84081,2,0,B|160:32|216:32|216:32,1,105
213,32,84590,1,4
296,88,84844,2,0,B|328:120|368:128|368:128,2,70
208,128,85607,2,0,B|200:168|152:192|152:192,2,70,4|0|0
384,328,86624,5,4
440,248,86878,1,0
440,248,87005,2,0,B|456:200|440:136|440:136,1,105
384,64,87641,1,4
288,40,87895,2,0,B|232:64|200:56|200:56,1,70
120,64,88403,1,0
64,144,88658,1,4
48,240,88912,1,0
88,328,89166,1,0
88,328,89293,1,0
88,328,89420,2,0,B|120:368|160:376|160:376,1,70,0|4
240,344,89929,1,0
240,344,90183,1,0
312,160,90692,5,4
400,120,90946,2,0,B|432:96|448:48|448:48,2,70
400,216,91708,1,4
368,304,91963,1,0
368,304,92090,1,0
280,344,92344,1,0
280,344,92471,2,0,B|240:344|200:288|200:288,1,70,0|4
200,216,92980,1,0
176,120,93234,6,0,B|160:72|128:56|128:56,1,70
40,64,93742,1,2
32,160,93997,1,0
112,216,94251,1,0
208,216,94505,1,0
208,216,94632,1,0
208,216,94759,1,2
296,176,95014,1,0
392,168,95268,1,0
424,152,95395,1,0
440,120,95522,1,0
448,88,95649,1,0
440,56,95776,1,4
344,24,96030,6,0,B|304:40|248:16|248:16,1,70
216,104,96539,2,0,B|264:128|272:176|272:176,1,70,0|2
320,232,97047,2,0,B|288:256|280:312|280:312,1,70
200,344,97556,1,0
200,344,97810,1,4
256,192,102386,5,0
256,96,102641,2,0,B|248:56|192:24|192:24,1,70,0|8
120,24,103149,1,0
120,24,103276,1,0
48,88,103530,1,0
48,88,103658,2,0,B|48:128|80:168|80:168,1,70,0|8
96,248,104166,2,0,B|120:280|176:288|176:288,1,70
256,288,104675,1,0
256,288,104802,1,0
256,288,104929,1,8
352,320,105183,5,2
168,325,105437,1,4
101,150,105692,1,2
247,32,105946,1,4
405,135,106200,1,2
96,288,106708,5,0
72,192,106963,1,8
120,104,107217,1,0
120,104,107344,2,0,B|152:64|216:56|216:56,1,105
296,104,107980,1,8
392,128,108234,1,0
480,88,108488,1,0
416,160,108742,1,2
416,160,108869,1,2
376,248,109124,1,2
376,248,109251,1,2
312,320,109505,5,2
151,284,109759,1,4
135,121,110014,1,2
285,55,110268,1,4
395,178,110522,1,0
395,178,110776,5,0
312,232,111030,1,8
216,224,111285,1,0
216,224,111412,1,0
160,144,111666,1,0
160,144,111793,2,0,B|152:104|88:72|88:72,1,70,0|8
208,64,112302,2,0,B|248:64|288:32|288:32,2,70
112,88,113064,2,0,B|56:128|40:216|40:216,1,140,8|0
400,336,114590,5,0
392,240,114844,1,0
392,240,115098,1,8
336,160,115353,1,0
336,160,115480,1,0
248,120,115734,1,0
248,120,115861,2,0,B|208:112|192:72|192:72,1,70,0|8
112,32,116369,2,0,B|80:64|88:120|88:120,1,70
96,192,116878,1,0
96,192,117132,2,0,B|136:216|144:248|144:248,1,70,8|0
464,192,118149,5,8
486,86,118403,1,0
406,14,118658,1,0
304,47,118912,1,0
281,153,119166,1,8
361,225,119420,1,2
361,225,119547,1,2
361,225,119802,1,2
361,225,119929,1,2
48,192,120183,5,8
26,298,120437,1,0
106,370,120692,1,0
208,337,120946,1,0
231,231,121200,1,8
151,159,121454,1,2
151,159,121581,1,2
151,159,121836,1,2
151,159,121963,2,0,B|152:120|184:72|184:72,1,70,2|0
272,112,122471,2,0,B|296:88|352:80|352:80,1,70,0|8
408,144,122980,5,0
464,224,123234,1,0
480,320,123488,1,2
480,320,123615,1,2
384,304,123869,1,2
384,304,123997,2,0,B|352:288|304:312|304:312,1,70,2|0
224,336,124505,1,0
128,328,124759,1,8
56,264,125014,1,0
56,264,125141,1,0
56,264,125268,1,0
242,24,125776,5,2
269,359,126285,1,8
336,112,126793,1,2
176,272,127302,5,8
144,176,127556,1,0
144,176,127683,2,0,B|128:120|152:56|152:56,1,105
240,32,128319,1,8
328,80,128573,1,0
328,80,128827,1,0
416,120,129081,1,0
440,144,129208,1,0
456,176,129336,1,8
464,208,129463,1,0
464,240,129590,2,0,B|456:288|416:320|416:320,1,70
336,328,130098,1,0
336,328,130353,2,0,B|264:336|200:296|200:296,1,140,8|0
104,128,131369,5,8
144,40,131624,2,0,B|184:16|216:32|216:32,1,70
304,48,132132,1,0
384,112,132386,1,8
392,208,132641,1,0
392,208,132768,2,0,B|392:264|432:328|432:328,1,105,0|4
420,308,133403,1,4
420,308,133658,1,4
420,308,133912,1,4
420,308,134166,5,0
336,352,134420,1,0
240,336,134675,1,0
176,264,134929,2,0,B|152:208|64:168|64:168,1,140,2|4
32,88,135692,1,0
32,88,135946,2,0,B|88:32|168:32|168:32,1,140,0|4
256,40,136708,2,0,B|304:56|320:112|320:112,1,70
320,184,137217,2,0,B|344:224|400:240|400:240,1,70,0|4
456,280,137725,1,0
392,352,137980,2,0,B|328:360|264:320|264:320,1,105
289,333,138488,5,4
224,264,138742,1,0
224,264,138869,1,0
144,216,139124,1,0
144,216,139251,1,0
112,120,139505,1,4
152,32,139759,1,0
152,32,139886,2,0,B|208:24|256:48|256:48,1,105
344,80,140522,1,4
424,136,140776,1,0
472,224,141030,1,0
456,320,141285,1,0
424,336,141412,1,0
392,344,141539,1,4
360,344,141666,1,0
328,336,141793,1,0
264,304,142047,5,0
296,184,142302,1,0
192,344,142556,1,4
144,32,142810,1,0
112,296,143064,2,0,B|72:248|72:248,1,35
192,160,143573,5,4
272,104,143827,1,0
272,104,143954,2,0,B|320:72|376:72|376:72,1,105
464,104,144590,1,4
472,200,144844,1,0
472,296,145098,2,0,B|416:344|328:328|328:328,1,140,0|4
256,280,145861,1,0
232,256,145988,1,0
216,224,146115,1,0
208,192,146242,1,0
208,160,146369,1,0
240,64,146624,1,4
240,64,147132,1,0
432,320,147641,5,4
336,312,147895,1,0
336,312,148022,1,0
336,312,148149,1,0
264,248,148403,1,0
176,200,148658,1,4
88,152,148912,2,0,B|56:128|48:72|48:72,1,70
128,24,149420,1,0
128,24,149547,2,0,B|176:64|176:120|176:120|184:120,1,105
168,208,150183,1,0
184,240,150310,1,0
216,256,150437,1,0
248,264,150564,1,0
280,256,150692,1,4
440,56,151200,6,0,B|424:128|360:176|360:176,1,140,0|4
272,184,151963,1,0
176,168,152217,2,0,B|104:200|80:272|80:272,1,140,0|4
80,368,152980,2,0,B|128:368|160:336|160:336,1,70
232,296,153488,2,0,B|280:288|328:312|328:312,3,70,0|4|0|0
448,64,154759,5,4
472,160,155014,1,0
472,160,155141,1,0
440,256,155395,1,0
440,256,155522,1,0
344,240,155776,2,0,B|328:200|288:184|288:184,1,70,4|0
297,189,156158,1,0
297,189,156285,1,0
208,144,156539,1,0
112,144,156793,1,4
56,224,157047,2,0,B|16:200|8:168|8:168,1,70
72,248,157556,2,0,B|104:264|120:312|120:312,1,70,0|4
256,192,158064,12,0,159336
432,56,159844,5,4
448,152,160098,1,0
448,152,160225,2,0,B|448:216|400:256|400:256,1,105
320,296,160861,1,4
224,320,161115,2,0,B|176:312|152:280|152:280,1,70
240,232,161624,2,0,B|272:200|272:144|272:144,1,70,0|4
216,88,162132,1,0
136,24,162386,1,0
48,56,162641,1,0
48,56,162768,1,0
48,56,162895,1,4
24,152,163149,1,0
24,152,163403,1,0
328,328,163912,5,4
376,240,164166,2,0,B|416:232|448:240|448:240,2,70
304,176,164929,1,4
216,128,165183,1,0
216,128,165310,1,0
152,56,165564,1,0
152,56,165691,1,0
56,48,165946,1,4
56,144,166200,2,0,B|48:192|16:216|16:216,2,70
56,144,166963,1,4
136,200,167217,1,0
232,184,167471,1,0
328,176,167725,5,0
328,176,167853,1,0
328,176,167980,2,0,B|400:200|448:256|448:256,1,140,4|0
456,272,168615,1,0
464,296,168742,1,0
464,320,168869,1,0
456,344,168997,2,0,B|400:384|304:368|304:368,1,140,4|0
224,360,169759,6,0,B|200:304|200:304,1,35,0|4
112,280,170268,1,0
232,176,170522,1,0
120,128,170776,1,0
416,168,171030,1,4
224,24,171285,1,0
336,176,171539,1,0
256,192,172047,12,0,175607
328,248,191878,6,0,B|368:232|392:192|392:192,1,70
408,160,192641,1,0
424,112,192895,1,0
408,64,193149,1,0
368,32,193403,2,0,B|336:32|296:16|296:16,1,70,8|0
248,24,194166,1,0
208,48,194420,1,0
160,64,194675,1,0
112,80,194929,6,0,B|72:80|48:40|48:40,2,70,0|8|0
144,112,196200,1,0
168,152,196454,1,0
216,168,196708,1,0
256,200,196963,2,0,B|288:240|296:272|296:272,1,70,0|8
336,272,197725,1,0
336,272,197980,2,0,B|376:304|416:296|416:296,1,70
448,288,198742,2,0,B|464:296|480:320|480:320,2,35
456,240,199505,6,0,B|480:208|480:160|480:160,1,70,8|0
464,128,200268,1,0
440,88,200522,1,0
400,64,200776,1,0
352,56,201030,2,0,B|320:64|288:96|288:96,1,70,0|8
292,91,201793,1,0
272,136,202047,2,0,B|248:168|208:184|208:184,1,70
168,192,202810,1,0
168,192,203064,2,0,B|120:200|120:200,1,35
128,248,203573,2,0,B|104:288|104:288,1,35,8|0
144,312,204081,6,0,B|144:352|144:352,2,35,0|0|8
144,312,204844,1,0
192,304,205098,2,0,B|232:312|256:336|256:336,1,70,0|8
304,344,205861,1,0
352,352,206115,1,0
400,344,206369,1,0
440,312,206624,1,8
448,288,206751,1,0
448,264,206878,1,0
456,240,207005,1,0
472,216,207132,1,0
440,120,207386,5,0
360,64,207641,1,8
264,48,207895,1,0
168,64,208149,2,0,B|88:88|64:176|64:176,1,140,0|8
64,256,208912,1,0
112,344,209166,2,0,B|184:376|264:376|264:376,1,140,0|8
272,376,209802,1,0
296,368,209929,1,0
320,352,210056,1,0
344,336,210183,2,0,B|384:320|400:272|400:272,1,70
360,200,210691,2,0,B|328:208|272:176|272:176,2,70,8|0|0
72,56,211708,5,8
160,96,211963,1,0
160,96,212090,2,0,B|224:112|272:72|272:72,1,105
260,79,212725,1,8
360,96,212980,1,0
360,96,213107,2,0,B|424:104|464:160|464:160,1,105
480,240,213742,1,8
424,320,213997,1,0
344,272,214251,1,0
280,344,214505,1,0
248,328,214632,1,0
224,296,214759,2,0,B|176:240|176:152|176:152,1,140,8|0
336,48,215776,5,8
176,336,216285,1,2
352,144,216793,1,8
160,240,217047,5,2
160,240,217175,1,2
216,160,217429,1,2
216,160,217556,1,2
240,64,217810,1,0
320,8,218064,1,0
416,32,218319,2,0,B|424:72|456:104|456:104,1,70,8|0
424,192,218827,2,0,B|400:224|352:224|352:224,1,70
272,184,219336,2,0,B|232:160|232:96|232:96,1,70,8|0
136,112,219844,2,0,B|104:88|48:104|48:104,2,70,0|0|8
320,320,220861,6,0,B|368:304|400:248|400:248,1,105
397,251,221369,1,8
408,152,221624,1,0
352,72,221878,2,0,B|328:40|280:40|280:40,1,70
224,112,222386,2,0,B|208:152|232:192|232:192,1,70,8|0
280,264,222895,2,0,B|320:288|368:288|368:288,1,70,0|0
256,328,223403,2,0,B|224:344|176:328|176:328,1,70,8|0
280,368,223912,1,0
344,184,224420,6,0,B|424:176|472:120|472:120,1,140,2|4
400,56,225183,1,0
304,48,225437,2,0,B|264:56|224:32|224:32,1,70
144,56,225946,1,4
120,152,226200,2,0,B|120:192|152:232|152:232,1,70
232,248,226708,2,0,B|232:288|192:320|192:320,2,70,0|4|0
232,248,227471,1,0
289,51,227980,5,4
224,120,228234,1,0
224,120,228361,1,0
144,168,228615,1,0
144,168,228742,1,0
112,264,228997,1,4
152,352,229251,1,0
152,352,229378,2,0,B|208:360|256:336|256:336,1,105
344,304,230014,1,4
424,248,230268,1,0
472,160,230522,1,0
456,64,230776,1,0
424,48,230903,1,0
392,40,231030,1,4
360,40,231158,1,0
328,48,231285,1,0
264,80,231539,5,0
296,200,231793,1,0
192,40,232047,1,4
144,352,232302,1,0
112,88,232556,2,0,B|72:136|72:136,1,35
192,224,233064,5,4
272,280,233319,1,0
272,280,233446,2,0,B|320:312|376:312|376:312,1,105
464,280,234081,1,4
472,184,234336,1,0
472,88,234590,2,0,B|416:40|328:56|328:56,1,140,0|4
256,104,235353,1,0
232,128,235480,1,0
216,160,235607,1,0
208,192,235734,1,0
208,224,235861,1,0
240,320,236115,1,4
240,320,236624,1,0
432,64,237132,5,4
336,72,237386,1,0
336,72,237514,1,0
336,72,237641,1,0
264,136,237895,1,0
176,184,238149,1,4
88,232,238403,2,0,B|56:256|48:312|48:312,1,70
128,360,238912,1,0
128,360,239039,2,0,B|176:320|176:264|176:264|184:264,1,105
168,176,239675,1,0
184,144,239802,1,0
216,128,239929,1,0
248,120,240056,1,0
280,128,240183,1,4
440,328,240691,6,0,B|424:256|360:208|360:208,1,140,0|4
272,200,241454,1,0
176,216,241708,2,0,B|104:184|80:112|80:112,1,140,0|4
80,16,242471,2,0,B|128:16|160:48|160:48,1,70
232,88,242980,2,0,B|280:96|328:72|328:72,3,70,0|4|0|0
448,320,244251,5,4
472,224,244505,1,0
472,224,244632,1,0
440,128,244886,1,0
440,128,245014,1,0
344,144,245268,2,0,B|328:184|288:200|288:200,1,70,4|0
297,195,245649,1,0
297,195,245776,1,0
208,240,246030,1,0
112,240,246285,1,4
56,160,246539,2,0,B|16:184|8:216|8:216,1,70
80,144,247047,2,0,B|112:120|128:80|128:80,1,70,0|4
256,192,247556,12,0,248827
432,328,249336,5,4
448,232,249590,1,0
448,232,249717,2,0,B|448:168|400:128|400:128,1,105
320,88,250353,1,4
224,64,250607,2,0,B|176:72|152:104|152:104,1,70
240,152,251115,2,0,B|272:184|272:240|272:240,1,70,0|4
216,296,251624,1,0
136,360,251878,1,0
48,328,252132,1,0
48,328,252259,1,0
48,328,252386,1,4
24,232,252641,1,0
24,232,252895,1,0
328,56,253403,5,4
376,144,253658,2,0,B|416:152|448:144|448:144,2,70
304,208,254420,1,4
216,256,254675,1,0
216,256,254802,1,0
152,328,255056,1,0
152,328,255183,1,0
56,336,255437,1,4
56,240,255691,2,0,B|48:192|16:168|16:168,2,70
56,240,256454,1,4
136,184,256708,1,0
232,200,256963,1,0
328,208,257217,5,0
328,208,257344,1,0
328,208,257471,2,0,B|400:184|448:128|448:128,1,140,4|0
456,120,258107,1,0
464,104,258234,1,0
472,88,258361,1,0
464,72,258488,2,0,B|408:32|328:32|328:32,1,140,4|0
224,24,259251,6,0,B|200:80|200:80,1,35,0|4
112,104,259759,1,0
232,208,260014,1,0
120,256,260268,1,0
416,216,260522,1,4
224,360,260776,1,0
336,208,261030,1,0
184,104,261285,1,0
184,104,261412,1,0
184,104,261539,1,4
256,192,261793,12,4,263573
368,320,264081,5,0
256,344,264336,1,0
104,280,264590,1,4
72,96,264844,1,0
240,16,265098,1,0
432,96,265353,1,0
432,96,265480,1,0
432,96,265607,1,4
256,192,265861,12,4,268658
