osu file format v14

[General]
AudioFilename: Kimi ni Aetakara.mp3
AudioLeadIn: 0
PreviewTime: 70507
Countdown: 0
SampleSet: Soft
StackLeniency: 0.7
Mode: 0
LetterboxInBreaks: 1
WidescreenStoryboard: 1

[Editor]
Bookmarks: 76156,80391
DistanceSpacing: 1
BeatDivisor: 4
GridSize: 4
TimelineZoom: 1.400001

[Metadata]
Title:Kimi ni Aeta kara
TitleUnicode:君に逢えたから
Artist:eufonius
ArtistUnicode:eufonius
Creator:KaedekaShizuru
Version:Hikari
Source:いろとりどりのセカイ
Tags:favorite riya iro toridori no sekai irotoridori no hikari galgame eroge ending sellenite Moecho Sun Rainbow -Google- troogle Nikaidou Shinku
BeatmapID:525742
BeatmapSetID:180915

[Difficulty]
HPDrainRate:6
CircleSize:4
OverallDifficulty:6
ApproachRate:7
SliderMultiplier:1.8
SliderTickRate:2

[Events]
//Background and Video events
0,0,"bg.jpg",0,0
//Break Periods
//Storyboard Layer 0 (Background)
//Storyboard Layer 1 (Fail)
//Storyboard Layer 2 (Pass)
//Storyboard Layer 3 (Foreground)
//Storyboard Sound Samples

[TimingPoints]
639,705.882352941176,4,2,1,20,1,0
1344,759.493670886076,4,2,1,20,1,0
1723,681.818181818182,4,2,1,20,1,0
3086,750,4,2,1,20,1,0
3461,681.818181818182,4,2,1,20,1,0
4483,722.89156626506,4,2,1,20,1,0
6290,674.157303370787,4,2,1,20,1,0
6627,689.655172413793,4,2,1,20,1,0
6971,750,4,2,1,20,1,0
7346,681.818181818182,4,2,1,20,1,0
8027,705.882352941176,4,2,1,20,1,0
9085,789.473684210526,4,2,1,20,1,0
9479,652.173913043478,4,2,1,20,1,0
9805,722.89156626506,4,2,1,20,1,0
10166,689.655172413793,4,2,1,20,1,0
10855,800,4,2,1,20,1,0
11255,674.157303370787,4,2,1,20,1,0
11929,705.882352941176,4,2,1,20,1,0
12987,731.707317073171,4,2,1,20,1,0
13718,705.882352941176,4,2,1,20,1,0
15832,670.391061452514,4,2,1,20,1,0
16502,705.882352941176,4,2,1,20,1,0
17560,693.64161849711,4,2,1,20,1,0
17906,731.707317073171,4,2,1,20,1,0
18637,704.845814977974,4,2,1,20,1,0
19341,666.666666666667,4,2,1,20,1,0
19674,704.845814977974,4,2,1,20,1,0
20378,705.882352941176,4,2,1,20,1,0
21789,697.674418604651,4,2,1,20,1,0
22137,714.285714285714,4,2,1,20,1,0
22495,705.882352941176,4,2,1,20,1,0
23907,710.059171597633,4,2,1,20,1,0
26037,689.655172413793,4,2,1,20,1,0
26381,714.285714285714,4,2,1,20,1,0
26738,705.882352941176,4,2,1,20,1,0
27443,714.285714285714,4,2,1,20,1,0
27800,689.655172413793,4,2,1,20,1,0
28144,709.639266706091,4,2,1,20,1,0
31692,679.886685552408,4,2,1,20,1,0
32031,740.740740740741,4,2,1,20,1,0
32401,731.707317073171,4,2,1,20,1,0
33132,668.523676880223,4,2,1,20,1,0
33466,689.655172413793,4,2,1,20,1,0
34155,731.707317073171,4,2,1,20,1,0
34520,697.674418604651,4,2,1,23,1,0
35566,701.754385964912,4,2,1,23,1,0
36618,722.89156626506,4,2,1,23,1,0
37340,689.655172413793,4,2,1,23,1,0
37684,705.882352941176,4,2,1,23,1,0
39801,746.918959292917,4,2,1,23,1,0
40547,689.655172413793,4,2,1,23,1,0
41236,652.173913043478,4,2,1,23,1,0
41562,691.64265129683,4,2,1,23,1,0
41907,714.285714285714,4,2,1,23,1,0
42978,705.882352941176,4,2,1,23,1,0
45448,722.89156626506,4,2,1,23,1,0
46170,707.964601769912,4,2,1,23,1,0
46877,659.340659340659,4,2,1,23,1,0
47206,701.754385964912,4,2,1,23,1,0
47907,715.990453460621,4,2,1,23,1,0
48622,712.166172106825,4,2,1,23,1,0
50046,697.674418604651,4,2,1,23,1,0
51441,714.285714285714,4,2,1,23,1,0
54298,697.674418604651,4,2,1,23,1,0
54995,707.964601769912,4,2,1,23,1,0
56410,714.285714285714,4,2,1,23,1,0
57124,695.652173913044,4,2,1,23,1,0
59210,739.59938366718,4,2,1,23,1,0
59949,714.285714285714,4,2,1,23,1,0
60306,697.674418604651,4,2,1,23,1,0
62050,705.882352941176,4,2,1,23,1,0
66285,714.285714285714,4,2,1,23,1,0
67356,689.655172413793,4,2,1,23,1,0
68390,705.882352941176,4,2,1,23,1,0
70507,689.655172413793,4,2,1,25,1,0
70851,731.707317073171,4,2,1,30,1,0
71216,720.720720720721,4,2,4,30,1,0
72657,697.674418604651,4,2,4,30,1,0
73354,705.882352941176,4,2,4,30,1,0
74059,697.674418604651,4,2,4,30,1,0
75454,714.285714285714,4,2,4,30,1,0
76882,691.64265129683,4,2,4,30,1,0
77573,705.882352941176,4,2,4,30,1,0
78984,726.392251815981,4,2,4,30,1,0
79710,703.812316715542,4,2,4,30,1,0
82525,714.285714285714,4,2,4,30,1,0
83239,689.655172413793,4,2,4,30,1,0
83928,764.331210191083,4,2,4,30,1,0
84310,628.272251308901,4,2,4,30,1,0
84624,710.059171597633,4,2,4,30,1,0
86044,705.882352941176,4,2,4,30,1,0
86749,700.44361428905,4,2,4,30,1,0
88850,668.523676880223,4,2,4,30,1,0
89518,722.89156626506,4,2,4,30,1,0
93132,689.655172413793,4,2,4,30,1,0
93821,705.882352941176,4,2,4,30,1,0
94173,681.818181818182,4,2,4,30,1,0
94854,697.674418604651,4,2,4,30,1,0
95551,705.882352941176,4,2,4,30,1,0
98021,701.754385964912,4,2,4,30,1,0
100828,712.166172106825,4,2,4,30,1,0
103676,697.674418604651,4,2,4,30,1,0
104373,705.882352941176,4,2,4,30,1,0
106490,689.655172413793,4,2,4,30,1,0
107179,731.707317073171,4,2,4,30,1,0
108642,697.674418604651,4,2,4,30,1,0
111432,731.707317073171,4,2,4,30,1,0
112895,714.285714285714,4,2,4,30,1,0
113252,652.173913043478,4,2,4,30,1,0
113578,689.655172413793,4,2,4,30,1,0
114267,705.882352941176,4,2,4,30,1,0
117090,722.89156626506,4,2,4,30,1,0
117451,704.887218045113,4,2,4,30,1,0
119213,705.882352941176,4,2,2,35,1,0
119213,-83.3333333333333,4,2,2,35,0,0
164389,-83.3333333333333,4,2,2,40,0,0
172860,706.713780918728,4,2,2,40,1,0
172860,-83.3333333333333,4,2,2,40,0,0
175686,705.882352941176,4,2,2,50,1,0
175686,-83.3333333333333,4,2,2,50,0,1
194920,-83.3333333333333,4,2,2,20,0,1
195096,-83.3333333333333,4,2,2,50,0,1
195273,-83.3333333333333,4,2,2,20,0,1
195449,-83.3333333333333,4,2,2,50,0,1
220862,705.55032925682,4,2,2,50,1,1
220862,-83.3333333333333,4,2,2,50,0,1
223684,705.882352941176,4,2,2,50,1,1
224389,-100,4,2,2,30,0,0
228626,-100,4,2,1,30,0,0
229332,-100,4,2,2,30,0,0
244684,-100,4,2,2,20,0,0
245037,-100,4,2,2,40,0,0
246272,-76.9230769230769,4,2,2,50,0,1
248567,-76.9230769230769,4,2,2,20,0,1
248743,-76.9230769230769,4,2,2,50,0,1
248920,-76.9230769230769,4,2,2,20,0,1
249096,-76.9230769230769,4,2,2,50,0,1
257037,-76.9230769230769,4,2,2,20,0,1
257214,-76.9230769230769,4,2,2,50,0,1
262332,-76.9230769230769,4,2,2,20,0,1
262508,-76.9230769230769,4,2,2,50,0,1
265508,-76.9230769230769,4,2,2,20,0,1
265684,-76.9230769230769,4,2,2,50,0,1
265861,-76.9230769230769,4,2,2,20,0,1
266036,-100,4,2,2,50,0,1
267448,-76.9230769230769,4,2,2,50,0,1
268861,-76.9230769230769,4,2,2,55,0,1
276802,-76.9230769230769,4,2,2,25,0,1
276979,-76.9230769230769,4,2,2,55,0,1
277155,-76.9230769230769,4,2,2,25,0,1
277332,-76.9230769230769,4,2,2,55,0,1
293919,750,4,2,2,20,1,0
294294,769.230769230769,4,2,1,20,1,0
294294,-166.666666666667,4,2,1,20,0,0
294678,771.704180064309,4,2,1,20,1,0
295063,800,4,2,1,20,1,0
295063,-166.666666666667,4,2,1,20,0,0
295463,880.410858400587,4,2,1,20,1,0
295903,967.741935483871,4,2,1,20,1,0
296386,1090.90909090909,4,2,1,20,1,0
296931,1490.68322981366,4,2,1,20,1,0
297676,2400,4,2,1,20,1,0
298876,2891.56626506024,4,2,1,20,1,0
303213,-100,4,2,4,20,0,0
304330,2891.56626506024,4,2,1,20,1,0
307221,-100,4,2,1,15,0,0
310113,-100,4,2,1,10,0,0
312281,-100,4,2,1,5,0,0

[Colours]
Combo1 : 0,255,128
Combo2 : 255,255,0
Combo3 : 255,0,0
Combo4 : 2,106,83
Combo5 : 128,128,255 SilderBorder :
255,255,255

[HitObjects]
349,70,11929,6,0,P|312:100|266:111,1,90,4|0,0:0|0:0,0:0:0:0:
220,36,12634,2,0,P|190:73|179:119,1,90,2|0,0:0|0:0,0:0:0:0:
280,264,13718,1,0,0:0:0:0:
268,352,14070,2,0,L|222:375,2,45,2|0|0,0:0|0:0|0:0,0:0:0:0:
360,344,14776,6,0,P|388:308|428:268,1,90,4|0,0:0|0:0,0:0:0:0:
440,188,15482,2,0,P|396:200|348:216,1,89.3,2|0,0:0|0:0,0:0:0:0:
220,92,16502,1,0,0:0:0:0:
176,272,17207,1,0,0:0:0:0:
260,236,17560,6,0,P|296:272|340:300,1,90,4|0,0:0|0:0,0:0:0:0:
416,272,18271,2,0,P|380:232|344:208,1,90,2|0,0:0|0:0,0:0:0:0:
216,96,19341,1,0,0:0:0:0:
156,264,19674,2,0,L|179:225,1,45,2|0,0:0|0:0,0:0:0:0:
260,264,20026,2,0,L|266:220,1,45
343,186,20378,6,0,L|320:148,2,45,4|0|0,0:0|0:0|0:0,0:0:0:0:
432,256,21083,2,0,P|448:212|454:165,1,90,2|0,0:0|0:0,0:0:0:0:
452,28,22137,1,2,0:0:0:0:
272,40,22847,1,0,0:0:0:0:
334,108,23200,6,0,L|301:194,1,90,4|0,0:0|0:0,0:0:0:0:
268,276,23907,2,0,P|232:249|207:211,1,90
180,124,24617,1,2,0:0:0:0:
76,272,25327,1,0,0:0:0:0:
240,352,26037,5,4,0:0:0:0:
308,268,26381,2,0,P|355:270|399:298,1,90
328,360,27090,1,0,0:0:0:0:
240,352,27443,2,0,P|200:336|156:312,1,90,2|0,0:0|0:0,0:0:0:0:
128,228,28144,1,2,0:0:0:0:
16,124,28498,2,0,P|59:135|108:139,1,90,0|4,0:0|0:0,0:0:0:0:
152,64,29208,6,0,P|171:78|189:102,2,45,0|0|0,0:0|0:0|0:0,0:0:0:0:
104,140,29918,1,0,0:0:0:0:
128,228,30272,2,0,P|178:220|216:205,1,90,2|0,0:0|0:0,0:0:0:0:
296,164,30982,1,0,0:0:0:0:
456,184,31692,6,0,P|452:232|428:268,1,90,4|0,0:0|0:0,0:0:0:0:
344,284,32401,2,0,P|347:239|371:201,1,90,2|0,0:0|0:0,0:0:0:0:
236,84,33466,1,2,0:0:0:0:
144,236,34155,1,0,0:0:0:0:
188,312,34520,6,0,P|169:352|132:376,1,90,4|0,0:0|0:0,0:0:0:0:
40,380,35217,2,0,P|50:336|78:300,1,90
144,236,35916,1,2,0:0:0:0:
216,76,36618,1,0,0:0:0:0:
252,100,36798,1,0,0:0:0:0:
284,132,36979,1,0,0:0:0:0:
368,176,37340,5,4,0:0:0:0:
292,224,37684,1,0,0:0:0:0:
144,264,38036,2,0,P|184:284|228:288,1,90,2|0,0:0|0:0,0:0:0:0:
396,344,39095,1,0,0:0:0:0:
208,156,39801,1,0,0:0:0:0:
108,300,40174,6,0,P|145:264|169:228,1,90,4|0,0:0|0:0,0:0:0:0:
81,200,40891,2,0,P|103:151|105:113,1,90,0|0,0:0|0:0,0:0:0:0:
8,128,41562,1,2,0:0:0:0:
368,84,42264,2,0,L|412:112,1,45
376,184,42621,2,0,L|418:197,1,45
404,280,42978,6,0,L|351:300,2,45,4|0|0,0:0|0:0|0:0,0:0:0:0:
284,228,43683,2,0,P|267:272|260:320,1,90,2|0,0:0|0:0,0:0:0:0:
80,356,44742,1,0,0:0:0:0:
168,252,45448,1,0,0:0:0:0:
260,316,45809,6,0,L|343:274,1,90,4|0,0:0|0:0,0:0:0:0:
428,264,46523,2,0,P|432:216|448:172,1,90,0|0,0:0|0:0,0:0:0:0:
484,96,47206,1,2,0:0:0:0:
308,68,47907,1,0,0:0:0:0:
368,236,48622,5,4,0:0:0:0:
280,252,48978,2,0,P|231:267|197:296,1,90,0|2,0:0|0:0,0:0:0:0:
128,340,49690,1,0,0:0:0:0:
128,340,50046,2,0,P|116:288|124:248,1,90,2|0,0:0|0:0,0:0:0:0:
72,176,50743,2,0,P|44:211|33:254,1,90,0|0,0:0|0:0,0:0:0:0:
232,284,51441,5,4,0:0:0:0:
232,284,51798,2,0,P|254:245|265:200,2,90,0|2|0,0:0|0:0|0:0,0:0:0:0:
440,192,53226,2,0,P|417:153|406:107,1,90,0|2,0:0|0:0,0:0:0:0:
284,20,54298,5,4,0:0:0:0:
284,20,54646,2,0,P|284:44|288:72,1,45
376,76,54995,2,0,P|354:114|322:146,1,90,0|2,0:0|0:0,0:0:0:0:
256,216,55702,2,0,P|296:232|345:239,2,90,2|0|0,0:0|0:0|0:0,0:0:0:0:
160,172,56767,1,0,0:0:0:0:
124,256,57124,5,4,0:0:0:0:
164,340,57471,2,0,P|180:356|204:368,1,45
232,288,57819,2,0,P|272:300|312:332,2,90,0|0|2,0:0|0:0|0:0,0:0:0:0:
384,252,59210,1,0,0:0:0:0:
216,184,59949,5,4,0:0:0:0:
304,140,60306,2,0,B|348:125|400:128,2,90,0|0|0,0:0|0:0|0:0,0:0:0:0:
216,184,61352,1,2,0:0:0:0:
44,72,62050,2,0,P|28:112|0:153,1,90,4|0,0:0|0:0,0:0:0:0:
44,280,62755,5,4,0:0:0:0:
136,298,63108,1,0,0:0:0:0:
180,289,63285,1,0,0:0:0:0:
223,279,63461,1,2,0:0:0:0:
304,320,63814,1,0,0:0:0:0:
328,284,63991,2,0,L|356:244,1,45,0|2,0:0|0:0,0:0:0:0:
356,156,64520,2,0,L|268:196,1,90,0|2,0:0|0:0,0:0:0:0:
192,160,65226,1,0,0:0:0:0:
252,96,65579,6,0,P|308:80|340:60,1,90,4|0,0:0|0:0,0:0:0:0:
388,136,66285,1,0,0:0:0:0:
292,228,66820,1,0,0:0:0:0:
292,228,66999,2,0,P|240:244|210:266,1,90,2|0,0:0|0:0,0:0:0:0:
200,356,67528,2,0,P|252:340|282:318,1,90
256,192,68390,12,4,70507,0:0:0:0:
120,108,71033,6,0,L|176:116,1,45,0|4,0:0|0:0,0:0:0:0:
213,196,71576,1,0,0:0:0:0:
368,252,71936,2,0,P|324:252|268:268,1,90,0|0,0:0|0:0,0:0:0:0:
204,308,72657,1,2,0:0:0:0:
44,264,73354,2,0,L|133:249,1,90,0|0,0:0|0:0,0:0:0:0:
296,336,74059,5,4,0:0:0:0:
376,168,74756,1,0,0:0:0:0:
220,60,75454,2,0,P|212:104|212:152,1,90,2|0,0:0|0:0,0:0:0:0:
316,104,76168,2,0,P|323:57|323:14,1,90
396,180,76882,1,2,0:0:0:0:
228,236,77573,5,4,0:0:0:0:
296,296,77925,2,0,P|341:299|392:320,1,90,0|2,0:0|0:0,0:0:0:0:
208,344,78631,2,0,P|152:328|112:304,1,90
56,256,79347,1,0,0:0:0:0:
160,168,79710,6,0,P|184:212|196:252,1,90,4|0,0:0|0:0,0:0:0:0:
316,316,80413,2,0,P|325:272|326:227,2,90,0|0|2,0:0|0:0|0:0,0:0:0:0:
316,316,81821,1,4,0:0:0:0:
452,196,82525,6,0,P|418:165|380:142,1,90,4|0,0:0|0:0,0:0:0:0:
288,129,83239,2,0,P|297:173|320:212,1,90
403,230,83928,2,0,P|395:186|380:144,1,90,2|0,0:0|0:0,0:0:0:0:
319,211,84624,2,0,P|284:240|232:248,1,90
72,152,85334,6,0,P|114:166|159:171,1,90,4|0,0:0|0:0,0:0:0:0:
228,116,85866,2,0,P|240:136|248:164,1,45
304,224,86220,1,0,0:0:0:0:
304,224,86396,2,0,P|263:243|212:248,1,90
100,312,87099,1,0,0:0:0:0:
220,248,87449,2,0,P|268:256|308:276,1,90,2|0,0:0|0:0,0:0:0:0:
228,165,88149,6,0,P|260:140|290:83,1,90,4|0,0:0|0:0,0:0:0:0:
357,155,88675,1,0,0:0:0:0:
357,155,88850,2,0,P|372:197|398:233,1,90,4|0,0:0|0:0,0:0:0:0:
491,251,89351,2,0,P|483:274|466:304,1,45
292,272,89879,1,0,0:0:0:0:
112,268,90240,2,0,P|156:248|192:220,1,90,2|0,0:0|0:0,0:0:0:0:
184,356,90963,5,4,0:0:0:0:
460,228,91686,1,0,0:0:0:0:
328,28,92409,1,4,0:0:0:0:
52,156,93132,1,0,0:0:0:0:
414,259,93821,6,0,B|384:300|328:312,1,90,4|0,0:0|0:0,0:0:0:0:
288,236,94513,2,0,P|256:273|238:325,1,90,0|0,0:0|0:0,0:0:0:0:
241,311,95202,1,2,0:0:0:0:
396,220,95903,2,0,B|382:171|350:140,1,90,0|0,0:0|0:0,0:0:0:0:
260,220,96609,6,0,P|208:208|168:192,1,90,4|0,0:0|0:0,0:0:0:0:
92,156,97315,1,2,0:0:0:0:
196,12,98021,2,0,P|233:43|252:93,1,90,4|0,0:0|0:0,0:0:0:0:
356,84,98722,2,0,P|347:131|313:172,1,90,2|0,0:0|0:0,0:0:0:0:
288,196,99249,1,0,0:0:0:0:
248,216,99424,5,4,0:0:0:0:
76,264,100126,1,0,0:0:0:0:
252,308,100828,1,2,0:0:0:0:
384,180,101540,2,0,P|412:216|432:264,1,90,0|0,0:0|0:0,0:0:0:0:
252,220,102252,6,0,P|245:174|252:123,2,90,4|0|0,0:0|0:0|0:0,0:0:0:0:
148,308,103320,2,0,P|168:328|192:344,1,45
224,360,103676,1,2,0:0:0:0:
224,360,104373,1,4,0:0:0:0:
432,184,105078,6,0,P|389:166|338:159,1,90,4|0,0:0|0:0,0:0:0:0:
364,248,105784,2,0,P|408:272|452:280,2,90,0|0|2,0:0|0:0|0:0,0:0:0:0:
205,163,107179,1,0,0:0:0:0:
288,108,107910,6,0,P|243:76|203:70,1,90,4|0,0:0|0:0,0:0:0:0:
124,188,108459,2,0,P|179:179|211:155,1,87.7868852459,4|0,0:0|0:0,0:0:0:0:
132,72,108990,1,0,0:0:0:0:
0,145,109339,2,0,P|-5:187|4:239,2,90,2|0|0,0:0|0:0|0:0,0:0:0:0:
0,145,110735,5,4,0:0:0:0:
116,80,111083,1,0,0:0:0:0:
132,124,111258,2,0,P|124:190|88:246,1,139.13001912
188,336,112163,1,2,0:0:0:0:
352,248,112895,2,0,P|301:231|272:208,1,90,0|0,0:0|0:0,0:0:0:0:
244,176,113415,1,0,0:0:0:0:
352,152,113578,6,0,P|383:120|407:82,1,90,4|0,0:0|0:0,0:0:0:0:
272,92,114267,2,0,P|252:137|245:179,1,90,4|0,0:0|0:0,0:0:0:0:
464,188,115325,1,0,0:0:0:0:
336,288,116031,2,0,P|294:315|254:329,1,90,4|0,0:0|0:0,0:0:0:0:
256,192,116561,12,8,118508,0:0:0:0:
112,176,119213,6,0,L|224:156,1,107.999996704102,4|0,0:0|0:0,0:0:0:0:
336,88,119742,1,0,0:0:0:0:
336,88,119918,2,0,P|324:152|324:204,1,107.999996704102,8|0,0:0|0:0,0:0:0:0:
344,364,120624,1,2,0:0:0:0:
412,228,120977,2,0,P|420:200|416:172,1,53.9999983520508
328,192,121330,2,0,L|274:199,2,53.9999983520508,8|0|0,0:0|0:0|0:0,0:0:0:0:
144,72,122036,6,0,P|140:128|116:176,1,107.999996704102,4|0,0:0|0:0,0:0:0:0:
40,216,122565,2,0,P|60:240|92:256,1,53.9999983520508,0|8,0:0|0:0,0:0:0:0:
268,260,123095,2,0,P|268:286|273:313,1,53.9999983520508
356,280,123448,2,0,L|456:320,2,107.999996704102,2|0|8,0:0|0:0|0:0,0:0:0:0:
136,280,124507,1,0,0:0:0:0:
244,92,124860,6,0,P|276:136|320:168,1,107.999996704102,4|0,0:0|0:0,0:0:0:0:
392,220,125389,2,0,P|364:240|332:252,1,53.9999983520508,0|8,0:0|0:0,0:0:0:0:
392,44,125918,2,0,P|416:36|448:36,2,53.9999983520508,0|0|2,0:0|0:0|0:0,0:0:0:0:
184,96,126624,1,0,0:0:0:0:
100,232,126977,2,0,L|92:176,1,53.9999983520508,8|0,0:0|0:0,0:0:0:0:
172,288,127330,2,0,L|180:344,1,53.9999983520508
188,196,127683,6,0,L|244:188,1,53.9999983520508,4|0,0:0|0:0,0:0:0:0:
356,116,128036,2,0,P|348:172|344:232,1,107.999996704102,0|8,0:0|0:0,0:0:0:0:
420,296,128742,1,0,0:0:0:0:
346,332,128918,1,0,0:0:0:0:
272,296,129095,2,0,P|215:302|156:314,1,107.999996704102,2|0,0:0|0:0,0:0:0:0:
8,272,129801,2,0,P|13:325|23:378,1,107.999996704102,8|0,0:0|0:0,0:0:0:0:
140,304,130507,6,0,P|144:252|128:200,1,107.999996704102,4|0,0:0|0:0,0:0:0:0:
172,112,131036,2,0,L|208:152,1,53.9999983520508,0|8,0:0|0:0,0:0:0:0:
424,100,131565,1,0,0:0:0:0:
488,152,131742,1,0,0:0:0:0:
412,180,131918,2,0,P|408:233|424:284,1,107.999996704102,2|0,0:0|0:0,0:0:0:0:
264,264,132624,1,8,0:0:0:0:
264,264,132801,2,0,L|164:216,1,107.999996704102,2|0,0:0|0:0,0:0:0:0:
168,136,133330,5,4,0:0:0:0:
12,156,133683,2,0,P|48:200|76:264,1,107.999996704102,0|8,0:0|0:0,0:0:0:0:
232,224,134389,1,0,0:0:0:0:
232,224,134565,2,0,L|330:271,1,107.999996704102,2|0,0:0|0:0,0:0:0:0:
420,332,135095,2,0,L|424:276,1,53.9999983520508
388,88,135448,2,0,L|383:196,1,107.999996704102,8|0,0:0|0:0,0:0:0:0:
76,224,136154,5,4,0:0:0:0:
236,236,136507,2,0,L|292:240,2,53.9999983520508,0|0|8,0:0|0:0|0:0,0:0:0:0:
172,84,137213,1,0,0:0:0:0:
76,224,137565,2,0,P|104:240|136:248,1,53.9999983520508,2|0,0:0|0:0,0:0:0:0:
224,204,137918,2,0,P|232:232|236:256,1,53.9999983520508
312,336,138271,2,0,P|340:284|344:224,1,107.999996704102,8|0,0:0|0:0,0:0:0:0:
218,63,138977,6,0,P|193:83|174:111,1,53.9999983520508,4|0,0:0|0:0,0:0:0:0:
244,192,139330,2,0,L|255:136,1,53.9999983520508
137,204,139683,1,8,0:0:0:0:
340,288,140036,1,2,0:0:0:0:
340,288,140213,2,0,L|232:312,1,107.999996704102
112,348,140742,1,0,0:0:0:0:
72,136,141095,1,8,0:0:0:0:
123,73,141271,1,0,0:0:0:0:
195,110,141448,2,0,L|218:96,2,26.9999991760254,0|0|8,0:0|0:0|0:0,0:0:0:0:
116,204,141801,6,0,P|168:192|232:192,1,107.999996704102,4|0,0:0|0:0,0:0:0:0:
296,228,142330,2,0,P|272:256|252:268,1,53.9999983520508,0|8,0:0|0:0,0:0:0:0:
192,384,142860,1,0,0:0:0:0:
396,332,143213,2,0,P|432:292|464:237,1,107.999996704102,2|0,0:0|0:0,0:0:0:0:
316,172,143918,2,0,P|319:198|327:224,1,53.9999983520508,8|0,0:0|0:0,0:0:0:0:
400,188,144271,2,0,P|400:160|396:132,1,53.9999983520508
356,8,144624,6,0,P|329:45|279:86,1,107.999996704102,4|0,0:0|0:0,0:0:0:0:
192,152,145154,1,0,0:0:0:0:
192,152,145330,2,0,P|178:99|176:45,1,107.999996704102,8|0,0:0|0:0,0:0:0:0:
8,184,146036,1,2,0:0:0:0:
260,280,146389,2,0,P|200:276|132:280,2,107.999996704102,0|8|0,0:0|0:0|0:0,0:0:0:0:
240,68,147448,6,0,P|252:128|280:180,1,107.999996704102,4|0,0:0|0:0,0:0:0:0:
360,236,147977,2,0,P|376:212|384:184,1,53.9999983520508,0|8,0:0|0:0,0:0:0:0:
168,168,148507,2,0,P|152:192|144:220,1,53.9999983520508
216,300,148860,2,0,P|158:319|99:321,1,107.999996704102,2|0,0:0|0:0,0:0:0:0:
24,124,149565,2,0,L|44:180,1,53.9999983520508,8|0,0:0|0:0,0:0:0:0:
160,212,149918,2,0,L|140:156,1,53.9999983520508
164,64,150271,6,0,L|220:52,2,53.9999983520508,0|0|0,0:0|0:0|0:0,0:0:0:0:
312,132,150977,1,8,0:0:0:0:
472,80,151330,2,0,P|480:104|484:136,2,53.9999983520508,0|0|2,0:0|0:0|0:0,0:0:0:0:
312,132,152036,2,0,L|268:172,1,53.9999983520508
188,176,152389,1,8,0:0:0:0:
156,100,152565,1,0,0:0:0:0:
80,128,152742,2,0,P|74:158|76:185,1,53.9999983520508
32,268,153095,6,0,P|72:260|152:264,1,107.999996704102,4|0,0:0|0:0,0:0:0:0:
250,232,153624,1,0,0:0:0:0:
250,232,153801,2,0,P|251:286|232:336,1,107.999996704102,8|0,0:0|0:0,0:0:0:0:
436,256,154507,1,2,0:0:0:0:
436,256,154860,2,0,P|380:255|328:244,1,107.999996704102,0|8,0:0|0:0,0:0:0:0:
188,244,155389,2,0,P|176:220|172:184,1,53.9999983520508
264,136,155742,2,0,P|264:164|260:196,1,53.9999983520508,0|4,0:0|0:0,0:0:0:0:
168,92,156271,6,0,L|56:84,2,107.999996704102,0|8|0,0:0|0:0|0:0,0:0:0:0:
440,80,157330,2,0,L|384:48,1,53.9999983520508,2|0,0:0|0:0,0:0:0:0:
260,68,157683,2,0,L|316:100,1,53.9999983520508
308,192,158036,1,8,0:0:0:0:
392,236,158212,1,0,0:0:0:0:
424,328,158389,2,0,L|480:336,2,53.9999983520508,0|0|4,0:0|0:0|0:0,0:0:0:0:
116,320,159095,6,0,L|216:280,2,107.999996704102,0|8|0,0:0|0:0|0:0,0:0:0:0:
60,232,159977,2,0,P|92:184|104:128,1,107.999996704102,2|0,0:0|0:0,0:0:0:0:
200,184,160507,1,0,0:0:0:0:
280,324,160860,1,8,0:0:0:0:
396,216,161212,2,0,P|404:184|400:156,2,53.9999983520508,0|0|4,0:0|0:0|0:0,0:0:0:0:
200,184,161918,6,0,P|194:157|194:130,1,53.9999983520508,0|0,0:0|0:0,0:0:0:0:
308,180,162271,2,0,P|289:234|251:277,1,107.999996704102,8|0,0:0|0:0,0:0:0:0:
72,184,162977,2,0,L|116:144,1,53.9999983520508,2|0,0:0|0:0,0:0:0:0:
148,44,163330,1,0,0:0:0:0:
308,180,163683,2,0,L|264:148,1,53.9999983520508,8|0,0:0|0:0,0:0:0:0:
308,276,164036,2,0,L|352:308,1,53.9999983520508,8|0,0:0|0:0,0:0:0:0:
456,220,164389,6,0,P|412:168|396:120,1,107.999996704102,4|0,0:0|0:0,0:0:0:0:
424,24,164918,2,0,P|452:40|480:60,1,53.9999983520508,0|8,0:0|0:0,0:0:0:0:
304,72,165448,2,0,P|252:108|208:124,1,107.999996704102,0|2,0:0|0:0,0:0:0:0:
56,76,166154,2,0,P|48:124|56:188,1,107.999996704102,0|8,0:0|0:0,0:0:0:0:
160,204,166683,1,0,0:0:0:0:
92,288,166860,2,0,P|68:296|36:296,2,53.9999983520508,0|0|4,0:0|0:0|0:0,0:0:0:0:
276,260,167565,6,0,P|244:316|236:360,2,107.999996704102,0|8|0,0:0|0:0|0:0,0:0:0:0:
372,160,168448,2,0,P|392:216|400:272,1,107.999996704102,2|0,0:0|0:0,0:0:0:0:
412,368,168977,2,0,P|388:368|360:356,1,53.9999983520508
208,244,169330,1,8,0:0:0:0:
60,336,169683,1,0,0:0:0:0:
16,268,169860,1,0,0:0:0:0:
36,188,170036,1,4,0:0:0:0:
172,56,170389,6,0,L|184:120,1,53.9999983520508
196,192,170742,1,8,0:0:0:0:
344,116,171095,2,0,P|352:84|364:60,1,53.9999983520508
408,176,171448,2,0,P|400:228|380:288,2,107.999996704102,2|0|8,0:0|0:0|0:0,0:0:0:0:
248,212,172507,2,0,P|228:228|200:240,1,53.9999983520508
145,164,172860,6,0,P|117:208|112:268,1,107.999996704102,4|0,0:0|0:0,0:0:0:0:
153,332,173390,1,0,0:0:0:0:
300,264,173743,2,0,L|324:252,2,26.9999991760254,0|0|8,0:0|0:0|0:0,0:0:0:0:
336,160,174096,1,0,0:0:0:0:
336,160,174273,2,0,L|388:136,1,53.9999983520508,2|8,0:0|0:0,0:0:0:0:
436,32,174626,2,0,L|380:56,1,53.9999983520508
208,64,174980,5,8,0:0:0:0:
208,64,175156,1,0,0:0:0:0:
384,136,175333,1,8,0:0:0:0:
384,136,175510,1,0,0:0:0:0:
508,276,175686,6,0,P|448:280|392:296,1,107.999996704102,4|0,0:0|0:0,0:0:0:0:
316,360,176215,2,0,B|346:365|346:365|373:363,1,53.9999983520508,0|8,0:0|0:0,0:0:0:0:
208,220,176744,2,0,B|180:235|160:254,1,53.9999983520508
272,272,177097,2,0,B|285:243|290:217,2,53.9999983520508,2|0|0,0:0|0:0|0:0,0:0:0:0:
56,296,177803,1,8,0:0:0:0:
144,100,178156,1,0,0:0:0:0:
360,104,178509,6,0,P|304:112|244:112,1,107.999996704102,4|0,0:0|0:0,0:0:0:0:
168,180,179038,2,0,L|220:196,1,53.9999983520508,0|8,0:0|0:0,0:0:0:0:
413,294,179568,2,0,P|424:269|432:244,1,53.9999983520508
320,240,179921,2,0,L|216:280,2,107.999996704102,2|0|8,0:0|0:0|0:0,0:0:0:0:
380,148,180803,1,0,0:0:0:0:
380,148,180980,2,0,L|436:132,1,53.9999983520508
352,24,181333,6,0,P|320:68|268:96,1,107.999996704102,4|0,0:0|0:0,0:0:0:0:
60,124,182038,1,8,0:0:0:0:
192,292,182391,1,0,0:0:0:0:
268,260,182568,1,0,0:0:0:0:
348,280,182744,1,2,0:0:0:0:
248,88,183097,2,0,P|201:60|156:30,2,107.999996704102,0|8|0,0:0|0:0|0:0,0:0:0:0:
464,108,184156,5,4,0:0:0:0:
432,268,184509,2,0,P|404:268|376:264,1,53.9999983520508
236,184,184862,2,0,P|285:163|338:153,1,107.999996704102,8|0,0:0|0:0,0:0:0:0:
168,288,185568,2,0,P|145:299|114:302,2,53.9999983520508,2|0|0,0:0|0:0|0:0,0:0:0:0:
372,368,186274,1,8,0:0:0:0:
372,368,186627,1,8,0:0:0:0:
344,148,186980,6,0,P|288:160|232:160,1,107.999996704102,4|0,0:0|0:0,0:0:0:0:
144,60,187509,1,0,0:0:0:0:
144,60,187686,2,0,P|132:112|110:161,1,107.999996704102,8|0,0:0|0:0,0:0:0:0:
12,292,188391,2,0,P|36:308|64:320,1,53.9999983520508,2|0,0:0|0:0,0:0:0:0:
168,304,188744,2,0,P|157:277|141:251,1,53.9999983520508
48,204,189097,2,0,P|98:184|143:155,1,107.999996704102,8|0,0:0|0:0,0:0:0:0:
328,24,189803,6,0,P|367:63|387:111,1,107.999996704102,4|0,0:0|0:0,0:0:0:0:
296,208,190333,2,0,P|278:187|262:159,1,53.9999983520508,0|8,0:0|0:0,0:0:0:0:
152,88,190686,1,0,0:0:0:0:
152,88,190862,2,0,P|137:142|105:183,1,107.999996704102,0|2,0:0|0:0,0:0:0:0:
100,292,191568,1,0,0:0:0:0:
296,208,191921,2,0,P|276:269|272:328,1,107.999996704102,8|0,0:0|0:0,0:0:0:0:
480,284,192627,6,0,P|494:229|500:168,1,107.999996704102,4|0,0:0|0:0,0:0:0:0:
428,96,193156,2,0,L|384:128,1,53.9999983520508,0|8,0:0|0:0,0:0:0:0:
260,276,193686,1,0,0:0:0:0:
180,260,193862,1,0,0:0:0:0:
112,304,194038,1,2,0:0:0:0:
12,112,194391,1,0,0:0:0:0:
228,72,194744,2,0,L|172:84,1,53.9999983520508,8|0,0:0|0:0,0:0:0:0:
92,168,195097,2,0,L|148:156,1,53.9999983520508
336,96,195450,6,0,P|284:160|252:172,1,107.999996704102,4|0,0:0|0:0,0:0:0:0:
76,284,196156,2,0,P|128:266|186:260,1,107.999996704102,8|0,0:0|0:0,0:0:0:0:
351,121,196862,5,2,0:0:0:0:
368,160,197038,1,0,0:0:0:0:
402,185,197215,2,0,P|428:197|463:201,1,53.9999983520508
480,308,197568,5,8,0:0:0:0:
436,312,197744,1,0,0:0:0:0:
392,324,197921,2,0,P|360:336|342:350,1,53.9999983520508
268,272,198274,6,0,P|282:210|277:162,1,107.999996704102,4|0,0:0|0:0,0:0:0:0:
180,72,198803,1,0,0:0:0:0:
180,72,198980,2,0,P|153:130|145:177,1,107.999996704102,8|0,0:0|0:0,0:0:0:0:
12,344,199686,2,0,P|38:339|64:345,1,53.9999983520508,2|0,0:0|0:0,0:0:0:0:
148,272,200038,1,0,0:0:0:0:
364,252,200391,2,0,L|252:264,1,107.999996704102,8|0,0:0|0:0,0:0:0:0:
40,228,201097,5,4,0:0:0:0:
224,332,201450,2,0,P|238:354|257:373,1,53.9999983520508
357,197,201803,2,0,P|339:251|311:299,1,107.999996704102,8|0,0:0|0:0,0:0:0:0:
128,180,202509,1,2,0:0:0:0:
208,172,202685,1,0,0:0:0:0:
252,104,202862,1,0,0:0:0:0:
444,204,203215,2,0,P|432:228|424:260,1,53.9999983520508,8|0,0:0|0:0,0:0:0:0:
344,328,203568,1,0,0:0:0:0:
296,264,203744,1,0,0:0:0:0:
352,88,203921,6,0,L|340:196,1,107.999996704102,4|0,0:0|0:0,0:0:0:0:
124,168,204627,1,8,0:0:0:0:
272,324,204980,2,0,L|320:348,1,53.9999983520508,0|0,0:0|0:0,0:0:0:0:
424,316,205333,2,0,L|376:292,1,53.9999983520508,2|0,0:0|0:0,0:0:0:0:
216,216,205685,2,0,P|278:232|326:235,1,107.999996704102,0|8,0:0|0:0,0:0:0:0:
504,120,206391,1,0,0:0:0:0:
308,28,206744,5,4,0:0:0:0:
132,152,207097,2,0,P|128:176|116:204,1,53.9999983520508
36,276,207450,2,0,L|152:260,1,107.999996704102,8|0,0:0|0:0,0:0:0:0:
224,332,207980,1,0,0:0:0:0:
240,224,208156,2,0,L|276:180,1,53.9999983520508,2|0,0:0|0:0,0:0:0:0:
336,92,208509,1,0,0:0:0:0:
496,184,208862,2,0,P|476:204|460:228,1,53.9999983520508,8|0,0:0|0:0,0:0:0:0:
360,264,209215,2,0,P|372:292|388:308,1,53.9999983520508,8|0,0:0|0:0,0:0:0:0:
388,172,209568,6,0,P|336:156|283:146,1,107.999996704102,4|0,0:0|0:0,0:0:0:0:
248,44,210097,1,0,0:0:0:0:
248,44,210274,2,0,P|207:89|165:118,1,107.999996704102,8|0,0:0|0:0,0:0:0:0:
104,328,210980,2,0,P|112:304|120:272,1,53.9999983520508,2|0,0:0|0:0,0:0:0:0:
120,168,211333,1,0,0:0:0:0:
56,224,211509,1,0,0:0:0:0:
184,228,211685,2,0,P|240:232|296:240,1,107.999996704102,8|0,0:0|0:0,0:0:0:0:
388,108,212391,6,0,P|391:165|419:213,1,107.999996704102,4|0,0:0|0:0,0:0:0:0:
440,312,212921,1,0,0:0:0:0:
440,312,213097,2,0,P|416:300|384:292,1,53.9999983520508,8|0,0:0|0:0,0:0:0:0:
264,244,213450,2,0,P|284:296|284:352,1,107.999996704102,0|2,0:0|0:0,0:0:0:0:
88,252,214156,2,0,P|96:196|124:148,1,107.999996704102,0|8,0:0|0:0,0:0:0:0:
304,28,214862,1,0,0:0:0:0:
304,28,215038,2,0,P|287:52|270:73,1,53.9999983520508,0|4,0:0|0:0,0:0:0:0:
208,280,215568,6,0,P|234:284|261:286,1,53.9999983520508
384,228,215921,2,0,P|336:202|283:195,1,107.999996704102,8|0,0:0|0:0,0:0:0:0:
100,84,216627,2,0,L|56:120,2,53.9999983520508,2|0|0,0:0|0:0|0:0,0:0:0:0:
316,72,217333,1,8,0:0:0:0:
212,256,217685,2,0,P|192:288|160:316,1,53.9999983520508
68,200,218038,5,4,0:0:0:0:
244,336,218391,1,0,0:0:0:0:
428,216,218744,1,4,0:0:0:0:
252,80,219097,1,0,0:0:0:0:
68,200,219450,2,0,P|94:193|120:184,1,53.9999983520508,2|0,0:0|0:0,0:0:0:0:
152,80,219803,1,0,0:0:0:0:
368,100,220156,2,0,P|334:147|294:178,1,107.999996704102,8|0,0:0|0:0,0:0:0:0:
144,24,220862,6,0,P|197:38|248:64,2,107.999996704102,4|0|8,0:0|0:0|0:0,0:0:0:0:
32,212,221920,1,0,0:0:0:0:
112,200,222096,1,0,0:0:0:0:
182,244,222273,2,0,L|236:252,1,53.9999983520508,2|0,0:0|0:0,0:0:0:0:
290,317,222625,2,0,P|266:329|240:336,1,53.9999983520508
383,185,222978,1,8,0:0:0:0:
384,268,223155,1,0,0:0:0:0:
469,169,223331,2,0,P|471:142|479:116,1,53.9999983520508
428,48,223684,1,4,0:0:0:0:
88,208,224389,6,0,P|83:255|71:303,1,90,8|0,0:0|0:0,0:0:0:0:
172,292,224919,1,0,0:0:0:0:
172,292,225095,2,0,P|213:306|272:336,1,90,2|0,0:0|0:0,0:0:0:0:
452,308,225801,2,0,P|408:296|367:277,1,90,8|0,0:0|0:0,0:0:0:0:
280,228,226331,1,0,0:0:0:0:
280,228,226507,5,4,0:0:0:0:
424,120,227213,1,8,0:0:0:0:
76,212,227919,1,2,0:0:0:0:
192,72,228625,2,0,P|228:100|272:112,1,90,8|0,0:0|0:0,0:0:0:0:
332,281,229331,5,4,0:0:0:0:
332,281,230036,2,0,L|414:321,2,90,8|0|2,0:0|0:0|0:0,0:0:0:0:
290,263,230919,1,0,0:0:0:0:
249,243,231095,1,0,0:0:0:0:
116,266,231448,1,8,0:0:0:0:
323,92,232154,6,0,P|337:141|360:176,1,90,4|0,0:0|0:0,0:0:0:0:
385,209,232684,1,0,0:0:0:0:
421,239,232860,2,0,P|360:232|320:232,1,90,8|0,0:0|0:0,0:0:0:0:
288,236,233389,1,2,0:0:0:0:
112,312,233919,1,0,0:0:0:0:
40,264,234095,1,0,0:0:0:0:
56,180,234272,2,0,L|104:176,1,45,8|0,0:0|0:0,0:0:0:0:
204,132,234625,2,0,L|156:116,1,45,8|0,0:0|0:0,0:0:0:0:
82,91,234978,5,4,0:0:0:0:
304,64,235331,2,0,P|326:68|352:68,1,45
460,48,235684,2,0,P|448:92|440:140,1,90,8|0,0:0|0:0,0:0:0:0:
216,168,236389,1,2,0:0:0:0:
420,264,236742,2,0,P|472:262|512:248,2,90,0|8|0,0:0|0:0|0:0,0:0:0:0:
192,224,237801,5,4,0:0:0:0:
192,224,238507,2,0,L|176:320,1,90,8|4,0:0|0:0,0:0:0:0:
24,140,239566,5,4,0:0:0:0:
192,224,239919,1,8,0:0:0:0:
364,164,240272,1,2,0:0:0:0:
440,376,240625,2,0,P|397:356|350:348,1,90,4|0,0:0|0:0,0:0:0:0:
220,328,241154,1,0,0:0:0:0:
220,328,241331,2,0,P|262:314|299:288,1,90,2|0,0:0|0:0,0:0:0:0:
224,240,241860,1,0,0:0:0:0:
224,240,242036,2,0,P|176:248|127:263,1,90,2|0,0:0|0:0,0:0:0:0:
4,220,242566,1,0,0:0:0:0:
96,116,242742,6,0,L|71:141,2,30,8|0|0,0:0|0:0|0:0,0:0:0:0:
144,152,243095,2,0,L|134:184,2,30
204,156,243448,1,4,0:0:0:0:
256,192,243625,12,0,244684,0:0:0:0:
352,96,245036,6,0,L|376:92,2,22.5,0|0|8,0:0|0:0|0:0,0:0:0:0:
264,168,245389,2,0,L|200:184,1,45,0|8,0:0|0:0,0:0:0:0:
336,248,245742,1,0,0:0:0:0:
432,276,245919,1,0,0:0:0:0:
360,344,246095,5,0,0:0:0:0:
360,344,246272,2,0,B|304:344|236:360,1,116.999994644165,4|0,0:0|0:0,0:0:0:0:
56,216,246978,1,8,0:0:0:0:
200,120,247331,2,0,P|192:88|192:56,1,58.4999973220826
308,76,247684,1,2,0:0:0:0:
304,164,247860,1,0,0:0:0:0:
360,232,248036,1,0,0:0:0:0:
132,300,248389,2,0,L|180:260,1,58.4999973220826,8|0,0:0|0:0,0:0:0:0:
324,260,248742,2,0,P|296:268|264:284,1,58.4999973220826
408,328,249095,6,0,B|424:292|428:252|428:252|448:212,1,116.999994644165,4|0,0:0|0:0,0:0:0:0:
208,212,249801,1,8,0:0:0:0:
404,84,250154,2,0,L|460:64,2,58.4999973220826,0|0|2,0:0|0:0|0:0,0:0:0:0:
320,56,250683,1,0,0:0:0:0:
260,120,250860,1,0,0:0:0:0:
84,80,251213,2,0,P|112:136|108:200,1,116.999994644165,8|0,0:0|0:0,0:0:0:0:
272,256,251742,1,0,0:0:0:0:
272,256,251919,6,0,P|216:292|176:332,1,116.999994644165,4|0,0:0|0:0,0:0:0:0:
40,220,252625,1,8,0:0:0:0:
188,132,252978,2,0,P|217:135|247:136,2,58.4999973220826,0|0|2,0:0|0:0|0:0,0:0:0:0:
36,44,253683,2,0,P|64:40|108:44,1,58.4999973220826
188,132,254036,2,0,P|130:144|72:140,1,116.999994644165,8|0,0:0|0:0,0:0:0:0:
348,40,254742,6,0,P|364:95|376:160,1,116.999994644165,4|0,0:0|0:0,0:0:0:0:
272,260,255272,1,0,0:0:0:0:
272,260,255448,2,0,P|281:202|284:140,1,116.999994644165,8|0,0:0|0:0,0:0:0:0:
48,168,256154,2,0,L|104:184,2,58.4999973220826,2|0|0,0:0|0:0|0:0,0:0:0:0:
240,40,256860,2,0,P|240:73|248:105,1,58.4999973220826,8|0,0:0|0:0,0:0:0:0:
324,184,257213,1,8,0:0:0:0:
248,224,257389,1,8,0:0:0:0:
372,304,257566,6,0,P|391:248|405:192,1,116.999994644165,4|0,0:0|0:0,0:0:0:0:
284,108,258095,1,0,0:0:0:0:
284,108,258272,2,0,L|400:88,1,116.999994644165,8|0,0:0|0:0,0:0:0:0:
216,232,258978,2,0,L|160:216,1,58.4999973220826,2|0,0:0|0:0,0:0:0:0:
44,240,259331,2,0,P|56:272|72:296,1,58.4999973220826
204,352,259683,2,0,P|144:356|88:372,1,116.999994644165,8|0,0:0|0:0,0:0:0:0:
232,180,260389,6,0,P|277:219|328:247,1,116.999994644165,4|0,0:0|0:0,0:0:0:0:
384,352,260919,2,0,P|356:343|327:339,1,58.4999973220826,0|8,0:0|0:0,0:0:0:0:
216,376,261272,1,0,0:0:0:0:
216,376,261448,2,0,P|244:324|256:264,1,116.999994644165,0|2,0:0|0:0,0:0:0:0:
32,208,262154,2,0,P|52:232|76:252,1,58.4999973220826
248,156,262507,2,0,L|124:160,1,116.999994644165,8|0,0:0|0:0,0:0:0:0:
336,36,263213,6,0,P|366:85|410:124,1,116.999994644165,4|0,0:0|0:0,0:0:0:0:
184,196,263919,1,8,0:0:0:0:
416,216,264272,2,0,P|388:216|352:224,1,58.4999973220826
287,317,264625,1,2,0:0:0:0:
204,288,264801,1,0,0:0:0:0:
116,307,264978,1,0,0:0:0:0:
184,72,265331,2,0,P|160:92|132:100,1,58.4999973220826,8|0,0:0|0:0,0:0:0:0:
24,144,265684,2,0,P|52:152|88:168,1,58.4999973220826
256,128,266036,6,0,P|232:172|220:216,1,90,4|0,0:0|0:0,0:0:0:0:
316,364,266742,2,0,P|347:331|371:293,1,90,8|0,0:0|0:0,0:0:0:0:
392,60,267448,6,0,L|332:76,3,58.4999973220826,2|0|0|0,0:0|0:0|0:0|0:0,0:0:0:0:
296,100,268154,1,8,0:0:0:0:
276,142,268331,1,0,0:0:0:0:
242,173,268507,1,8,0:0:0:0:
198,189,268684,1,0,0:0:0:0:
56,152,268860,6,0,P|72:180|80:208,1,58.4999973220826,4|0,0:0|0:0,0:0:0:0:
96,304,269213,1,0,0:0:0:0:
168,252,269389,1,0,0:0:0:0:
328,300,269566,2,0,P|269:305|215:325,1,116.999994644165,8|0,0:0|0:0,0:0:0:0:
192,172,270095,1,0,0:0:0:0:
292,48,270272,2,0,P|312:68|340:88,1,58.4999973220826,2|0,0:0|0:0,0:0:0:0:
424,144,270625,2,0,L|360:160,1,58.4999973220826
273,230,270978,5,8,0:0:0:0:
280,172,271154,1,0,0:0:0:0:
256,120,271331,1,0,0:0:0:0:
216,80,271507,1,0,0:0:0:0:
160,80,271684,6,0,P|105:58|61:22,1,116.999994644165,4|0,0:0|0:0,0:0:0:0:
60,168,272213,1,0,0:0:0:0:
60,168,272389,2,0,P|74:233|56:288,1,116.999994644165,8|0,0:0|0:0,0:0:0:0:
252,384,273095,2,0,L|232:328,2,58.4999973220826,2|0|0,0:0|0:0|0:0,0:0:0:0:
396,220,273801,2,0,L|516:240,1,116.999994644165,8|0,0:0|0:0,0:0:0:0:
432,80,274331,1,0,0:0:0:0:
432,80,274507,6,0,P|380:128|336:148,1,116.999994644165,4|0,0:0|0:0,0:0:0:0:
112,80,275213,1,8,0:0:0:0:
80,308,275566,2,0,P|92:280|112:260,1,58.4999973220826
208,224,275919,2,0,P|213:252|212:280,2,58.4999973220826,2|0|0,0:0|0:0|0:0,0:0:0:0:
336,126,276625,2,0,P|332:150|336:183,1,58.4999973220826,8|0,0:0|0:0,0:0:0:0:
388,272,276978,2,0,P|412:252|428:228,1,58.4999973220826
336,184,277331,6,0,P|280:208|224:224,1,116.999994644165,4|0,0:0|0:0,0:0:0:0:
116,84,278036,1,8,0:0:0:0:
36,240,278389,2,0,P|56:268|64:292,1,58.4999973220826
208,320,278742,2,0,P|180:340|156:348,2,58.4999973220826,2|0|0,0:0|0:0|0:0,0:0:0:0:
316,364,279272,1,0,0:0:0:0:
412,216,279448,2,0,P|408:271|428:332,1,116.999994644165,8|0,0:0|0:0,0:0:0:0:
220,224,280154,6,0,P|272:196|320:152,1,116.999994644165,4|0,0:0|0:0,0:0:0:0:
400,40,280683,1,0,0:0:0:0:
400,40,280860,2,0,P|343:23|278:20,1,116.999994644165,8|0,0:0|0:0,0:0:0:0:
56,68,281566,1,2,0:0:0:0:
108,140,281742,1,0,0:0:0:0:
48,204,281919,2,0,P|76:220|104:228,1,58.4999973220826
240,276,282272,2,0,P|179:283|123:297,1,116.999994644165,8|0,0:0|0:0,0:0:0:0:
356,344,282978,6,0,P|400:308|440:264,1,116.999994644165,4|0,0:0|0:0,0:0:0:0:
424,144,283507,1,0,0:0:0:0:
424,144,283683,2,0,P|396:160|368:164,1,58.4999973220826,8|0,0:0|0:0,0:0:0:0:
196,196,284036,2,0,P|231:215|300:258,1,116.999994644165,0|2,0:0|0:0,0:0:0:0:
132,324,284742,2,0,P|92:314|14:290,1,116.999994644165,0|8,0:0|0:0,0:0:0:0:
60,120,285448,2,0,P|72:150|80:180,1,58.4999973220826
196,196,285801,5,4,0:0:0:0:
412,108,286154,2,0,P|384:100|352:96,1,58.4999973220826
256,240,286507,2,0,P|312:220|368:192,1,116.999994644165,8|0,0:0|0:0,0:0:0:0:
456,344,287213,2,0,P|485:334|516:328,2,58.4999973220826,2|0|0,0:0|0:0|0:0,0:0:0:0:
304,256,287919,1,8,0:0:0:0:
136,304,288272,2,0,P|128:336|116:364,1,58.4999973220826
20,296,288625,6,0,P|36:240|60:184,1,116.999994644165,4|0,0:0|0:0,0:0:0:0:
236,168,289331,1,8,0:0:0:0:
100,56,289683,2,0,P|72:52|36:40,2,58.4999973220826,0|0|2,0:0|0:0|0:0,0:0:0:0:
184,84,290213,1,0,0:0:0:0:
256,36,290389,1,0,0:0:0:0:
432,48,290742,2,0,P|408:104|396:164,1,116.999994644165,8|0,0:0|0:0,0:0:0:0:
228,216,291448,5,4,0:0:0:0:
352,340,291801,2,0,P|380:348|412:348,1,58.4999973220826
340,252,292154,2,0,P|284:228|224:216,1,116.999994644165,8|8,0:0|0:0,0:0:0:0:
56,248,292683,1,0,0:0:0:0:
143,122,292860,2,0,P|120:143|109:168,1,58.4999973220826,2|0,0:0|0:0,0:0:0:0:
120,316,293213,2,0,P|136:288|148:260,1,58.4999973220826
320,280,293566,1,8,0:0:0:0:
264,212,293742,1,0,0:0:0:0:
304,132,293919,2,0,P|328:152|344:180,1,45,8|0,0:0|0:0,0:0:0:0:
192,140,294294,6,0,L|128:152,1,53.9999983520508,4|0,0:0|0:0,0:0:0:0:
64,240,295063,2,0,L|116:252,1,53.9999983520508,2|0,0:0|0:0,0:0:0:0:
212,296,295903,1,0,0:0:0:0:
352,116,296386,2,0,P|344:164|340:212,1,90,2|0,0:0|0:0,0:0:0:0:
340,205,297676,1,6,0:0:0:0:
256,192,298876,12,2,303213,0:0:0:0:
256,192,304330,12,0,313004,0:0:0:0:
