osu file format v13

[General]
AudioFilename: Hiyoku no Hane (TV size).mp3
AudioLeadIn: 1000
PreviewTime: 47685
Countdown: 0
SampleSet: None
StackLeniency: 0.7
Mode: 0
LetterboxInBreaks: 0
WidescreenStoryboard: 0

[Editor]
Bookmarks: 47109
DistanceSpacing: 1
BeatDivisor: 4
GridSize: 4
TimelineZoom: 1.7

[Metadata]
Title:Hiyoku no Hane
TitleUnicode:比翼の羽根
Artist:eufonius
ArtistUnicode:eufonius
Creator:meetmeetdee
Version:Normal
Source:Yosuga no Sora
Tags:ヨスガノソラ opening eroge visual novel riya Kikuchi Hajime LunaticP Nardoxyribonucleic
BeatmapID:198799
BeatmapSetID:66171

[Difficulty]
HPDrainRate:4
CircleSize:3
OverallDifficulty:4
ApproachRate:5
SliderMultiplier:1.2
SliderTickRate:1

[Events]
//Background and Video events
Video,1,"Hiyoku no Hane (TV size).avi"
0,0,"BG.jpg",0,0
//Break Periods
//Storyboard Layer 0 (Background)
//Storyboard Layer 1 (Fail)
//Storyboard Layer 2 (Pass)
//Storyboard Layer 3 (Foreground)
//Storyboard Sound Samples
//Background Colour Transformations
3,100,163,162,255

[TimingPoints]
1064,405.405405405405,4,2,1,40,1,0
1064,-125,4,2,1,40,0,0
7347,-125,4,2,1,30,0,0
8969,-125,4,2,2,40,0,0
9577,-125,4,2,2,47,0,0
9982,-125,4,2,2,54,0,0
10388,-125,4,2,1,60,0,0
10591,-125,4,2,1,50,0,0
11097,-125,4,2,2,50,0,0
11300,-125,4,2,1,50,0,0
12719,-125,4,2,2,50,0,0
12922,-125,4,2,1,50,0,0
22145,-125,4,2,1,60,0,0
38462,-125,4,2,2,60,0,0
38665,-125,4,2,1,60,0,0
40895,-125,4,2,2,60,0,0
41097,-125,4,2,1,60,0,0
41705,-125,4,2,2,60,0,0
41908,-125,4,2,1,60,0,0
43327,-125,4,2,2,60,0,0
43530,-125,4,2,1,60,0,0
46266,-125,4,2,1,35,0,0
46672,-125,4,2,1,60,0,0
48091,-100,4,2,1,80,0,1
57922,-100,4,2,2,80,0,1
58124,-100,4,2,1,80,0,1
74138,-100,4,2,2,80,0,1
74341,-100,4,2,1,80,0,1
77280,-100,4,2,1,70,0,0
79813,-100,4,2,2,70,0,0
80016,-100,4,2,1,70,0,0
88834,-100,4,2,1,5,0,0

[Colours]
Combo1 : 255,121,255
Combo2 : 192,192,192
Combo3 : 0,255,255

[HitObjects]
96,128,1064,6,0,P|112:80|144:48,1,96,2|2,0:0|0:0,0:0:0:0:
192,48,1672,2,0,P|224:80|240:128,1,96,0|2,0:0|0:0,0:0:0:0:
168,196,2482,2,0,B|168:292,1,96,2|0,0:0|0:0,0:0:0:0:
260,336,3293,1,2,0:0:0:0:
344,288,3699,2,0,L|344:224,1,48,0|2,0:0|0:0,0:0:0:0:
344,144,4307,5,4,0:0:0:0:
256,192,4509,12,0,7550,0:0:0:0:
32,60,9172,6,2,B|84:124|84:124|72:192|116:224,1,192,2|0,0:0|0:0,0:0:0:0:
180,152,10388,1,0,1:0:0:0:
256,96,10793,6,0,P|340:52|424:92,1,192,4|8,0:0|0:0,0:0:0:0:
340,140,12009,1,0,0:0:0:0:
424,188,12415,2,0,P|340:227|256:188,1,192,0|8,0:0|0:0,0:0:0:0:
168,148,13631,1,0,0:0:0:0:
84,104,14036,6,0,P|76:144|88:200,1,96,0|0,3:0|0:0,0:0:0:0:
168,248,14847,1,8,0:0:0:0:
256,204,15253,2,0,P|266:157|258:110,1,96,0|0,0:0|3:0,0:0:0:0:
416,216,16469,6,0,P|461:230|508:221,2,96,8|0|0,0:0|0:0|3:0,0:0:0:0:
352,288,17685,1,0,0:0:0:0:
312,312,17888,2,0,P|260:320|216:304,1,96,0|0,0:0|0:0,0:0:0:0:
132,348,18699,1,0,0:0:0:0:
96,316,18901,2,0,P|88:268|112:220,1,96,0|0,3:0|0:0,0:0:0:0:
136,136,19712,2,0,P|192:140|240:128,1,96,8|0,0:0|0:0,0:0:0:0:
276,116,20320,5,0,0:0:0:0:
316,88,20523,2,0,P|364:72|412:88,2,96,0|0|8,3:0|0:0|0:0,0:0:0:0:
364,172,21739,1,0,0:0:0:0:
316,256,22145,2,0,P|364:272|412:256,2,96,2|0|2,0:0|1:0|0:0,0:0:0:0:
256,180,23361,1,0,1:0:0:0:
220,272,23766,5,4,0:0:0:0:
160,192,24172,1,8,0:0:0:0:
128,228,24374,2,0,P|120:276|132:324,1,96,0|0,0:0|0:0,0:0:0:0:
168,352,24982,1,8,0:0:0:0:
220,272,25388,2,0,P|284:244|364:252,1,144
396,276,26199,6,0,P|428:236|472:216,1,96,0|8,0:0|0:0,0:0:0:0:
484,312,27009,1,0,0:0:0:0:
408,372,27415,1,8,0:0:0:0:
360,372,27618,2,0,P|312:360|272:328,1,96,2|2,0:0|0:0,0:0:0:0:
256,288,28226,1,8,0:0:0:0:
272,192,28631,6,0,P|320:176|344:136,1,96,2|8,0:0|0:0,0:0:0:0:
440,140,29442,2,0,P|466:179|511:192,1,96,2|8,0:0|0:0,0:0:0:0:
480,284,30253,5,4,0:0:0:0:
404,344,30658,2,0,P|368:352|348:352,1,48,8|0,0:0|0:0,0:0:0:0:
284,284,31266,2,0,L|272:228,1,48,2|8,0:0|0:0,0:0:0:0:
228,152,31874,2,0,P|180:164|132:148,1,96,0|8,0:0|0:0,0:0:0:0:
104,180,32482,2,0,L|124:276,1,96,2|2,0:0|0:0,0:0:0:0:
100,316,33091,2,0,L|112:368,1,48,8|0,0:0|0:0,0:0:0:0:
256,192,33496,12,2,35118,0:0:0:0:
300,64,35928,6,0,P|348:64|380:96,1,96,2|8,0:0|0:0,0:0:0:0:
388,191,36739,6,0,P|341:192|308:160,2,96,2|8|0,0:0|0:0|0:0,0:0:0:0:
432,280,37955,1,8,0:0:0:0:
384,284,38158,2,0,P|308:276|256:236,1,144,4|8,0:0|0:0,0:0:0:0:
236,192,38969,1,2,0:0:0:0:
324,156,39374,2,0,L|372:128,1,48,0|8,0:0|0:0,0:0:0:0:
292,68,39982,5,4,0:0:0:0:
204,28,40388,1,8,0:0:0:0:
164,56,40591,2,0,P|144:124|172:192,1,144,0|8,0:0|0:0,0:0:0:0:
196,228,41401,2,0,P|256:276|320:280,1,144,4|8,0:0|0:0,0:0:0:0:
368,264,42212,1,2,0:0:0:0:
456,220,42618,2,0,L|476:172,1,48,0|8,0:0|0:0,0:0:0:0:
468,128,43023,6,0,P|452:60|384:32,1,144,4|8,0:0|0:0,0:0:0:0:
344,48,43834,1,4,0:0:0:0:
316,88,44036,2,0,P|264:100|220:84,1,96,0|8,0:0|0:0,0:0:0:0:
256,192,44645,12,0,46469,0:0:0:0:
260,192,47280,5,0,3:0:0:0:
168,208,47685,1,0,3:0:0:0:
176,256,47888,1,0,3:0:0:0:
196,292,48091,6,0,P|252:308|312:292,1,120,4|8,0:0|0:0,0:0:0:0:
360,256,48699,1,2,0:0:0:0:
302,153,49104,2,0,P|276:167|260:192,2,60,0|8|0,0:0|0:0|0:0,0:0:0:0:
352,120,49712,2,0,P|308:76|244:68,1,120,2|8,0:0|0:0,0:0:0:0:
192,72,50320,1,2,0:0:0:0:
100,156,50726,5,0,0:0:0:0:
144,196,50928,1,8,0:0:0:0:
200,220,51131,1,0,0:0:0:0:
260,224,51334,2,0,P|328:220|372:188,1,120,4|10,0:0|0:0,0:0:0:0:
400,140,51942,2,0,P|404:76|360:40,1,120,0|0,0:0|0:0,0:0:0:0:
304,40,52550,1,8,0:0:0:0:
200,104,52955,6,0,P|136:120|72:104,1,120,4|8,0:0|0:0,0:0:0:0:
32,80,53563,1,2,0:0:0:0:
28,200,53969,1,2,0:0:0:0:
148,200,54374,2,0,P|144:260|104:308,1,120,4|0,0:0|0:0,0:0:0:0:
144,352,54982,2,0,P|180:340|216:340,1,60,8|0,0:0|0:0,0:0:0:0:
320,360,55591,6,0,P|349:357|377:346,1,60,0|8,0:0|0:0,0:0:0:0:
408,296,55996,2,0,P|420:240|404:180,1,120,0|2,0:0|0:0,0:0:0:0:
292,136,56807,1,0,0:0:0:0:
216,228,57212,1,0,0:0:0:0:
96,228,57618,2,0,P|76:144|132:76,1,180,2|8,0:0|0:0,0:0:0:0:
252,68,58631,1,0,0:0:0:0:
192,172,59036,1,8,0:0:0:0:
304,220,59442,6,0,P|364:176|384:132,1,120,6|8,0:0|0:0,0:0:0:0:
380,76,60050,1,4,0:0:0:0:
264,104,60455,2,0,P|204:120|152:88,1,120,2|0,0:0|0:0,0:0:0:0:
108,56,61063,6,0,B|44:72|32:148,1,120,4|8,0:0|0:0,0:0:0:0:
56,196,61672,1,2,0:0:0:0:
140,284,62077,2,0,L|76:316,2,60,2|8|0,0:0|0:0|0:0,0:0:0:0:
200,284,62685,2,0,P|240:332|296:352,1,120,0|8,0:0|0:0,0:0:0:0:
352,344,63293,1,2,0:0:0:0:
428,252,63699,2,0,L|420:192,1,60,0|8,0:0|0:0,0:0:0:0:
308,152,64307,6,0,P|272:192|208:208,1,120,4|8,0:0|0:0,0:0:0:0:
152,196,64915,2,0,P|108:164|112:100,1,120
144,56,65523,1,8,0:0:0:0:
260,32,65928,1,0,0:0:0:0:
320,32,66131,2,0,P|336:32|384:64,2,60,0|10|0,0:0|0:0|0:0,0:0:0:0:
272,144,66942,1,0,0:0:0:0:
376,200,67347,2,0,P|324:252|276:260,1,120,4|0,0:0|0:0,0:0:0:0:
220,256,67955,2,0,P|171:222|150:166,1,120,8|0,0:0|0:0,0:0:0:0:
260,116,68766,6,0,L|204:84,2,60,0|0|4,0:0|0:0|0:0,0:0:0:0:
372,76,69577,1,8,0:0:0:0:
412,120,69780,2,0,P|392:176|344:208,1,120,0|0,0:0|0:0,0:0:0:0:
284,220,70388,1,8,0:0:0:0:
224,208,70591,2,0,P|172:176|152:116,2,120,0|0|2,0:0|0:0|0:0,0:0:0:0:
148,300,71807,2,0,P|184:324|204:328,1,60,0|10,0:0|0:0,0:0:0:0:
320,304,72415,6,0,P|384:272|400:224,1,120,4|8,0:0|0:0,0:0:0:0:
400,176,73023,2,0,P|384:128|320:96,1,120,6|0,0:0|0:0,0:0:0:0:
208,116,73834,2,0,P|128:204|196:288,1,240,6|0,0:0|0:0,0:0:0:0:
308,284,75050,2,0,L|344:336,2,60,2|8|0,0:0|0:0|0:0,0:0:0:0:
324,228,75658,5,0,0:0:0:0:
336,108,76063,2,0,P|296:100|268:88,1,60,8|0,0:0|0:0,0:0:0:0:
228,60,76469,1,0,1:0:0:0:
140,140,76874,1,8,0:0:0:0:
92,176,77077,1,0,1:0:0:0:
32,160,77280,6,0,P|12:104|32:44,2,120,4|8|0,0:0|0:0|0:0,0:0:0:0:
136,100,78496,2,0,P|200:128|220:176,1,120,8|4,0:0|0:0,0:0:0:0:
108,212,79307,1,8,0:0:0:0:
144,260,79509,2,0,P|228:300|304:256,1,180,0|8,0:0|0:0,0:0:0:0:
320,208,80320,1,0,0:0:0:0:
300,152,80523,6,0,P|276:96|296:44,1,120,4|8,0:0|0:0,0:0:0:0:
396,104,81334,2,0,L|532:60,1,120,0|8,0:0|0:0,0:0:0:0:
456,172,82145,1,4,0:0:0:0:
424,224,82347,2,0,L|476:280,2,60,2|8|0,0:0|0:0|0:0,0:0:0:0:
304,216,83158,6,0,L|252:272,2,60,0|8|2,0:0|0:0|0:0,0:0:0:0:
276,164,83766,2,0,P|208:152|156:120,1,120,4|8,0:0|0:0,0:0:0:0:
148,184,84374,2,0,P|176:240|184:300,1,120,4|0,0:0|0:0,0:0:0:0:
232,332,84982,1,8,0:0:0:0:
344,280,85388,6,0,P|320:220|332:164,1,120,4|8,0:0|0:0,0:0:0:0:
376,132,85996,1,4,0:0:0:0:
468,208,86401,1,6,0:0:0:0:
256,192,86807,12,0,89036,0:0:0:0:
