osu file format v13

[General]
AudioFilename: Hiyoku no Hane (TV size).mp3
AudioLeadIn: 1000
PreviewTime: 47685
Countdown: 0
SampleSet: None
StackLeniency: 0.7
Mode: 0
LetterboxInBreaks: 0
WidescreenStoryboard: 0

[Editor]
DistanceSpacing: 1
BeatDivisor: 4
GridSize: 4
TimelineZoom: 1.5

[Metadata]
Title:Hiyoku no Hane
TitleUnicode:比翼の羽根
Artist:eufonius
ArtistUnicode:eufonius
Creator:meetmeetdee
Version:Easy
Source:Yosuga no Sora
Tags:ヨスガノソラ opening eroge visual novel riya Kikuchi Hajime LunaticP Nardoxyribonucleic
BeatmapID:193202
BeatmapSetID:66171

[Difficulty]
HPDrainRate:2
CircleSize:3
OverallDifficulty:2
ApproachRate:3
SliderMultiplier:1
SliderTickRate:1

[Events]
//Background and Video events
Video,1,"Hiyoku no Hane (TV size).avi"
0,0,"BG.jpg",0,0
//Break Periods
//Storyboard Layer 0 (Background)
//Storyboard Layer 1 (Fail)
//Storyboard Layer 2 (Pass)
//Storyboard Layer 3 (Foreground)
//Storyboard Sound Samples
//Background Colour Transformations
3,100,163,162,255

[TimingPoints]
1064,405.405405405405,4,2,2,40,1,0
4307,-100,4,2,1,60,0,0
4509,-100,4,2,1,40,0,0
7347,-100,4,2,1,30,0,0
8969,-100,4,2,2,40,0,0
9577,-100,4,2,2,47,0,0
9982,-100,4,2,2,54,0,0
10388,-100,4,2,1,60,0,0
10591,-100,4,2,1,50,0,0
11097,-100,4,2,2,50,0,0
11300,-100,4,2,1,50,0,0
12719,-100,4,2,2,50,0,0
12922,-100,4,2,1,50,0,0
17584,-100,4,2,2,50,0,0
17786,-100,4,2,1,50,0,0
19205,-100,4,2,2,50,0,0
19408,-100,4,2,1,50,0,0
20827,-100,4,2,2,50,0,0
21030,-100,4,2,1,50,0,0
22145,-100,4,2,1,60,0,0
24476,-100,4,2,2,60,0,0
24678,-100,4,2,1,60,0,0
29341,-100,4,2,2,60,0,0
29543,-100,4,2,1,60,0,0
41503,-100,4,2,2,60,0,0
41705,-100,4,2,1,60,0,0
43124,-100,4,2,2,60,0,0
43327,-100,4,2,1,60,0,0
45759,-100,4,2,2,60,0,0
46368,-100,4,2,1,25,0,0
46672,-100,4,2,1,60,0,0
48091,-100,4,2,1,80,0,1
54678,-100,4,2,2,80,0,1
54881,-100,4,2,1,80,0,1
60151,-100,4,2,2,80,0,1
60354,-100,4,2,1,80,0,1
67651,-100,4,2,2,80,0,1
68259,-100,4,2,1,80,0,1
74138,-100,4,2,2,80,0,1
74746,-100,4,2,1,80,0,1
77280,-100,4,2,1,70,0,0
79611,-100,4,2,2,70,0,0
79813,-100,4,2,1,70,0,0
88834,-100,4,2,1,5,0,0

[Colours]
Combo1 : 255,121,255
Combo2 : 192,192,192
Combo3 : 0,255,255

[HitObjects]
56,180,1064,6,0,B|48:104|88:76|88:76|156:112|216:64,1,250,2|2,0:0|0:0,0:0:0:0:
252,156,2482,2,0,B|256:208|220:248|220:248|160:228|112:256,1,200,2|2,0:0|0:0,0:0:0:0:
176,336,3699,2,0,L|228:352,1,50,0|2,0:0|0:0,0:0:0:0:
256,192,4307,12,0,7550,0:0:0:0:
476,290,9172,6,2,B|424:328|336:328|288:288,1,200,2|0,0:0|0:0,0:0:0:0:
288,96,10793,6,0,B|336:56|424:56|480:96,1,200,6|8,0:0|0:0,0:0:0:0:
352,256,12415,2,0,B|304:304|208:304|168:256,1,200,0|8,3:0|0:0,0:0:0:0:
68,80,14036,6,0,P|104:44|152:28,1,100,0|0,3:0|0:0,0:0:0:0:
236,80,14847,2,0,L|336:64,2,100,8|0|0,0:0|0:0|3:0,0:0:0:0:
96,232,16469,6,0,P|144:240|196:228,1,100,8|0,0:0|0:0,0:0:0:0:
252,312,17280,2,0,B|312:340|384:340|448:312,1,200,0|8,3:0|0:0,0:0:0:0:
484,220,18496,1,0,0:0:0:0:
448,128,18902,2,0,B|388:104|316:104|252:128,1,200,0|8,3:0|0:0,0:0:0:0:
92,248,20523,6,0,P|126:339|219:349,1,200,0|8,3:0|0:0,0:0:0:0:
312,316,21739,1,0,0:0:0:0:
372,236,22145,2,0,P|388:140|312:84,1,200,2|2,0:0|0:0,0:0:0:0:
216,68,23361,1,8,0:0:0:0:
176,160,23766,5,4,0:0:0:0:
76,148,24172,2,0,P|72:252|140:308,1,200,8|8,0:0|0:0,0:0:0:0:
236,336,25388,2,0,P|288:348|336:332,1,100,2|8,0:0|0:0,0:0:0:0:
408,272,26199,6,0,P|440:240|456:184,2,100,0|8|2,0:0|0:0|0:0,0:0:0:0:
304,272,27415,2,0,P|272:240|256:184,1,100,8|0,0:0|0:0,0:0:0:0:
176,132,28226,1,8,0:0:0:0:
232,48,28631,5,0,0:0:0:0:
324,92,29036,2,0,P|424:64|496:128,1,200,8|8,0:0|0:0,0:0:0:0:
400,164,30253,6,0,P|364:256|280:312,1,200,2|0,0:0|0:0,0:0:0:0:
184,296,31469,1,8,0:0:0:0:
152,196,31874,2,0,B|220:184|260:228|260:228|304:208|316:164,1,200,2|0,0:0|0:0,0:0:0:0:
296,72,33091,1,8,0:0:0:0:
256,192,33496,12,2,35118,0:0:0:0:
344,144,36739,6,0,P|360:192|344:240,2,100,2|8|0,0:0|0:0|0:0,0:0:0:0:
256,192,37955,1,8,0:0:0:0:
168,144,38361,2,0,P|152:192|168:240,2,100,2|8|2,0:0|0:0|0:0,0:0:0:0:
256,96,39577,1,8,0:0:0:0:
176,32,39982,5,4,0:0:0:0:
88,80,40388,1,8,0:0:0:0:
168,144,40793,2,0,P|112:180|28:164,2,150,0|4|8,0:0|0:0|0:0,0:0:0:0:
164,244,42414,6,0,P|188:320|248:352,2,150,2|4|8,0:0|0:0|0:0,0:0:0:0:
268,248,44036,2,0,P|304:168|276:108,1,150,2|0,0:0|1:0,0:0:0:0:
208,48,45049,1,0,0:0:0:0:
120,100,45455,2,2,B|40:156|64:276|152:308,1,250,6|0,0:0|0:0,0:0:0:0:
280,160,47280,5,0,3:0:0:0:
376,184,47685,1,0,3:0:0:0:
304,252,48091,6,0,P|256:252|208:220,2,100,4|8|0,0:0|0:0|0:0,0:0:0:0:
376,184,49307,1,8,0:0:0:0:
476,180,49712,2,0,P|436:100|332:92,1,200,2|2,0:0|0:0,0:0:0:0:
256,152,50928,5,8,0:0:0:0:
208,64,51334,1,4,0:0:0:0:
112,40,51739,1,8,0:0:0:0:
24,88,52145,2,0,P|8:136|12:184,1,100,0|8,0:0|0:0,0:0:0:0:
92,244,52955,6,0,P|156:288|232:272,1,150,4|2,0:0|0:0,0:0:0:0:
176,188,53969,1,0,0:0:0:0:
128,100,54374,2,0,P|208:92|264:136,1,150,4|8,0:0|0:0,0:0:0:0:
337,202,55388,1,0,0:0:0:0:
420,144,55793,1,8,0:0:0:0:
428,244,56199,6,0,P|444:292|428:344,1,100,4|8,0:0|0:0,0:0:0:0:
340,296,57009,2,0,P|324:248|340:196,1,100,0|8,0:0|0:0,0:0:0:0:
420,144,57820,1,2,0:0:0:0:
384,52,58226,1,8,0:0:0:0:
316,124,58631,2,0,P|256:132|216:124,1,100,0|8,0:0|0:0,0:0:0:0:
200,224,59442,6,0,L|48:224,2,150,4|4|8,0:0|0:0|0:0,0:0:0:0:
256,308,61063,6,0,P|312:288|340:260,1,100,4|8,0:0|0:0,0:0:0:0:
372,164,61874,1,2,0:0:0:0:
276,140,62280,1,8,0:0:0:0:
176,132,62685,2,0,B|192:48|264:20|332:56,1,200,2|2,0:0|0:0,0:0:0:0:
416,100,63901,1,8,0:0:0:0:
424,200,64307,6,0,P|384:236|340:236,1,100,4|8,0:0|0:0,0:0:0:0:
288,148,65118,2,0,P|236:140|196:168,1,100,0|8,0:0|0:0,0:0:0:0:
244,252,65928,2,0,P|184:296|112:284,1,150,2|2,0:0|0:0,0:0:0:0:
164,200,66942,1,0,0:0:0:0:
64,208,67347,2,0,P|136:100|236:128,1,250,6|2,0:0|0:0,0:0:0:0:
320,184,68766,1,8,0:0:0:0:
368,96,69172,5,6,0:0:0:0:
472,92,69577,2,0,P|464:144|428:180,1,100,8|2,0:0|0:0,0:0:0:0:
360,248,70388,2,0,P|320:260|264:244,2,100,8|0|8,0:0|0:0|0:0,0:0:0:0:
316,160,71604,1,0,0:0:0:0:
412,140,72009,1,8,0:0:0:0:
416,40,72415,6,0,P|340:28|280:64,1,150,4|6,0:0|0:0,0:0:0:0:
192,116,73428,1,2,0:0:0:0:
140,32,73834,2,0,P|100:148|196:216,1,250,6|0,0:0|0:0,0:0:0:0:
276,268,75253,1,8,0:0:0:0:
288,172,75658,2,0,L|392:172,2,100,0|8|0,0:0|0:0|1:0,0:0:0:0:
200,124,76874,1,0,1:0:0:0:
248,36,77280,6,0,P|296:24|344:36,1,100,4|8,0:0|0:0,0:0:0:0:
296,124,78091,1,0,0:0:0:0:
248,212,78496,2,0,P|296:224|348:208,1,100,8|4,0:0|0:0,0:0:0:0:
436,172,79307,2,0,P|460:72|384:40,1,200,8|8,0:0|0:0,0:0:0:0:
284,56,80523,6,0,P|268:120|284:168,1,100,4|8,0:0|0:0,0:0:0:0:
336,232,81334,2,0,P|352:296|336:344,2,100,2|8|6,0:0|0:0|0:0,0:0:0:0:
236,232,82550,1,8,0:0:0:0:
140,252,82955,1,0,0:0:0:0:
52,204,83361,1,8,0:0:0:0:
56,104,83766,6,0,P|80:56|120:28,1,100,4|8,0:0|0:0,0:0:0:0:
152,124,84577,2,0,P|200:140|248:124,1,100,0|8,0:0|0:0,0:0:0:0:
300,44,85388,2,2,P|340:112|328:184,1,150,4|4,0:0|0:0,0:0:0:0:
280,264,86401,1,6,0:0:0:0:
256,192,86807,12,0,89036,0:0:0:0:
