osu file format v9

[General]
AudioFilename: eufonius - Hiyoku no Hane.mp3
AudioLeadIn: 2000
PreviewTime: 46297
Countdown: 0
SampleSet: Normal
StackLeniency: 0.6
Mode: 0
LetterboxInBreaks: 1

[Editor]
DistanceSpacing: 1
BeatDivisor: 4
GridSize: 16

[Metadata]
Title:Hiyoku no Hane (TV Size)
Artist:eufonius
Creator:payuLnw
Version:Normal
Source:Yosuga no sora
Tags:kiiwa kanpakyin

[Difficulty]
HPDrainRate:2
CircleSize:4
OverallDifficulty:2
ApproachRate:4
SliderMultiplier:1.1
SliderTickRate:1

[Events]
//Background and Video events
Video,0,"eufonius - Hiyoku no Hane.avi"
0,0,"BG-1.jpg"
//Break Periods
//Storyboard Layer 0 (Background)
//Storyboard Layer 1 (Fail)
//Storyboard Layer 2 (Pass)
//Storyboard Layer 3 (Foreground)
//Storyboard Sound Samples
//Background Colour Transformations
3,100,163,162,255

[TimingPoints]
3326,405.405405405405,4,2,0,70,1,0
21569,-100,4,1,1,45,0,0
43866,-100,4,1,1,5,0,0
45488,-100,4,2,0,45,0,0
46298,-100,4,1,1,45,0,0
47103,-100,4,1,1,55,0,1
59468,-100,4,1,1,45,0,0
60076,-100,4,1,1,55,0,1
76292,-100,4,1,1,45,0,0
88048,-100,4,1,1,5,0,0

[Colours]
Combo1 : 128,128,255
Combo2 : 255,255,255
Combo3 : 0,128,255

[HitObjects]
256,192,3326,5,4
256,192,4947,12,0,6569
256,192,8190,5,2
416,288,9609,5,0
416,288,9812,2,0,B|368:320|288:304,1,110,2|0
208,272,10623,1,2
192,160,11028,2,0,B|192:96|240:64,1,110,0|2
352,64,11839,6,0,B|416:96|416:160,1,110,0|2
304,128,12650,2,0,B|336:176|304:240,1,110,0|2
208,176,13461,1,0
112,224,13866,1,2
112,224,14271,2,0,B|80:160|128:112,1,110,0|2
16,112,15082,6,0,B|32:48|96:32,2,110,0|2|0
32,224,16298,1,2
112,304,16704,2,0,B|176:320|224:288,2,110,0|2|0
112,304,17920,1,2
80,192,18326,2,0,B|128:144|192:160,1,110,0|2
176,272,19136,6,0,B|240:288|288:224,1,110,0|2
240,128,19947,1,0
352,112,20353,1,2
416,208,20758,1,0
416,208,21163,1,2
320,272,21569,1,8
320,272,21974,1,0
208,272,22380,6,0,B|144:288|112:336,2,110,8|0|8
208,272,23596,1,0
208,272,24001,1,8
112,208,24407,2,0,B|64:176|80:112,1,110,0|8
112,16,25217,1,0
192,80,25623,2,0,B|240:112|224:192,1,110,8|0
192,272,26434,1,8
288,304,26839,6,0,B|336:336|400:320,2,110,0|8|0
224,224,28055,1,8
336,224,28461,1,0
272,128,28866,2,0,B|288:64|352:48,1,110,8|0
368,160,29677,6,0,B|416:128|480:144,2,110,8|0|8
368,160,30893,1,0
272,224,31298,1,8
160,192,31704,1,0
48,224,32109,2,0,B|0:272|16:336,2,110,8|0|8
48,224,33325,1,0
160,192,33731,6,0,B|224:144|208:80,2,110,8|0|8
80,256,34947,2,0,B|112:304|192:288,1,110,0|8
177,290,35758,1,0
288,320,36163,1,8
384,256,36569,1,0
368,144,36974,1,8
368,144,37177,1,0
272,176,37582,1,0
272,176,37785,1,8
272,176,37988,1,0
368,48,38596,5,8
368,48,39001,2,0,B|304:16|256:48,1,110,0|8
262,43,39609,1,0
192,128,40015,2,0,B|144:160|128:160,2,55,0|8|0
256,224,40825,2,0,B|288:256|304:272,6,55,0|8|0|0|0|8|4
144,256,42447,5,0
144,256,42650,1,8
48,224,43055,2,0,B|0:176|16:112,1,110,0|8
13,124,43663,1,0
256,192,43866,12,0,45488
256,160,46298,5,0
256,160,46501,2,0,B|256:240,3,55,0|8|0|4
192,304,47515,6,0,B|128:272|144:192,1,110,8|0
208,128,48326,1,8
272,32,48731,2,0,B|336:16|384:64,1,110,0|8
336,160,49542,1,0
416,224,49947,5,8
384,320,50353,2,0,B|320:336|272:304,1,110,0|8
176,256,51163,1,0
96,176,51569,2,0,B|144:144|208:160,1,110,8|0
201,158,52177,1,0
201,158,52582,1,0
304,176,52988,2,0,B|368:192|416:144,2,110,0|0|0
304,176,54001,1,8
192,304,54609,6,0,B|160:352,2,55,0|8|0
176,192,55420,2,0,B|112:192|96:128,1,110
192,48,56231,2,0,B|256:64|256:128,1,110,0|0
255,125,56839,1,0
255,125,57244,1,8
352,192,57650,2,0,B|400:192|432:112,1,110,0|8
320,128,58461,6,0,B|368:96|368:32,2,110,0|8|0
320,128,59474,1,0
176,208,60082,6,0,B|112:224|64:224,1,110,4|8
67,223,60690,1,0
48,112,61096,2,0,B|96:80|160:64,1,110
147,67,61704,1,0
256,80,62109,1,8
336,160,62515,2,0,B|336:272,2,110,0|8|0
224,176,63731,2,0,B|160:192,1,55,8|0
176,304,64339,2,0,B|240:272,1,55,0|8
336,304,64947,6,0,B|400:304|432:256,1,110,0|8
430,257,65555,1,0
352,176,65961,2,0,B|352:112|416:80,2,110,0|0|0
352,176,66974,1,8
352,288,67380,1,0
256,224,67785,5,8
256,224,68190,2,0,B|176:240|128:208,1,110,0|8
128,176,68798,2,0,B|160:144|240:128,1,110,0|0
288,144,69407,5,8
336,112,69609,1,0
240,48,70015,1,0
128,80,70420,1,0
80,176,70826,2,0,B|48:224,3,55,0|8|0|4
112,304,71839,1,8
112,304,72042,1,0
224,304,72447,6,0,B|288:304|336:256,1,110,0|0
224,208,73258,2,0,B|272:176|336:176,1,110,0|0
416,128,74069,2,0,B|464:80,3,55,0|8|0|0
352,64,75082,2,0,B|272:48|224:80,1,110,8|0
256,176,75893,6,0,B|208:208|144:192,1,110,8|4
80,112,76704,1,8
32,208,77109,1,0
32,256,77312,1,0
64,288,77515,2,0,B|112:320|176:320,1,110,8|0
272,288,78325,1,8
272,288,78528,1,0
432,240,79136,5,8
432,240,79542,1,0
416,128,79947,1,8
416,128,80353,1,0
320,192,80758,1,8
208,192,81163,2,0,B|96:192,2,110,0|8|0
208,192,82380,1,8
288,112,82785,6,0,B|368:96|416:96,2,110,0|8|0
256,192,84001,1,8
256,192,84407,12,0,88055
