osu file format v9

[General]
AudioFilename: eufonius - Hiyoku no Hane.mp3
AudioLeadIn: 2000
PreviewTime: 46297
Countdown: 0
SampleSet: Soft
StackLeniency: 0.7
Mode: 0
LetterboxInBreaks: 1

[Editor]
DistanceSpacing: 1.2
BeatDivisor: 2
GridSize: 16

[Metadata]
Title:Hiyoku no Hane (TV Size)
Artist:eufonius
Creator:payuLnw
Version:Easy
Source:Yosuga no sora
Tags:kiiwa kanpakyin

[Difficulty]
HPDrainRate:1
CircleSize:3
OverallDifficulty:2
ApproachRate:2
SliderMultiplier:0.7
SliderTickRate:1

[Events]
//Background and Video events
Video,0,"eufonius - Hiyoku no Hane.avi"
0,0,"BG-1.jpg"
//Break Periods
//Storyboard Layer 0 (Background)
//Storyboard Layer 1 (Fail)
//Storyboard Layer 2 (Pass)
//Storyboard Layer 3 (Foreground)
//Storyboard Sound Samples
//Background Colour Transformations
3,100,163,162,255

[TimingPoints]
3326,405.405405405405,4,2,0,70,1,0
42244,-100,4,2,0,50,0,0
45488,-100,4,2,0,45,0,0
47110,-100,4,2,0,80,0,1
59475,-100,4,2,0,70,0,0
60083,-100,4,2,0,80,0,1
76299,-100,4,2,0,70,0,0
88055,-100,4,2,0,5,0,0

[Colours]
Combo1 : 128,128,255
Combo2 : 255,255,255
Combo3 : 0,128,255

[HitObjects]
256,192,3326,1,4
256,192,6569,1,2
256,192,8190,1,2
128,288,9812,5,2
304,288,10623,2,0,B|400:288|448:224,2,140,0|2|0
208,144,13055,2,0,B|112:144|64:208,2,140,2|0|2
368,160,15488,5,0
256,288,16298,2,0,B|96:288,2,140,2|0|2
400,192,18731,1,0
272,80,19542,6,0,B|208:128|224:208,2,140,2|0|2
128,160,21974,5,0
128,160,22785,2,0,B|128:320,2,140,2|0|2
256,64,25217,2,0,B|336:64|384:144,2,140,0|2|0
240,224,27650,2,0,B|288:288|368:288,1,140,2|0
496,192,29271,6,0,B|352:192,1,140,2|0
224,96,30893,2,0,B|384:96,2,140,2|0|2
224,176,32920,1,0
208,256,33326,2,0,B|112:272|80:176,1,140,0|2
80,32,34947,5,0
224,128,35758,2,0,B|352:224,1,140,2|0
272,272,36974,1,0
192,304,37380,2,0,B|16:160,1,210,2|0
96,112,39001,6,0,B|192:112|240:208,2,175,2|0|0
96,112,41434,1,0
256,192,42244,12,0,45488
256,192,47109,5,6
192,240,47515,1,0
112,272,47920,2,0,B|16:272|-16:208,2,140,0|2|0
192,304,49947,1,0
272,320,50353,6,0,B|384:320|416:224,1,175,2|0
288,192,51974,2,0,B|208:96,1,105,2|0
432,64,53596,2,0,B|352:112,2,70,2|0|0
400,224,55217,5,2
256,144,56028,1,0
224,224,56434,1,0
144,256,56839,2,0,B|16:336,2,140,2|0|2
256,192,59069,6,0,B|400:96,1,175,0|6
400,96,60488,1,0
448,176,60893,2,0,B|400:320,2,140,0|2|0
336,64,63325,6,0,B|240:64|208:128,1,140,2|0
240,208,64542,1,0
192,288,64947,2,0,B|96:288|32:288,2,140,2|0|2
368,288,67380,6,0,B|432:224|432:144,1,140,0|2
384,96,68596,2,0,B|320:64|224:80,2,140
336,256,71028,5,0
336,256,71434,2,0,B|176:256,2,140,4|0|2
224,144,73866,2,0,B|144:144|96:80,2,140,0|2|0
368,240,76298,6,0,B|288:240|240:320,1,140,6|0
80,304,77920,2,0,B|80:160,2,140,2|0|2
160,160,80353,2,0,B|240:160|288:112,2,140,0|2|0
240,304,82785,6,0,B|448:304,1,210,2|0
256,192,84407,12,0,88055
