osu file format v12

[General]
AudioFilename: Hikari_kagayaku_sekai.mp3
AudioLeadIn: 1500
PreviewTime: 57440
Countdown: 0
SampleSet: Normal
StackLeniency: 0.7
Mode: 1
LetterboxInBreaks: 0

[Editor]
DistanceSpacing: 0.1
BeatDivisor: 4
GridSize: 32

[Metadata]
Title:Hikari Kagayaku Sekai
TitleUnicode:ヒカリ輝くセカイ
Artist:eufonius
ArtistUnicode:eufonius
Creator:Flower
Version:Taiko
Source:Irotoridori no Hikari
Tags:favorite riya opening - t e n n y a - Fionana sekai Athena Tennos String_Ensemble
BeatmapID:234333
BeatmapSetID:53000

[Difficulty]
HPDrainRate:5
CircleSize:5
OverallDifficulty:5
ApproachRate:5
SliderMultiplier:1.4
SliderTickRate:2

[Events]
//Background and Video events
0,0,"bg.jpg",0,130
Video,-100,"irohika_OP.flv"
//Break Periods
//Storyboard Layer 0 (Background)
//Storyboard Layer 1 (Fail)
//Storyboard Layer 2 (Pass)
//Storyboard Layer 3 (Foreground)
//Storyboard Sound Samples
//Background Colour Transformations
3,100,163,162,255

[TimingPoints]
889,476.190476190476,4,1,1,50,1,0
4444,476.190476190476,4,1,1,50,1,0
7110,444.444444444444,4,2,1,50,1,0
7996,444.444444444444,4,1,1,60,1,0
57773,-100,4,1,1,60,0,1
86218,-100,4,1,1,60,0,0

[Colours]
Combo1 : 239,17,5
Combo2 : 0,198,255
SliderBorder : 255,255,255

[HitObjects]
256,192,889,1,8,0:0:0:0:
256,192,1127,1,0,0:0:0:0:
256,192,1365,1,8,0:0:0:0:
256,192,4444,1,0,0:0:0:0:
256,192,4682,1,0,0:0:0:0:
256,192,4920,1,8,0:0:0:0:
256,192,5158,1,8,0:0:0:0:
256,192,7332,1,0,0:0:0:0:
256,192,7443,1,0,0:0:0:0:
256,192,7554,1,8,0:0:0:0:
256,192,7996,1,0,0:0:0:0:
256,192,8329,1,0,0:0:0:0:
256,192,8440,1,8,0:0:0:0:
256,192,8662,1,0,0:0:0:0:
256,192,8773,1,0,0:0:0:0:
256,192,8884,1,0,0:0:0:0:
256,192,9107,1,8,0:0:0:0:
256,192,9329,1,8,0:0:0:0:
256,192,9551,1,0,0:0:0:0:
256,192,9662,1,0,0:0:0:0:
256,192,9773,1,0,0:0:0:0:
256,192,9995,1,0,0:0:0:0:
256,192,10218,1,8,0:0:0:0:
256,192,10440,1,0,0:0:0:0:
256,192,10662,1,0,0:0:0:0:
256,192,10773,1,0,0:0:0:0:
256,192,10995,1,0,0:0:0:0:
256,192,11107,1,8,0:0:0:0:
256,192,11329,1,0,0:0:0:0:
256,192,11551,1,4,0:0:0:0:
256,192,11995,1,8,0:0:0:0:
256,192,12218,1,4,0:0:0:0:
256,192,12662,1,0,0:0:0:0:
256,192,12773,1,0,0:0:0:0:
256,192,12884,1,8,0:0:0:0:
256,192,13107,1,4,0:0:0:0:
256,192,13551,1,0,0:0:0:0:
256,192,13773,1,8,0:0:0:0:
256,192,13995,1,0,0:0:0:0:
256,192,14107,1,0,0:0:0:0:
256,192,14218,1,0,0:0:0:0:
256,192,14440,1,0,0:0:0:0:
256,192,14662,1,8,0:0:0:0:
256,192,14773,1,8,0:0:0:0:
256,192,14884,1,0,0:0:0:0:
256,192,15107,1,4,0:0:0:0:
256,192,15329,1,0,0:0:0:0:
256,192,15551,1,8,0:0:0:0:
256,192,15773,1,0,0:0:0:0:
256,192,16218,1,0,0:0:0:0:
256,192,16440,1,8,0:0:0:0:
256,192,16662,1,8,0:0:0:0:
256,192,16884,1,0,0:0:0:0:
256,192,16995,1,0,0:0:0:0:
256,192,17107,1,0,0:0:0:0:
256,192,17329,1,0,0:0:0:0:
256,192,17551,1,8,0:0:0:0:
256,192,17995,1,0,0:0:0:0:
256,192,18218,1,8,0:0:0:0:
256,192,18662,1,8,0:0:0:0:
256,192,18773,1,8,0:0:0:0:
256,192,18884,1,8,0:0:0:0:
256,192,19107,1,0,0:0:0:0:
256,192,19329,1,0,0:0:0:0:
256,192,19773,1,0,0:0:0:0:
256,192,19884,1,0,0:0:0:0:
256,192,19995,1,8,0:0:0:0:
256,192,20218,1,8,0:0:0:0:
256,192,20440,1,8,0:0:0:0:
256,192,20662,1,0,0:0:0:0:
256,192,21107,1,8,0:0:0:0:
256,192,21329,1,0,0:0:0:0:
256,192,21551,1,0,0:0:0:0:
256,192,21662,1,0,0:0:0:0:
256,192,21773,1,8,0:0:0:0:
256,192,22218,1,0,0:0:0:0:
256,192,22440,1,0,0:0:0:0:
256,192,22662,1,8,0:0:0:0:
256,192,22884,1,8,0:0:0:0:
256,192,23107,1,0,0:0:0:0:
256,192,23218,1,0,0:0:0:0:
256,192,23329,1,0,0:0:0:0:
256,192,23551,1,8,0:0:0:0:
256,192,23773,1,0,0:0:0:0:
256,192,23995,1,0,0:0:0:0:
256,192,24107,1,8,0:0:0:0:
256,192,24218,1,0,0:0:0:0:
256,192,24440,1,0,0:0:0:0:
256,192,24662,1,8,0:0:0:0:
256,192,25107,1,0,0:0:0:0:
256,192,25329,1,8,0:0:0:0:
256,192,25551,1,0,0:0:0:0:
256,192,25773,1,8,0:0:0:0:
256,192,25884,1,8,0:0:0:0:
256,192,25995,1,8,0:0:0:0:
256,192,26218,1,0,0:0:0:0:
256,192,26440,1,8,0:0:0:0:
256,192,26884,1,8,0:0:0:0:
256,192,27107,1,8,0:0:0:0:
256,192,27329,1,0,0:0:0:0:
256,192,27551,1,0,0:0:0:0:
256,192,27773,1,0,0:0:0:0:
256,192,27884,1,0,0:0:0:0:
256,192,27995,1,8,0:0:0:0:
256,192,28329,1,0,0:0:0:0:
256,192,28440,1,8,0:0:0:0:
256,192,28662,1,0,0:0:0:0:
256,192,28773,1,0,0:0:0:0:
256,192,28884,1,8,0:0:0:0:
256,192,28995,1,8,0:0:0:0:
256,192,29107,1,0,0:0:0:0:
256,192,29329,1,4,0:0:0:0:
256,192,29551,1,0,0:0:0:0:
256,192,29662,1,0,0:0:0:0:
256,192,29773,1,8,0:0:0:0:
256,192,29995,1,8,0:0:0:0:
256,192,30440,1,0,0:0:0:0:
256,192,30551,1,0,0:0:0:0:
256,192,30662,1,8,0:0:0:0:
256,192,30884,1,0,0:0:0:0:
256,192,31107,1,8,0:0:0:0:
256,192,31329,1,0,0:0:0:0:
256,192,31773,1,8,0:0:0:0:
256,192,31995,1,0,0:0:0:0:
256,192,32107,1,8,0:0:0:0:
256,192,32218,1,0,0:0:0:0:
256,192,32440,1,8,0:0:0:0:
256,192,32662,1,0,0:0:0:0:
256,192,32773,1,0,0:0:0:0:
256,192,32884,1,0,0:0:0:0:
256,192,33107,1,0,0:0:0:0:
256,192,33329,1,8,0:0:0:0:
256,192,33551,1,8,0:0:0:0:
256,192,33662,1,0,0:0:0:0:
256,192,33884,1,0,0:0:0:0:
256,192,33995,1,8,0:0:0:0:
256,192,34218,1,8,0:0:0:0:
256,192,34440,1,0,0:0:0:0:
256,192,34662,1,8,0:0:0:0:
256,192,34884,1,0,0:0:0:0:
256,192,35329,1,0,0:0:0:0:
256,192,35551,1,8,0:0:0:0:
256,192,35662,1,0,0:0:0:0:
256,192,35773,1,0,0:0:0:0:
256,192,35884,1,8,0:0:0:0:
256,192,35995,1,0,0:0:0:0:
256,192,36107,1,0,0:0:0:0:
256,192,36218,1,8,0:0:0:0:
256,192,36440,1,0,0:0:0:0:
256,192,36773,1,0,0:0:0:0:
256,192,36884,1,8,0:0:0:0:
256,192,37107,1,8,0:0:0:0:
256,192,37551,1,0,0:0:0:0:
256,192,37662,1,0,0:0:0:0:
256,192,37773,1,8,0:0:0:0:
256,192,37995,1,0,0:0:0:0:
256,192,38107,1,0,0:0:0:0:
256,192,38218,1,8,0:0:0:0:
256,192,38440,1,0,0:0:0:0:
256,192,38662,1,0,0:0:0:0:
256,192,38884,1,8,0:0:0:0:
256,192,38995,1,8,0:0:0:0:
256,192,39107,1,8,0:0:0:0:
256,192,39329,1,0,0:0:0:0:
256,192,39551,1,0,0:0:0:0:
256,192,39662,1,0,0:0:0:0:
256,192,39773,1,8,0:0:0:0:
256,192,39995,1,0,0:0:0:0:
256,192,40440,1,8,0:0:0:0:
256,192,40662,1,12,0:0:0:0:
256,192,41107,1,0,0:0:0:0:
256,192,41218,1,8,0:0:0:0:
256,192,41329,1,0,0:0:0:0:
256,192,41551,1,4,0:0:0:0:
256,192,41995,1,0,0:0:0:0:
256,192,42218,1,8,0:0:0:0:
256,192,42329,1,8,0:0:0:0:
256,192,42440,1,0,0:0:0:0:
256,192,42662,1,0,0:0:0:0:
256,192,42773,1,8,0:0:0:0:
256,192,42995,1,8,0:0:0:0:
256,192,43107,1,0,0:0:0:0:
256,192,43329,1,0,0:0:0:0:
256,192,43440,1,0,0:0:0:0:
256,192,43551,1,8,0:0:0:0:
256,192,43773,1,8,0:0:0:0:
256,192,43995,1,8,0:0:0:0:
256,192,44218,1,0,0:0:0:0:
256,192,44329,1,0,0:0:0:0:
256,192,44440,1,8,0:0:0:0:
256,192,44662,1,0,0:0:0:0:
256,192,44884,1,0,0:0:0:0:
256,192,45107,1,8,0:0:0:0:
256,192,45551,1,0,0:0:0:0:
256,192,45773,1,0,0:0:0:0:
256,192,45995,1,8,0:0:0:0:
256,192,46440,1,8,0:0:0:0:
256,192,46551,1,8,0:0:0:0:
256,192,46662,1,0,0:0:0:0:
256,192,46884,1,0,0:0:0:0:
256,192,46995,1,0,0:0:0:0:
256,192,47107,1,8,0:0:0:0:
256,192,47551,1,8,0:0:0:0:
256,192,47773,1,8,0:0:0:0:
256,192,47884,1,0,0:0:0:0:
256,192,48107,1,0,0:0:0:0:
256,192,48218,1,8,0:0:0:0:
256,192,48440,1,0,0:0:0:0:
256,192,48662,1,8,0:0:0:0:
256,192,48884,1,0,0:0:0:0:
256,192,49107,1,8,0:0:0:0:
256,192,49329,1,8,0:0:0:0:
256,192,49551,1,0,0:0:0:0:
256,192,49662,1,0,0:0:0:0:
256,192,49773,1,0,0:0:0:0:
256,192,49995,1,0,0:0:0:0:
256,192,50107,1,0,0:0:0:0:
256,192,50218,1,8,0:0:0:0:
256,192,50329,1,8,0:0:0:0:
256,192,50440,1,0,0:0:0:0:
256,192,50551,1,0,0:0:0:0:
256,192,50662,1,8,0:0:0:0:
256,192,50884,1,8,0:0:0:0:
256,192,51107,1,0,0:0:0:0:
256,192,51218,1,0,0:0:0:0:
256,192,51329,1,8,0:0:0:0:
256,192,51551,1,0,0:0:0:0:
256,192,51773,1,8,0:0:0:0:
256,192,51995,1,0,0:0:0:0:
256,192,52218,1,0,0:0:0:0:
256,192,52440,8,0,54218,0:0:0:0:
256,192,54662,5,8,0:0:0:0:
256,192,54884,1,8,0:0:0:0:
256,192,54995,1,8,0:0:0:0:
256,192,55218,1,0,0:0:0:0:
256,192,55329,1,0,0:0:0:0:
256,192,55551,1,0,0:0:0:0:
256,192,55662,1,8,0:0:0:0:
256,192,55773,1,8,0:0:0:0:
256,192,55995,1,0,0:0:0:0:
256,192,56218,1,4,0:0:0:0:
256,192,56662,1,12,0:0:0:0:
256,192,56884,1,12,0:0:0:0:
256,192,57329,1,0,0:0:0:0:
256,192,57440,1,0,0:0:0:0:
256,192,57551,1,8,0:0:0:0:
256,192,57662,1,8,0:0:0:0:
256,192,57773,1,0,0:0:0:0:
256,192,58107,1,0,0:0:0:0:
256,192,58218,1,8,0:0:0:0:
256,192,58440,1,8,0:0:0:0:
256,192,58551,1,0,0:0:0:0:
256,192,58773,1,0,0:0:0:0:
256,192,58884,1,8,0:0:0:0:
256,192,59107,1,8,0:0:0:0:
256,192,59329,1,0,0:0:0:0:
256,192,59440,1,0,0:0:0:0:
256,192,59551,1,8,0:0:0:0:
256,192,59662,1,8,0:0:0:0:
256,192,59773,1,0,0:0:0:0:
256,192,59995,1,0,0:0:0:0:
256,192,60218,1,8,0:0:0:0:
256,192,60329,1,8,0:0:0:0:
256,192,60440,1,0,0:0:0:0:
256,192,60662,1,8,0:0:0:0:
256,192,60884,1,0,0:0:0:0:
256,192,60995,1,0,0:0:0:0:
256,192,61107,1,8,0:0:0:0:
256,192,61218,1,8,0:0:0:0:
256,192,61329,1,0,0:0:0:0:
256,192,61551,1,0,0:0:0:0:
256,192,61773,1,0,0:0:0:0:
256,192,61884,1,0,0:0:0:0:
256,192,61995,1,8,0:0:0:0:
256,192,62218,1,8,0:0:0:0:
256,192,62329,1,0,0:0:0:0:
256,192,62551,1,0,0:0:0:0:
256,192,62662,1,8,0:0:0:0:
256,192,62884,1,8,0:0:0:0:
256,192,63107,1,0,0:0:0:0:
256,192,63218,1,0,0:0:0:0:
256,192,63329,1,0,0:0:0:0:
256,192,63551,1,8,0:0:0:0:
256,192,63773,1,0,0:0:0:0:
256,192,63884,1,0,0:0:0:0:
256,192,63995,1,8,0:0:0:0:
256,192,64107,1,8,0:0:0:0:
256,192,64218,1,0,0:0:0:0:
256,192,64329,1,0,0:0:0:0:
256,192,64440,1,8,0:0:0:0:
256,192,64662,1,0,0:0:0:0:
256,192,64773,1,0,0:0:0:0:
256,192,64884,1,8,0:0:0:0:
256,192,65107,1,0,0:0:0:0:
256,192,65329,1,0,0:0:0:0:
256,192,65440,1,0,0:0:0:0:
256,192,65551,1,8,0:0:0:0:
256,192,65773,1,8,0:0:0:0:
256,192,65995,1,8,0:0:0:0:
256,192,66107,1,8,0:0:0:0:
256,192,66218,1,0,0:0:0:0:
256,192,66440,1,0,0:0:0:0:
256,192,66662,1,0,0:0:0:0:
256,192,66884,1,0,0:0:0:0:
256,192,66995,1,0,0:0:0:0:
256,192,67107,1,8,0:0:0:0:
256,192,67329,1,8,0:0:0:0:
256,192,67551,1,0,0:0:0:0:
256,192,67662,1,0,0:0:0:0:
256,192,67884,1,0,0:0:0:0:
256,192,67995,1,8,0:0:0:0:
256,192,68218,1,8,0:0:0:0:
256,192,68440,1,4,0:0:0:0:
256,192,68662,1,8,0:0:0:0:
256,192,68773,1,8,0:0:0:0:
256,192,68884,1,8,0:0:0:0:
256,192,69107,1,8,0:0:0:0:
256,192,69218,1,8,0:0:0:0:
256,192,69440,1,8,0:0:0:0:
256,192,69551,1,0,0:0:0:0:
256,192,69773,1,8,0:0:0:0:
256,192,69995,1,4,0:0:0:0:
256,192,70440,1,8,0:0:0:0:
256,192,70662,1,8,0:0:0:0:
256,192,70884,1,0,0:0:0:0:
256,192,71107,1,0,0:0:0:0:
256,192,71329,1,0,0:0:0:0:
256,192,71440,1,0,0:0:0:0:
256,192,71551,1,8,0:0:0:0:
256,192,71662,1,8,0:0:0:0:
256,192,71773,1,0,0:0:0:0:
256,192,71995,1,4,0:0:0:0:
256,192,72440,1,8,0:0:0:0:
256,192,72662,1,0,0:0:0:0:
256,192,73107,1,8,0:0:0:0:
256,192,73329,1,8,0:0:0:0:
256,192,73440,1,0,0:0:0:0:
256,192,73551,1,8,0:0:0:0:
256,192,73662,1,0,0:0:0:0:
256,192,73773,1,0,0:0:0:0:
256,192,73995,1,0,0:0:0:0:
256,192,74218,1,8,0:0:0:0:
256,192,74440,1,8,0:0:0:0:
256,192,74662,1,0,0:0:0:0:
256,192,74884,1,8,0:0:0:0:
256,192,75107,1,8,0:0:0:0:
256,192,75329,1,8,0:0:0:0:
256,192,75551,1,4,0:0:0:0:
256,192,75884,1,0,0:0:0:0:
256,192,75995,1,8,0:0:0:0:
256,192,76218,1,0,0:0:0:0:
256,192,76329,1,0,0:0:0:0:
256,192,76551,1,0,0:0:0:0:
256,192,76662,1,8,0:0:0:0:
256,192,76884,1,8,0:0:0:0:
256,192,77107,1,4,0:0:0:0:
256,192,77551,1,0,0:0:0:0:
256,192,77662,1,0,0:0:0:0:
256,192,77773,1,8,0:0:0:0:
256,192,77884,1,8,0:0:0:0:
256,192,77995,1,8,0:0:0:0:
256,192,78218,1,0,0:0:0:0:
256,192,78329,1,8,0:0:0:0:
256,192,78440,1,8,0:0:0:0:
256,192,78662,1,0,0:0:0:0:
256,192,79107,1,8,0:0:0:0:
256,192,79329,1,8,0:0:0:0:
256,192,79551,1,8,0:0:0:0:
256,192,79773,1,0,0:0:0:0:
256,192,80218,1,0,0:0:0:0:
256,192,80440,1,8,0:0:0:0:
256,192,80662,1,4,0:0:0:0:
256,192,81107,1,0,0:0:0:0:
256,192,81218,1,8,0:0:0:0:
256,192,81329,1,8,0:0:0:0:
256,192,81551,1,8,0:0:0:0:
256,192,81773,1,0,0:0:0:0:
256,192,81995,1,0,0:0:0:0:
256,192,82107,1,0,0:0:0:0:
256,192,82218,1,8,0:0:0:0:
256,192,82329,1,8,0:0:0:0:
256,192,82440,1,0,0:0:0:0:
256,192,82662,1,0,0:0:0:0:
256,192,82884,1,8,0:0:0:0:
256,192,83107,1,0,0:0:0:0:
256,192,83218,1,0,0:0:0:0:
256,192,83329,1,8,0:0:0:0:
256,192,83551,1,0,0:0:0:0:
256,192,83662,1,0,0:0:0:0:
256,192,83773,1,8,0:0:0:0:
256,192,83884,1,0,0:0:0:0:
256,192,83995,1,0,0:0:0:0:
256,192,84218,1,12,0:0:0:0:
256,192,84440,1,8,0:0:0:0:
256,192,84662,1,0,0:0:0:0:
256,192,84773,1,0,0:0:0:0:
256,192,84884,1,0,0:0:0:0:
256,192,84995,1,0,0:0:0:0:
256,192,85107,1,8,0:0:0:0:
256,192,85329,1,8,0:0:0:0:
256,192,85551,1,0,0:0:0:0:
256,192,85662,1,0,0:0:0:0:
256,192,85773,1,8,0:0:0:0:
256,192,85995,1,8,0:0:0:0:
256,192,86218,1,4,0:0:0:0:
256,192,86551,1,0,0:0:0:0:
256,192,86662,1,8,0:0:0:0:
256,192,86884,1,8,0:0:0:0:
256,192,86995,1,0,0:0:0:0:
256,192,87218,1,0,0:0:0:0:
256,192,87329,1,8,0:0:0:0:
256,192,87551,1,8,0:0:0:0:
256,192,87773,1,0,0:0:0:0:
256,192,87884,1,0,0:0:0:0:
256,192,87995,1,0,0:0:0:0:
256,192,88218,1,0,0:0:0:0:
256,192,88440,1,8,0:0:0:0:
256,192,88662,1,8,0:0:0:0:
256,192,88773,1,8,0:0:0:0:
256,192,88884,1,0,0:0:0:0:
256,192,88995,1,0,0:0:0:0:
256,192,89107,1,8,0:0:0:0:
256,192,89329,1,8,0:0:0:0:
256,192,89773,1,0,0:0:0:0:
256,192,90218,1,0,0:0:0:0:
256,192,90440,1,8,0:0:0:0:
256,192,90884,1,0,0:0:0:0:
256,192,91107,1,8,0:0:0:0:
256,192,91329,1,8,0:0:0:0:
256,192,91551,1,0,0:0:0:0:
256,192,91995,1,0,0:0:0:0:
256,192,92218,1,8,0:0:0:0:
256,192,92662,1,0,0:0:0:0:
256,192,92884,1,8,0:0:0:0:
256,192,93107,1,8,0:0:0:0:
256,192,93218,1,0,0:0:0:0:
256,192,93329,1,0,0:0:0:0:
256,192,93551,1,0,0:0:0:0:
256,192,93773,1,8,0:0:0:0:
256,192,93884,1,8,0:0:0:0:
256,192,93995,1,0,0:0:0:0:
256,192,94218,1,0,0:0:0:0:
256,192,94440,1,0,0:0:0:0:
256,192,94551,1,0,0:0:0:0:
256,192,94662,1,8,0:0:0:0:
256,192,94773,1,0,0:0:0:0:
256,192,94884,1,0,0:0:0:0:
256,192,95107,1,4,0:0:0:0:
256,192,95329,1,0,0:0:0:0:
256,192,95440,1,0,0:0:0:0:
256,192,95551,1,0,0:0:0:0:
256,192,95773,1,8,0:0:0:0:
256,192,95995,1,0,0:0:0:0:
256,192,96107,1,0,0:0:0:0:
256,192,96218,1,0,0:0:0:0:
256,192,96440,1,8,0:0:0:0:
256,192,96662,5,0,0:0:0:0:
256,192,96884,1,4,0:0:0:0:
256,192,97329,1,0,0:0:0:0:
256,192,97551,1,4,0:0:0:0:
256,192,97995,1,0,0:0:0:0:
256,192,98218,1,8,0:0:0:0:
256,192,98440,1,8,0:0:0:0:
256,192,98662,1,0,0:0:0:0:
256,192,98884,1,0,0:0:0:0:
256,192,98995,1,8,0:0:0:0:
256,192,99107,1,0,0:0:0:0:
256,192,99218,1,0,0:0:0:0:
256,192,99329,1,0,0:0:0:0:
256,192,99551,1,8,0:0:0:0:
256,192,99773,1,0,0:0:0:0:
256,192,99995,1,8,0:0:0:0:
256,192,100218,1,8,0:0:0:0:
256,192,100329,1,8,0:0:0:0:
256,192,100440,1,0,0:0:0:0:
256,192,100662,1,0,0:0:0:0:
256,192,100884,1,8,0:0:0:0:
256,192,101107,1,8,0:0:0:0:
256,192,101218,1,8,0:0:0:0:
256,192,101329,1,0,0:0:0:0:
256,192,101440,1,0,0:0:0:0:
256,192,101662,1,0,0:0:0:0:
256,192,101773,1,8,0:0:0:0:
256,192,101995,1,4,0:0:0:0:
256,192,102440,1,0,0:0:0:0:
256,192,102551,1,0,0:0:0:0:
256,192,102662,1,8,0:0:0:0:
256,192,102773,1,8,0:0:0:0:
256,192,102884,1,0,0:0:0:0:
256,192,102995,1,8,0:0:0:0:
256,192,103107,1,8,0:0:0:0:
256,192,103329,1,8,0:0:0:0:
256,192,103551,1,8,0:0:0:0:
256,192,103773,1,12,0:0:0:0:
