osu file format v12

[General]
AudioFilename: Hikari_kagayaku_sekai.mp3
AudioLeadIn: 1500
PreviewTime: 57440
Countdown: 0
SampleSet: Soft
StackLeniency: 0.7
Mode: 0
LetterboxInBreaks: 0

[Editor]
DistanceSpacing: 1
BeatDivisor: 4
GridSize: 4

[Metadata]
Title:Hikari Kagayaku Sekai
TitleUnicode:ヒカリ輝くセカイ
Artist:eufonius
ArtistUnicode:eufonius
Creator:Flower
Version:Insane
Source:Irotoridori no Hikari
Tags:favorite riya opening - t e n n y a - Fionana sekai Athena Tennos String_Ensemble
BeatmapID:163982
BeatmapSetID:53000

[Difficulty]
HPDrainRate:7
CircleSize:4
OverallDifficulty:7
ApproachRate:8
SliderMultiplier:1.9
SliderTickRate:2

[Events]
//Background and Video events
0,0,"bg.jpg",0,0
Video,-100,"irohika_OP.flv"
//Break Periods
2,1565,3694
//Storyboard Layer 0 (Background)
//Storyboard Layer 1 (Fail)
//Storyboard Layer 2 (Pass)
//Storyboard Layer 3 (Foreground)
//Storyboard Sound Samples
//Background Colour Transformations
3,100,163,162,255

[TimingPoints]
889,476.190476190476,4,2,2,50,1,0
4444,476.190476190476,4,2,2,50,1,0
7110,444.444444444444,4,2,2,60,1,0
7996,444.444444444444,4,2,1,60,1,0
8440,-100,4,2,2,60,0,0
8884,-100,4,2,1,45,0,0
9107,-100,4,2,2,60,0,0
9773,-100,4,2,1,45,0,0
9996,-100,4,2,2,60,0,0
10662,-100,4,2,1,45,0,0
10884,-100,4,2,2,60,0,0
11551,-100,4,2,1,60,0,0
11773,-100,4,2,2,60,0,0
11996,-100,4,2,1,50,0,0
12218,-100,4,2,1,60,0,0
12440,-100,4,2,2,60,0,0
12884,-100,4,2,1,50,0,0
13107,-100,4,2,1,60,0,0
13329,-100,4,2,2,60,0,0
14218,-100,4,2,1,45,0,0
14329,-100,4,2,2,60,0,0
14662,-100,4,2,2,50,0,0
14773,-100,4,2,2,60,0,0
15107,-100,4,2,1,60,0,0
15329,-100,4,2,2,60,0,0
21329,-100,4,2,1,40,0,0
21551,-100,4,2,2,60,0,0
21773,-100,4,2,1,40,0,0
21996,-100,4,2,2,60,0,0
28329,-100,4,2,2,50,0,0
29329,-100,4,2,1,60,0,0
29551,-100,4,2,2,60,0,0
30218,-100,4,2,1,45,0,0
30440,-100,4,2,2,60,0,0
31996,-100,4,2,1,45,0,0
32107,-100,4,2,2,60,0,0
32884,-100,4,2,1,45,0,0
33107,-100,4,2,2,60,0,0
33773,-100,4,2,1,45,0,0
33996,-100,4,2,2,60,0,0
34662,-100,4,2,1,45,0,0
35107,-100,4,2,2,60,0,0
35551,-100,4,2,2,50,0,0
36440,-100,4,2,1,45,0,0
36662,-100,4,2,2,60,0,0
37329,-100,4,2,1,45,0,0
37551,-100,4,2,2,60,0,0
38218,-100,4,2,1,45,0,0
38662,-100,4,2,2,60,0,0
40662,-100,4,2,1,50,0,0
40884,-100,4,2,2,60,0,0
41551,-100,4,2,1,50,0,0
41773,-100,4,2,2,60,0,0
42218,-100,4,2,2,40,0,0
42440,-100,4,2,1,40,0,0
42662,-100,4,2,2,60,0,0
43551,-100,4,2,1,50,0,0
43773,-100,4,2,2,60,0,0
44218,-100,4,2,1,50,0,0
44884,-100,4,2,2,60,0,0
46218,-100,4,2,1,50,0,0
46662,-100,4,2,2,60,0,0
47107,-100,4,2,1,50,0,0
47551,-100,4,2,2,60,0,0
48218,-100,4,2,2,50,0,0
48440,-100,4,2,1,50,0,0
48662,-100,4,2,2,60,0,0
49773,-100,4,2,1,40,0,0
49996,-100,4,2,2,60,0,0
50662,-100,4,2,1,50,0,0
51440,-100,4,2,2,50,0,0
52218,-100,4,2,1,50,0,0
52329,-100,4,2,2,50,0,0
52884,-100,4,2,1,50,0,0
53107,-100,4,2,2,50,0,0
53773,-100,4,2,1,50,0,0
53884,-100,4,2,2,50,0,0
54107,-100,4,2,1,50,0,0
54996,-100,4,2,2,50,0,0
55551,-100,4,2,2,40,0,0
55773,-100,4,2,1,50,0,0
56996,-100,4,2,2,50,0,0
57773,-95.2380952380952,4,2,1,70,0,1
57884,-95.2380952380952,4,2,2,70,0,1
58107,-95.2380952380952,4,2,1,70,0,1
59551,-95.2380952380952,4,2,2,70,0,1
59996,-95.2380952380952,4,2,1,70,0,1
60440,-95.2380952380952,4,2,2,70,0,1
60884,-95.2380952380952,4,2,1,70,0,1
61329,-95.2380952380952,4,2,2,70,0,1
61773,-95.2380952380952,4,2,1,70,0,1
64440,-95.2380952380952,4,2,2,70,0,1
64662,-95.2380952380952,4,2,1,60,0,1
65107,-95.2380952380952,4,2,2,70,0,1
65329,-95.2380952380952,4,2,1,70,0,1
66884,-95.2380952380952,4,2,2,70,0,1
67107,-95.2380952380952,4,2,1,70,0,1
67996,-95.2380952380952,4,2,2,70,0,1
68884,-95.2380952380952,4,2,1,70,0,1
70107,-95.2380952380952,4,2,2,70,0,1
70662,-95.2380952380952,4,2,1,70,0,1
72218,-95.2380952380952,4,2,2,70,0,1
73329,-95.2380952380952,4,2,1,70,0,1
75551,-95.2380952380952,4,2,2,70,0,1
75996,-95.2380952380952,4,2,1,70,0,1
77218,-95.2380952380952,4,2,2,70,0,1
77996,-95.2380952380952,4,2,1,70,0,1
78107,-95.2380952380952,4,2,2,70,0,1
79107,-95.2380952380952,4,2,1,70,0,1
81329,-95.2380952380952,4,2,2,70,0,1
81551,-95.2380952380952,4,2,1,70,0,1
82773,-95.2380952380952,4,2,2,70,0,1
83329,-95.2380952380952,4,2,1,70,0,1
83440,-95.2380952380952,4,2,2,70,0,1
84218,-95.2380952380952,4,2,1,70,0,1
84662,-95.2380952380952,4,2,2,70,0,1
86218,-100,4,2,2,65,0,0
86662,-100,4,2,1,65,0,0
86773,-100,4,2,2,65,0,0
87551,-100,4,2,1,65,0,0
87662,-100,4,2,2,65,0,0
88440,-100,4,2,1,65,0,0
88662,-100,4,2,2,65,0,0
88996,-100,4,2,1,55,0,0
89107,-100,4,2,2,65,0,0
89329,-100,4,2,1,65,0,0
89551,-100,4,2,2,65,0,0
90218,-100,4,2,1,65,0,0
90440,-100,4,2,2,65,0,0
91107,-100,4,2,1,65,0,0
91329,-100,4,2,2,65,0,0
91996,-100,4,2,1,65,0,0
92218,-100,4,2,2,65,0,0
92884,-100,4,2,1,65,0,0
93107,-100,4,2,2,65,0,0
93773,-100,4,2,1,65,0,0
93996,-100,4,2,2,65,0,0
94662,-100,4,2,1,65,0,0
94773,-100,4,2,2,65,0,0
95551,-100,4,2,1,65,0,0
95773,-100,4,2,2,65,0,0
96440,-100,4,2,1,65,0,0
96996,-100,4,2,2,65,0,0
97329,-100,4,2,1,65,0,0
97551,-100,4,2,2,65,0,0
98218,-100,4,2,1,65,0,0
98773,-100,4,2,2,65,0,0
98996,-100,4,2,1,65,0,0
99329,-100,4,2,2,65,0,0
99996,-100,4,2,1,65,0,0
100440,-100,4,2,2,65,0,0
100884,-100,4,2,1,65,0,0
101218,-100,4,2,2,65,0,0
101996,-100,4,2,1,65,0,0
102107,-100,4,2,2,65,0,0
102662,-100,4,2,1,45,0,0
102884,-100,4,2,2,65,0,0
103107,-100,4,2,1,55,0,0
103329,-100,4,2,1,60,0,0
103551,-100,4,2,1,65,0,0
103773,-100,4,2,1,70,0,0

[Colours]
Combo1 : 254,171,237
Combo2 : 140,230,255
Combo3 : 253,140,134
Combo4 : 187,255,204
SliderBorder : 255,255,255

[HitObjects]
256,100,889,1,2,0:0:0:0:
328,192,1127,1,0,0:0:0:0:
256,284,1365,1,4,0:0:0:0:
360,260,4444,5,2,0:0:0:0:
304,184,4682,1,0,0:0:0:0:
208,184,4920,1,0,0:0:0:0:
152,260,5158,1,4,0:0:0:0:
256,144,7332,5,2,0:0:0:0:
256,144,7443,1,0,0:0:0:0:
256,144,7554,2,0,B|324:180|316:268|268:304,1,189.144,12|4,0:0|0:0,0:0:0:0:
176,360,8218,1,2,0:0:0:0:
76,348,8440,2,0,B|40:312|44:260,1,95,8|2,0:0|0:0,0:0:0:0:
72,108,8884,5,8,0:0:0:0:
152,216,9107,1,2,0:0:0:0:
180,56,9329,1,8,0:0:0:0:
260,164,9551,1,2,0:0:0:0:
352,76,9773,6,0,B|416:84|448:144|432:196,1,142.5,8|2,0:0|0:0,0:0:0:0:
392,192,10218,2,0,B|396:239|353:275,1,95,8|2,0:0|0:0,0:0:0:0:
256,320,10662,1,8,0:0:0:0:
134,306,10884,1,2,0:0:0:0:
104,288,10995,1,0,0:0:0:0:
82,258,11107,1,8,0:0:0:0:
68,152,11329,1,2,0:0:0:0:
192,172,11551,6,0,P|244:88|336:80,1,190,4|8,0:0|0:0,0:0:0:0:
300,180,12218,2,0,B|352:157|424:212|414:298,1,190,4|2,0:0|0:0,0:0:0:0:
396,336,12773,1,0,0:0:0:0:
356,360,12884,1,8,0:0:0:0:
240,280,13107,6,0,B|183:235|104:256|80:320,1,190,4|2,0:0|0:0,0:0:0:0:
172,356,13773,1,8,0:0:0:0:
240,280,13995,1,2,0:0:0:0:
252,136,14218,5,8,0:0:0:0:
228,96,14329,1,2,0:0:0:0:
76,20,14551,1,0,0:0:0:0:
36,48,14662,1,8,0:0:0:0:
28,96,14773,1,2,0:0:0:0:
48,140,14884,1,0,0:0:0:0:
88,164,14995,1,2,0:0:0:0:
136,164,15107,6,0,B|184:180|200:240,1,95,4|0,0:0|0:0,0:0:0:0:
96,368,15551,2,0,B|88:316|137:277,1,95,2|0,0:0|0:0,0:0:0:0:
300,300,15995,2,0,B|263:329|202:316,1,95,2|0,0:0|0:0,0:0:0:0:
220,200,16440,1,2,0:0:0:0:
296,112,16662,1,0,0:0:0:0:
432,72,16884,6,0,B|488:80|508:128,2,95,2|2|0,0:0|0:0|0:0,0:0:0:0:
320,40,17551,1,2,0:0:0:0:
200,48,17773,1,0,0:0:0:0:
156,64,17884,1,2,0:0:0:0:
112,52,17995,1,0,0:0:0:0:
36,160,18218,1,8,0:0:0:0:
260,312,18662,6,0,B|316:316|344:264,1,95,4|0,0:0|0:0,0:0:0:0:
272,144,19107,2,0,B|216:140|188:192,1,95,2|0,0:0|0:0,0:0:0:0:
172,276,19551,1,0,0:0:0:0:
376,180,19773,2,0,B|392:128|364:88,2,95,2|2|0,0:0|0:0|0:0,0:0:0:0:
339,271,20440,5,2,0:0:0:0:
272,144,20662,1,0,0:0:0:0:
232,336,20884,1,2,0:0:0:0:
252,244,21107,1,0,0:0:0:0:
184,176,21329,5,8,0:0:0:0:
52,172,21551,1,0,0:0:0:0:
28,208,21662,1,8,0:0:0:0:
32,252,21773,1,0,0:0:0:0:
116,328,21995,1,8,0:0:0:0:
184,176,22218,6,0,B|227:151|279:162,1,95,4|0,0:0|0:0,0:0:0:0:
448,184,22662,2,0,B|405:209|353:198,1,95,2|0,0:0|0:0,0:0:0:0:
360,96,23107,1,0,0:0:0:0:
256,248,23329,1,2,0:0:0:0:
256,248,23551,2,0,B|211:284|222:339,1,95,0|2,0:0|0:0,0:0:0:0:
308,376,23995,5,2,0:0:0:0:
412,328,24218,1,0,0:0:0:0:
480,224,24440,1,2,0:0:0:0:
464,56,24662,1,0,0:0:0:0:
312,164,24884,6,0,B|364:164|396:120,1,95,2|0,0:0|0:0,0:0:0:0:
256,68,25329,2,0,B|204:68|172:112,1,95,8|0,0:0|0:0,0:0:0:0:
202,199,25773,5,2,0:0:0:0:
69,162,25995,1,0,0:0:0:0:
195,292,26218,1,2,0:0:0:0:
56,344,26440,1,0,0:0:0:0:
252,364,26662,6,0,P|317:357|348:336,1,95,2|0,0:0|0:0,0:0:0:0:
398,265,27107,1,2,0:0:0:0:
367,174,27329,1,2,0:0:0:0:
215,167,27551,6,0,P|246:207|292:219,1,95,2|0,0:0|0:0,0:0:0:0:
258,87,27995,2,0,P|226:46|180:34,1,95,8|0,0:0|0:0,0:0:0:0:
140,40,28329,1,8,0:0:0:0:
70,119,28551,1,8,0:0:0:0:
29,143,28662,1,0,0:0:0:0:
13,187,28773,1,0,0:0:0:0:
13,234,28884,1,8,0:0:0:0:
36,275,28995,1,0,0:0:0:0:
76,300,29107,1,0,0:0:0:0:
124,308,29218,1,8,0:0:0:0:
172,300,29329,6,0,P|209:276|239:227,1,95,4|2,0:0|0:0,0:0:0:0:
248,188,29662,1,0,0:0:0:0:
240,140,29773,1,8,0:0:0:0:
212,44,29995,1,2,0:0:0:0:
360,188,30218,2,0,P|408:215|456:221,1,95,8|2,0:0|0:0,0:0:0:0:
396,76,30662,2,0,P|347:48|299:42,1,95,8|2,0:0|0:0,0:0:0:0:
140,156,31107,6,0,P|144:208|180:240,1,95,8|2,0:0|0:0,0:0:0:0:
216,260,31440,1,0,0:0:0:0:
264,260,31551,1,8,0:0:0:0:
20,184,31773,2,0,P|16:128|44:80,1,95,2|8,0:0|0:0,0:0:0:0:
68,64,32107,1,8,0:0:0:0:
116,56,32218,1,0,0:0:0:0:
224,120,32440,1,8,0:0:0:0:
328,48,32662,1,2,0:0:0:0:
368,76,32773,1,8,0:0:0:0:
380,120,32884,6,0,P|376:184|355:212,1,95,8|2,0:0|0:0,0:0:0:0:
120,304,33329,2,0,P|124:240|144:211,1,95,8|2,0:0|0:0,0:0:0:0:
96,132,33773,2,0,P|157:113|191:122,1,95,8|2,0:0|0:0,0:0:0:0:
272,164,34218,1,8,0:0:0:0:
308,252,34440,1,2,0:0:0:0:
260,336,34662,5,8,0:0:0:0:
260,336,34884,1,2,0:0:0:0:
388,344,35107,2,0,P|444:336|480:312,1,95,8|0,0:0|0:0,0:0:0:0:
484,172,35551,5,2,0:0:0:0:
476,124,35662,1,8,0:0:0:0:
448,84,35773,1,0,0:0:0:0:
408,56,35884,1,0,0:0:0:0:
360,44,35995,1,8,0:0:0:0:
312,52,36107,1,0,0:0:0:0:
272,80,36218,1,2,0:0:0:0:
244,120,36329,1,10,0:0:0:0:
240,168,36440,6,0,P|252:228|228:268,1,95,8|2,0:0|0:0,0:0:0:0:
152,152,36884,2,0,P|140:92|164:52,1,95,8|2,0:0|0:0,0:0:0:0:
96,228,37329,6,0,P|36:240|-4:216,1,95,8|2,0:0|0:0,0:0:0:0:
60,148,37773,1,8,0:0:0:0:
140,308,37995,1,2,0:0:0:0:
176,336,38107,1,8,0:0:0:0:
224,336,38218,1,8,0:0:0:0:
328,296,38440,1,2,0:0:0:0:
364,184,38662,1,8,0:0:0:0:
144,36,38884,6,0,B|131:97|162:151|211:162|269:147,1,190,6|8,0:0|0:0,0:0:0:0:
312,76,39551,1,8,0:0:0:0:
424,68,39773,1,2,0:0:0:0:
424,68,39884,1,8,0:0:0:0:
424,68,39995,2,0,B|476:96|492:136|476:200,1,142.5,4|0,0:0|0:0,0:0:0:0:
456,228,40440,1,8,0:0:0:0:
284,168,40662,6,0,P|216:204|216:316,1,190,4|2,0:0|0:0,0:0:0:0:
244,344,41218,1,8,0:0:0:0:
292,352,41329,1,0,0:0:0:0:
336,336,41440,1,2,0:0:0:0:
360,296,41551,6,0,L|400:140,1,142.5,4|0,0:0|0:0,0:0:0:0:
436,136,41995,1,8,0:0:0:0:
488,236,42218,1,8,0:0:0:0:
276,248,42440,6,0,P|220:216|232:96,1,190,4|0,0:0|0:0,0:0:0:0:
336,52,43107,1,8,0:0:0:0:
384,64,43218,1,0,0:0:0:0:
420,92,43329,1,2,0:0:0:0:
436,136,43440,1,8,0:0:0:0:
436,184,43551,6,0,B|434:240|378:259|378:259,1,95,4|0,0:0|0:0,0:0:0:0:
272,248,43995,2,0,B|274:192|330:173|330:173,1,95,8|0,0:0|0:0,0:0:0:0:
328,344,44440,1,0,0:0:0:0:
180,280,44662,1,8,0:0:0:0:
164,236,44773,1,0,0:0:0:0:
168,188,44884,6,0,B|176:132|216:112|216:112,1,95,8|0,0:0|0:0,0:0:0:0:
316,84,45329,1,4,0:0:0:0:
400,128,45551,2,0,B|436:164|428:220|428:220,2,95,0|8|0,0:0|0:0|0:0,0:0:0:0:
324,184,46218,1,8,0:0:0:0:
232,168,46440,2,0,B|178:153|138:188|138:188,1,95,0|8,0:0|0:0,0:0:0:0:
52,300,46884,5,0,0:0:0:0:
52,300,46995,1,0,0:0:0:0:
52,300,47107,2,0,B|80:352|132:344|132:344,1,95,8|0,0:0|0:0,0:0:0:0:
236,276,47551,1,8,0:0:0:0:
324,184,47773,2,0,P|364:232|340:360,1,190,0|4,0:0|0:0,0:0:0:0:
248,376,48440,1,8,0:0:0:0:
136,232,48662,1,0,0:0:0:0:
144,136,48884,6,0,B|160:84|216:84|216:84,1,95,4|0,0:0|0:0,0:0:0:0:
264,92,49218,1,0,0:0:0:0:
304,116,49329,1,8,0:0:0:0:
360,224,49551,1,0,0:0:0:0:
300,296,49773,6,0,B|272:344|208:328|208:328,1,95,8|0,0:0|0:0,0:0:0:0:
172,316,50107,1,0,0:0:0:0:
140,280,50218,1,8,0:0:0:0:
132,232,50329,1,0,0:0:0:0:
144,184,50440,1,0,0:0:0:0:
180,152,50551,1,0,0:0:0:0:
228,144,50662,5,4,0:0:0:0:
368,188,50884,1,8,0:0:0:0:
332,60,51107,1,0,0:0:0:0:
248,240,51329,6,0,P|188:233|136:112,1,190,4|0,0:0|0:0,0:0:0:0:
188,48,51995,1,8,0:0:0:0:
352,40,52218,6,0,P|408:48|472:164,1,190,4|0,0:0|0:0,0:0:0:0:
368,144,52884,1,8,0:0:0:0:
260,96,53107,6,0,B|216:148|212:220|250:272,1,190,4|0,0:0|0:0,0:0:0:0:
358,320,53773,2,0,B|404:272|406:196|368:144,1,190,8|4,0:0|0:0,0:0:0:0:
260,96,54440,1,0,0:0:0:0:
164,104,54662,5,2,0:0:0:0:
100,172,54884,2,0,P|92:244|132:300,1,142.5,4|0,0:0|0:0,0:0:0:0:
176,316,55329,1,2,0:0:0:0:
328,276,55551,1,8,0:0:0:0:
216,168,55773,1,4,0:0:0:0:
216,168,56218,5,4,0:0:0:0:
216,168,56662,1,4,0:0:0:0:
256,48,56884,2,0,P|316:80|328:196,1,190,8|8,0:0|0:0,0:0:0:0:
224,288,57551,5,0,0:0:0:0:
176,296,57662,1,8,0:0:0:0:
132,276,57773,2,0,P|84:216|104:96,1,199.499993911743,4|8,0:0|0:0,0:0:0:0:
216,40,58440,1,2,0:0:0:0:
296,140,58662,2,0,B|328:188|304:236|304:236,2,99.7499969558717,0|10|8,0:0|0:0|0:0,0:0:0:0:
368,44,59329,6,0,P|428:36|512:140,1,199.499993911743,2|8,0:0|0:0,0:0:0:0:
408,140,59995,1,8,0:0:0:0:
336,268,60218,2,0,B|280:280|247:224|247:224,1,99.7499969558717,2|8,0:0|0:0,0:0:0:0:
180,112,60662,5,2,0:0:0:0:
136,88,60773,1,0,0:0:0:0:
88,84,60884,1,8,0:0:0:0:
40,104,60995,1,0,0:0:0:0:
12,148,61107,1,2,0:0:0:0:
8,196,61218,1,0,0:0:0:0:
24,244,61329,6,0,L|120:196,1,99.7499969558717,4|2,0:0|0:0,0:0:0:0:
212,204,61773,1,8,0:0:0:0:
180,300,61995,2,0,P|212:344|260:364,1,99.7499969558717,2|8,0:0|0:0,0:0:0:0:
360,352,62440,1,2,0:0:0:0:
312,216,62662,2,0,P|360:196|388:152,1,99.7499969558717,2|8,0:0|0:0,0:0:0:0:
388,56,63107,5,0,0:0:0:0:
256,128,63329,1,2,0:0:0:0:
196,48,63551,2,0,P|148:32|100:48,1,99.7499969558717,8|2,0:0|0:0,0:0:0:0:
4,184,63995,2,0,P|52:200|100:184,1,99.7499969558717,0|2,0:0|0:0,0:0:0:0:
200,136,64440,5,8,0:0:0:0:
248,124,64551,1,0,0:0:0:0:
296,128,64662,1,2,0:0:0:0:
344,144,64773,1,0,0:0:0:0:
380,176,64884,6,0,P|413:260|352:357,1,199.499993911743,4|8,0:0|0:0,0:0:0:0:
264,364,65551,1,2,0:0:0:0:
164,356,65773,6,0,P|132:312|128:268,1,99.7499969558717,0|2,0:0|0:0,0:0:0:0:
200,136,66218,2,0,P|232:180|236:224,1,99.7499969558717,8|2,0:0|0:0,0:0:0:0:
80,136,66662,5,0,0:0:0:0:
140,44,66884,1,8,0:0:0:0:
188,28,66995,1,0,0:0:0:0:
236,32,67107,2,0,P|288:56|312:92,1,99.7499969558717,8|0,0:0|0:0,0:0:0:0:
312,188,67551,5,0,0:0:0:0:
448,144,67773,1,2,1:2:0:0:
316,276,67995,1,8,0:0:0:0:
446,344,68218,1,2,0:0:0:0:
256,344,68440,6,0,P|200:336|168:308,1,99.7499969558717,4|2,0:0|0:0,0:0:0:0:
124,220,68884,1,8,0:0:0:0:
156,124,69107,1,2,0:0:0:0:
248,84,69329,1,0,0:0:0:0:
428,128,69551,2,0,P|392:188|368:204,1,99.7499969558717,0|8,0:0|0:0,0:0:0:0:
236,196,69995,6,0,P|203:262|289:361,1,199.499993911743,4|8,0:0|0:0,0:0:0:0:
380,368,70662,1,8,0:0:0:0:
460,284,70884,1,2,0:0:0:0:
460,284,70995,1,0,0:0:0:0:
460,284,71107,1,0,0:0:0:0:
456,160,71329,1,10,0:0:0:0:
368,60,71551,2,0,P|320:44|264:56,1,99.7499969558717,8|2,0:0|0:0,0:0:0:0:
312,216,71995,6,0,P|248:252|132:212,1,199.499993911743,4|8,0:0|0:0,0:0:0:0:
40,124,72662,2,0,P|104:88|220:128,1,199.499993911743,2|2,0:0|0:0,0:0:0:0:
272,212,73329,1,8,0:0:0:0:
264,312,73551,5,0,0:0:0:0:
224,344,73662,1,8,0:0:0:0:
176,352,73773,2,0,B|120:368|84:324|84:324,1,99.7499969558717,0|2,0:0|0:0,0:0:0:0:
8,212,74218,2,0,B|64:196|100:240|100:240,1,99.7499969558717,8|0,0:0|0:0,0:0:0:0:
172,172,74662,2,0,B|186:115|242:106|242:106,1,99.7499969558717,0|2,0:0|0:0,0:0:0:0:
340,124,75107,1,8,0:0:0:0:
436,232,75329,1,0,0:0:0:0:
308,264,75551,6,0,P|284:315|293:363,2,99.7499969558717,4|0|2,0:0|0:0|0:0,0:0:0:0:
440,132,76218,2,0,P|463:80|454:32,2,99.7499969558717,8|0|2,0:0|0:0|0:0,0:0:0:0:
356,184,76884,1,8,0:0:0:0:
208,48,77107,6,0,P|128:52|68:156,1,199.499993911743,4|2,0:0|0:0,0:0:0:0:
168,140,77773,1,8,0:0:0:0:
124,228,77995,2,0,P|204:224|264:120,1,199.499993911743,4|2,0:0|0:0,0:0:0:0:
316,44,78662,1,8,0:0:0:0:
412,68,78884,1,2,0:0:0:0:
452,100,78995,1,8,0:0:0:0:
468,148,79107,1,4,0:0:0:0:
256,192,79218,12,4,80662,0:0:0:0:
180,132,81107,6,0,P|156:84|112:60,1,99.7499969558717,0|8,0:0|0:0,0:0:0:0:
28,180,81551,2,0,P|52:228|96:252,1,99.7499969558717,2|0,0:0|0:0,0:0:0:0:
192,296,81995,1,0,0:0:0:0:
296,252,82218,1,8,0:0:0:0:
316,144,82440,1,2,0:0:0:0:
424,156,82662,6,0,P|480:204|460:328,1,199.499993911743,4|8,0:0|0:0,0:0:0:0:
220,312,83329,2,0,P|164:264|184:140,1,199.499993911743,4|0,0:0|0:0,0:0:0:0:
216,116,83884,1,0,0:0:0:0:
268,112,83995,1,8,0:0:0:0:
384,68,84218,6,0,P|420:40|484:28,2,99.7499969558717,4|0|8,0:0|0:0|0:0,0:0:0:0:
416,160,84884,2,0,P|460:176|500:216,1,99.7499969558717
412,268,85329,1,12,0:0:0:0:
304,176,85551,1,0,0:0:0:0:
308,224,85662,1,8,0:0:0:0:
288,272,85773,1,0,0:0:0:0:
181,324,85995,1,8,0:0:0:0:
80,252,86218,6,0,P|64:200|68:160,1,95,4|0,0:0|0:0,0:0:0:0:
88,116,86551,1,2,0:0:0:0:
124,84,86662,1,8,0:0:0:0:
176,184,86884,2,0,P|238:124|232:19,1,190,8|0,0:0|0:0,0:0:0:0:
124,84,87551,2,0,P|156:132|280:160,1,190,8|4,0:0|0:0,0:0:0:0:
380,88,88218,5,0,0:0:0:0:
380,88,88329,1,2,0:0:0:0:
380,88,88440,2,0,P|424:112|452:156,1,95,8|8,0:0|0:0,0:0:0:0:
392,224,88884,2,0,L|336:232,2,47.5,0|10|0,0:0|0:0|0:0,0:0:0:0:
472,280,89329,1,8,0:0:0:0:
360,352,89551,1,0,0:0:0:0:
312,364,89662,1,8,0:0:0:0:
264,356,89773,6,0,P|222:332|194:288,1,95,0|2,0:0|0:0,0:0:0:0:
192,200,90218,1,8,0:0:0:0:
228,45,90440,2,0,P|298:71|329:182,1,190,8|2,0:0|0:0,0:0:0:0:
68,272,91107,2,0,B|14:254|16:196|16:196,1,95,8|2,0:0|0:0,0:0:0:0:
44,48,91551,5,4,0:0:0:0:
160,72,91773,1,0,0:0:0:0:
160,72,91884,1,2,0:0:0:0:
160,72,91995,1,8,0:0:0:0:
248,208,92218,6,0,P|196:224|148:208,1,95,8|0,0:0|0:0,0:0:0:0:
116,192,92551,1,2,0:0:0:0:
92,152,92662,1,0,0:0:0:0:
256,48,92884,1,8,0:0:0:0:
356,116,93107,1,2,0:0:0:0:
448,24,93329,6,0,P|484:104|452:204,1,190,4|8,0:0|0:0,0:0:0:0:
324,356,93995,2,0,P|288:276|320:176,1,190,8|2,0:0|0:0,0:0:0:0:
408,264,94662,5,8,0:0:0:0:
408,264,94773,1,2,0:0:0:0:
260,128,94995,1,2,0:0:0:0:
260,128,95107,2,0,P|204:96|96:160,1,190,4|8,0:0|0:0,0:0:0:0:
184,196,95773,6,0,P|168:248|188:300,1,95,8|0,0:0|0:0,0:0:0:0:
204,324,96107,1,8,0:0:0:0:
248,344,96218,1,0,0:0:0:0:
296,344,96329,1,8,0:0:0:0:
336,320,96440,2,0,P|368:276|368:228,1,95,8|0,0:0|0:0,0:0:0:0:
436,136,96884,6,0,P|400:84|272:60,1,190,4|8,0:0|0:0,0:0:0:0:
88,128,97551,2,0,P|124:180|252:204,1,190,4|2,0:0|0:0,0:0:0:0:
288,192,98107,1,0,0:0:0:0:
324,160,98218,1,8,0:0:0:0:
304,36,98440,1,2,0:0:0:0:
196,108,98662,6,0,P|148:160|160:280,1,190,4|8,0:0|0:0,0:0:0:0:
376,328,99329,2,0,P|417:292|401:157,1,190,6|0,0:0|0:0,0:0:0:0:
328,236,99995,1,8,0:0:0:0:
328,236,100218,1,0,0:0:0:0:
232,272,100440,5,4,0:0:0:0:
140,320,100662,1,0,0:0:0:0:
44,280,100884,1,8,0:0:0:0:
28,176,101107,2,0,P|44:96|144:48,1,190,4|2,0:0|0:0,0:0:0:0:
188,174,101773,1,8,0:0:0:0:
224,79,101995,6,0,P|304:65|383:143,1,190,4|0,0:0|0:0,0:0:0:0:
388,180,102551,1,8,0:0:0:0:
371,224,102662,1,8,0:0:0:0:
304,304,102884,1,8,0:0:0:0:
188,336,103107,1,8,0:0:0:0:
72,268,103329,1,8,0:0:0:0:
64,124,103551,1,8,0:0:0:0:
188,32,103773,1,8,0:0:0:0:
