osu file format v5

[General]
AudioFilename: 23 - Guru Guru ~himawari ver.~ (TV size).mp3
AudioLeadIn: 1511
PreviewTime: 34804
Countdown: 0
SampleSet: Normal
StackLeniency: 0.7
Mode: 0
LetterboxInBreaks: 1

[Metadata]
Title:Guru Guru ~himawari ver.~(TV size)
Artist:eufonius
Creator:ztrot
Version:Hard
Source:Himawari!
Tags:guruguru guru himawari ver eufonius

[Difficulty]
HPDrainRate:8
CircleSize:6
OverallDifficulty:7
SliderMultiplier:1.4
SliderTickRate:1

[Events]
//Background and Video events
1,300,"[GNU]Himawari - 03[FB8F8B6E]XviD_xvid.avi"
0,0,"Booklet 01.jpg"
//Break Periods
//Storyboard Layer 0 (Background)
//Storyboard Layer 1 (Failing)
//Storyboard Layer 2 (Passing)
//Storyboard Layer 3 (Foreground)
//Storyboard Sound Samples
//Background Colour Transformations
3,100,163,162,255

[TimingPoints]
881,529.988516915467,4,1,0,60,1

[HitObjects]
48,56,880,1,0
184,152,1675,1,0
240,152,1940,1,0
384,64,2735,1,0
384,120,3000,1,0
328,120,3265,1,0
328,176,3530,1,0
272,176,3795,1,0
160,176,4325,5,8
104,176,4590,1,8
64,72,5120,1,0
104,112,5385,1,0
64,152,5650,1,0
104,184,5915,2,0,B|136:208|88:256,2,70
72,224,6710,1,0
104,272,6975,1,8
160,272,7240,1,8
328,272,8035,2,0,B|432:272,1,70,0|8
448,56,9360,5,0
336,56,9890,1,0
296,96,10155,1,0
328,136,10420,2,0,B|352:176|280:216,2,70
280,160,11215,1,0
312,208,11480,2,0,B|312:304|224:304|216:232,1,140
184,232,12275,2,0,B|128:160,1,70,0|8
160,104,13600,5,0
240,184,14130,1,0
240,240,14395,1,0
352,240,14925,1,0
408,240,15190,1,0
440,192,15455,1,0
416,136,15720,5,0
328,64,16250,1,0
216,64,16780,1,0
104,64,17310,1,0
104,176,17840,1,4
296,56,19165,5,0
296,128,19430,1,0
296,200,19695,2,0,B|296:272,1,70
352,272,20225,2,0,B|408:192,1,70
448,120,21020,5,0
448,176,21285,1,0
392,176,21550,2,0,B|296:176,1,70
400,256,22345,5,0
344,256,22610,2,0,B|64:192,1,280,0|4
24,168,23935,5,0
56,120,24200,1,0
96,160,24465,1,0
136,120,24730,1,0
176,160,24995,1,0
216,120,25260,1,0
248,160,25525,1,0
264,176,25657,1,0
288,192,25790,2,0,B|352:128,1,70,0|4
384,168,26320,5,0
424,224,26585,1,0
432,248,26717,1,0
408,264,26850,1,0
296,264,27380,1,0
240,256,27645,1,0
184,248,27910,1,4
96,248,28440,5,0
144,216,28705,1,4
168,200,28837,1,4
192,184,28970,1,0
304,184,29500,1,0
360,184,29765,1,0
416,184,30030,1,4
504,112,30560,2,0,B|56:112,1,420,0|4
64,168,32415,6,0,B|64:264,3,70
120,240,33475,1,0
144,240,33607,1,0
168,240,33740,1,0
168,296,34005,2,0,B|168:392,1,70,0|4
208,264,34800,5,0
208,208,35065,1,0
208,176,35197,1,0
208,144,35330,1,0
264,128,35595,5,0
320,128,35860,1,0
208,136,36390,1,0
240,176,36655,1,0
256,192,36787,1,0
272,208,36920,1,0
384,208,37450,1,0
496,208,37980,1,4
352,32,39040,5,0
352,88,39305,1,0
352,144,39570,1,0
352,200,39835,1,4
224,200,40365,1,0
224,144,40630,1,0
224,88,40895,1,0
296,88,41160,5,0
296,200,41690,1,0
376,272,42220,1,0
264,272,42750,1,4
264,168,43280,5,0
320,168,43545,1,0
320,112,43810,1,0
376,112,44075,1,4
376,0,44605,1,0
352,8,44737,1,0
328,24,44870,1,0
288,64,45135,1,0
248,104,45400,5,0
208,144,45665,1,0
176,192,45930,1,4
280,232,46460,1,0
208,144,46990,5,0
128,64,47519,5,4
128,120,47784,5,0
136,144,47917,1,0
152,160,48049,1,4
192,192,48314,5,0
216,208,48447,1,0
240,208,48579,1,4
288,184,48844,5,0
312,168,48977,1,0
328,144,49109,1,4
344,88,49374,5,0
400,88,49639,1,0
400,144,49904,1,0
400,200,50169,1,0
344,200,50434,1,0
288,200,50699,1,0
232,200,50964,1,0
200,248,51229,1,0
128,336,51759,5,4
72,176,52554,1,0
72,120,52819,1,0
128,112,53084,1,0
160,160,53349,1,0
192,112,53614,1,0
216,160,53879,1,0
320,112,54409,1,0
432,112,54939,1,4
192,88,55999,5,0
224,128,56264,1,0
264,160,56529,1,0
264,216,56794,1,0
264,272,57059,1,0
208,296,57324,1,0
152,288,57589,1,0
72,208,58119,5,0
136,120,58649,1,0
248,120,59179,1,0
360,120,59709,1,0
336,224,60239,6,0,B|192:224,1,140
152,264,61034,1,0
152,320,61299,1,0
152,152,62094,5,0
152,120,62227,1,0
152,88,62359,1,0
264,88,62889,1,0
264,144,63154,1,0
80,352,64479,5,0
80,240,65009,1,0
80,128,65539,1,0
192,128,66069,1,0
288,184,66599,5,0
176,184,67129,1,0
304,288,67924,5,0
304,232,68189,1,0
272,232,68322,1,0
240,232,68454,1,0
184,232,68719,5,0
184,288,68984,1,0
240,288,69249,1,4
