osu file format v5

[General]
AudioFilename: 23 - Guru Guru ~himawari ver.~ (TV size).mp3
AudioLeadIn: 1511
PreviewTime: 34804
Countdown: 0
SampleSet: Normal
StackLeniency: 0.7
Mode: 0
LetterboxInBreaks: 1

[Metadata]
Title:Guru Guru ~himawari ver.~(TV size)
Artist:eufonius
Creator:ztrot
Version:Easy
Source:Himawari!
Tags:guruguru guru himawari ver eufonius

[Difficulty]
HPDrainRate:3
CircleSize:4
OverallDifficulty:3
SliderMultiplier:1.4
SliderTickRate:1

[Events]
//Background and Video events
1,300,"[GNU]Himawari - 03[FB8F8B6E]XviD_xvid.avi"
0,0,"Booklet 01.jpg"
//Break Periods
//Storyboard Layer 0 (Background)
//Storyboard Layer 1 (Failing)
//Storyboard Layer 2 (Passing)
//Storyboard Layer 3 (Foreground)
//Storyboard Sound Samples
//Background Colour Transformations
3,100,163,162,255

[TimingPoints]
881,529.988516915467,4,1,0,60,1

[HitObjects]
48,64,880,1,0
48,288,1940,1,0
272,288,3000,1,0
384,288,3530,1,0
496,288,4060,1,8
480,64,5120,5,0
256,64,6180,1,0
32,72,7240,1,0
32,240,8035,2,0,B|32:336,1,70,0|8
256,296,9360,5,0
344,88,10420,1,0
448,288,11480,1,0
448,120,12275,6,0,B|448:216,1,70,0|8
264,312,13600,1,0
32,224,15720,5,0
128,224,16250,1,0
224,224,16780,1,0
320,224,17310,1,0
416,224,17840,1,4
232,96,18900,5,0
344,96,19430,1,0
456,96,19960,1,0
424,144,20225,2,0,B|520:144,1,70
312,144,21285,5,0
256,144,21550,2,0,B|160:144,1,70
264,200,22345,1,0
296,248,22610,1,4
256,192,23140,12,0,25790
88,160,26320,5,0
200,160,26850,1,0
312,160,27380,1,0
424,160,27910,1,4
424,272,28440,5,0
312,272,28970,1,0
200,272,29500,1,0
88,272,30030,1,4
88,168,30560,2,2,B|536:168,1,420,2|2
512,280,32680,5,0
400,280,33210,1,0
288,280,33740,1,0
176,280,34270,1,4
176,168,34800,5,0
288,168,35330,1,0
288,280,35860,1,0
176,280,36390,1,0
64,280,36920,1,0
64,168,37450,5,0
176,168,37980,1,4
400,168,39040,5,0
400,224,39305,1,0
400,280,39570,1,0
400,336,39835,1,4
176,168,41160,5,0
64,168,41690,1,0
64,280,42220,1,0
176,280,42750,1,4
288,280,43280,5,0
344,280,43545,1,0
344,224,43810,1,0
344,168,44075,1,0
336,56,44605,1,0
280,56,44870,1,0
184,120,45400,1,0
184,232,45930,1,4
296,232,46460,1,0
216,152,46990,5,0
136,72,47519,1,4
216,216,48314,5,0
272,216,48579,1,0
440,216,49374,5,0
480,176,49639,1,0
472,120,49904,1,0
416,120,50169,1,0
360,120,50434,1,0
256,160,50964,5,0
256,216,51229,1,0
256,192,51759,12,4,54939
56,64,55999,5,0
120,144,56529,1,0
184,232,57059,1,0
296,232,57589,1,0
360,144,58119,5,0
424,56,58649,1,0
424,168,59179,1,0
424,280,59709,1,0
312,280,60239,6,0,B|168:280,1,140
112,280,61034,1,0
112,224,61299,1,0
336,224,62359,5,0
448,224,62889,1,0
448,168,63154,1,0
200,304,64479,5,0
200,192,65009,1,0
200,80,65539,1,0
312,80,66069,1,0
312,192,66599,5,0
200,192,67129,1,0
328,296,67924,5,0
272,296,68189,1,0
160,296,68719,5,0
216,296,68984,1,0
272,296,69249,1,4
