osu file format v8

[General]
AudioFilename: Clannad_Movie_-_Chiisa_na_Te_no_Hira.mp3
AudioLeadIn: 982
PreviewTime: 119213
Countdown: 0
SampleSet: Soft
StackLeniency: 0.6
Mode: 0
LetterboxInBreaks: 0

[Editor]
DistanceSpacing: 0.9
BeatDivisor: 4
GridSize: 8

[Metadata]
Title:Chiisana Tenohira
Artist:eufonius
Creator:makruk
Version:Insane
Source:CLANNAD
Tags:frost-b-spec younashi merci_FA

[Difficulty]
HPDrainRate:7
CircleSize:5
OverallDifficulty:6
ApproachRate:7
SliderMultiplier:1.4
SliderTickRate:1

[Events]
//Background and Video events
0,0,"1255549629606.jpg"
//Break Periods
2,25814,27115
2,36917,37917
2,77425,85327
2,97529,99429
//Storyboard Layer 0 (Background)
//Storyboard Layer 1 (Fail)
//Storyboard Layer 2 (Pass)
//Storyboard Layer 3 (Foreground)
//Storyboard Sound Samples
//Background Colour Transformations
3,100,253,226,164

[TimingPoints]
410,600.120024004801,4,2,0,60,1,0
119213,-100,4,2,0,60,0,1

[Colours]
Combo1 : 221,248,192
Combo2 : 255,223,176
Combo3 : 206,255,245
Combo4 : 251,230,247
Combo5 : 215,196,201

[HitObjects]
400,64,19613,6,8,C|160:264,1,280
424,320,22014,2,0,C|464:320,4,35
120,96,24414,2,0,L|360:264,1,280
256,192,28015,6,0,L|296:192,3,35
256,192,28615,2,0,L|216:192,3,35
256,192,29215,1,0
200,160,29515,1,0
200,128,29665,1,0
200,96,29815,1,2
200,224,30416,2,0,C|200:264,4,35
304,160,31616,5,0
304,128,31766,1,0
328,104,31916,1,0
344,128,32066,1,0
344,160,32216,1,2
216,160,32816,5,0
216,128,32966,1,0
232,104,33116,1,0
248,128,33266,1,0
248,160,33416,1,2
344,240,34016,2,0,L|200:240,1,140
96,176,35216,1,0
224,176,35817,1,0
288,176,36117,1,2
288,176,36267,1,2
288,176,36417,1,2
288,176,36717,1,4
104,64,38817,5,0
104,96,38967,1,0
104,128,39117,1,0
104,160,39267,1,0
104,192,39417,2,2,C|104:290,1,70
168,256,40017,2,2,C|320:256,1,140
368,256,40918,2,0,L|368:184,1,70
368,120,41518,2,0,C|408:120,2,35
304,120,42118,2,0,C|264:120,6,35,0|0|0|0|0|0|0
176,104,43618,2,0,L|176:144,1,35
176,168,43918,2,2,L|176:208,1,35
176,232,44218,2,0,C|456:232,1,280
456,104,46019,1,4
208,104,47219,2,0,L|208:168,2,35
208,168,47819,2,0,L|208:224,2,35
264,200,48419,5,0
336,96,49019,1,0
336,96,49169,1,0
336,96,49319,1,0
400,96,49619,6,0,C|400:136,1,35
400,160,49919,1,0
400,224,50219,1,0
368,224,50369,1,0
336,224,50520,2,0,C|336:8,1,210
464,8,52020,1,0
464,136,52620,2,0,L|464:216,1,70
400,192,53220,6,2,C|400:232,1,35
400,256,53520,1,0
376,272,53670,1,0
344,280,53820,2,2,C|272:280,1,70
248,280,54270,1,0
216,264,54420,2,2,C|168:208,1,70
176,176,54870,1,0
184,144,55020,2,2,C|192:72,1,70
224,72,55471,1,0
256,72,55621,2,0,C|296:72,8,35
480,192,58021,5,0
480,192,58171,1,0
480,192,58321,1,0
416,192,58621,1,0
416,192,58771,1,0
416,192,58921,1,0
352,192,59221,1,4
256,192,59671,1,0
256,192,59821,2,0,C|480:192,1,210
416,224,61022,2,0,L|264:224,1,140
328,112,62222,5,0
312,144,62372,1,0
296,176,62522,1,0
320,192,62672,1,0
344,216,62822,2,2,L|280:176|344:56,1,210
400,80,64022,1,0
400,208,64622,1,0
272,208,65222,1,4
512,288,66423,6,0,L|368:288,1,140
256,192,67623,1,0
256,224,67773,1,0
256,256,67923,1,0
256,288,68073,1,0
256,320,68223,1,4
384,320,68823,2,0,L|384:176,1,140
368,120,69723,2,0,L|128:120,1,210
160,248,71224,1,0
288,248,71824,5,0
288,248,72124,2,0,L|440:248,1,140
432,184,73024,6,4,L|432:96,1,70
432,184,73624,6,4,L|432:112,1,70
432,184,74224,6,4,L|432:104,1,70
368,112,74824,5,0
368,112,74974,1,0
368,112,75124,1,0
368,112,75274,1,0
368,112,75425,1,4
240,120,76025,2,0,L|240:160,3,35
240,184,76625,2,4,L|240:328,1,140
318,184,86227,5,0
256,184,86527,1,0
190,184,86827,2,0,L|328:184,1,140
329,184,87577,1,0
329,184,87727,1,0
329,184,87877,1,0
329,184,88027,1,4
424,104,88627,1,4
512,8,89227,1,0
488,32,89377,1,0
464,56,89527,1,0
440,80,89677,1,0
416,104,89827,1,0
368,152,90127,1,4
152,280,91328,5,0
186,280,91478,1,0
216,280,91628,1,4
280,280,91928,1,0
314,280,92078,1,0
346,280,92228,1,4
352,344,92528,1,0
480,344,93128,1,0
480,280,93428,1,4
480,152,94028,5,0
480,152,94178,1,0
480,152,94328,1,0
480,152,94478,1,0
480,152,94628,1,4
352,136,95228,1,0
352,136,95529,1,0
352,136,95679,1,0
352,136,95829,1,0
288,136,96129,1,0
224,136,96429,2,0,L|223:277|304:272,1,210
318,184,100329,5,0
256,184,100630,1,0
192,184,100930,1,0
192,120,101230,2,0,L|192:80,4,35
192,184,102130,1,0
192,312,102730,6,0,L|192:352,4,35
248,344,103630,1,0
248,344,103780,1,0
248,344,103930,1,0
248,344,104080,1,0
248,344,104230,1,4
376,344,104830,2,2,L|376:304,2,35
408,344,105280,1,0
440,344,105431,1,0
440,248,105731,5,0
440,184,106031,1,2
416,168,106181,1,2
408,200,106331,1,2
392,168,106481,1,2
376,200,106631,1,2
312,200,106931,1,0
184,200,107531,5,0
184,136,107831,1,0
184,72,108131,1,0
248,72,108431,2,0,L|288:72,1,35
248,72,108731,2,0,L|272:104,1,35
248,72,109031,1,4
376,72,109631,5,0
376,136,109931,1,2
376,136,110081,1,2
376,136,110231,1,2
376,200,110532,1,2
376,200,110682,1,2
376,200,110832,1,2
376,264,111132,1,2
376,264,111282,1,2
376,264,111432,1,2
312,264,111732,1,4
184,272,112332,6,0,L|184:232,4,35
184,336,113232,2,0,L|256:336,1,70
320,336,113832,1,4
320,208,114432,1,4
320,144,114732,1,0
320,144,114882,1,0
320,144,115032,1,4
256,144,115332,1,0
256,144,115483,1,0
256,144,115633,1,4
504,144,116833,5,0
376,144,117433,1,0
312,144,117733,1,0
312,144,117883,1,0
312,144,118033,1,0
248,144,118333,1,4
256,192,119083,12,0,120434
256,192,121034,5,0
256,192,121334,1,0
128,192,121934,5,2
128,192,122084,1,2
128,192,122234,1,2
128,128,122534,1,0
192,128,122834,1,0
256,128,123134,1,0
256,192,123434,6,2,L|256:232,3,35
256,256,124034,2,0,L|256:45,1,210
320,48,125234,1,2
320,80,125384,1,2
320,112,125535,1,2
320,176,125835,1,0
320,240,126135,1,0
192,240,126735,5,0
192,176,127035,1,0
192,240,127335,1,0
192,304,127635,2,2,L|192:264,4,35
288,304,128835,5,0
288,304,128985,1,0
288,304,129135,1,0
352,304,129435,1,0
352,304,129585,1,0
352,304,129735,1,0
352,240,130035,1,4
352,176,130335,1,0
352,176,130486,1,0
352,176,130636,1,0
352,112,130936,1,4
224,112,131536,6,4,L|304:112,1,70
360,112,132136,2,4,L|287:112,1,70
290,112,132736,1,0
224,112,133036,1,0
224,112,133186,1,0
224,112,133336,1,0
224,112,133486,1,0
224,112,133636,1,4
224,240,134236,1,4
104,280,134836,1,4
168,280,135136,1,0
200,280,135286,1,0
232,280,135437,1,0
360,272,136037,5,0
360,208,136337,1,0
360,208,136487,1,0
360,208,136637,1,0
360,144,136937,2,0,L|359:53|288:56,1,140
176,192,138437,5,0
240,192,138737,1,2
272,192,138887,1,2
304,192,139037,1,2
368,192,139337,1,2
400,192,139487,1,2
432,192,139637,1,2
328,112,140237,5,0
392,112,140538,1,0
400,240,141138,1,0
400,240,141288,1,0
400,240,141438,1,0
400,240,141588,1,0
400,240,141738,1,0
336,240,142038,1,0
272,240,142338,1,0
200,240,142638,1,0
200,304,142938,1,0
200,304,143088,1,0
200,304,143238,1,2
264,304,143538,1,0
328,304,143838,5,0
328,304,143988,1,0
328,304,144138,2,2,L|328:88,1,210
328,94,145338,1,0
456,104,145939,5,2
456,136,146089,1,2
456,168,146239,1,2
456,232,146539,1,0
456,296,146839,1,0
432,312,146989,1,0
400,328,147139,1,0
368,336,147289,1,0
336,336,147439,1,0
304,328,147589,1,0
272,320,147739,1,0
248,304,147889,1,0
216,288,148039,5,4
216,224,148339,2,4,L|216:184,2,35
280,224,148939,2,0,L|280:184,1,35
280,189,149239,2,2,L|280:80|384:80,1,210
384,144,150740,6,0,L|384:184,2,35
384,80,151340,1,0
320,80,151640,5,2
296,104,151790,1,0
272,80,151940,1,2
272,144,152240,5,2
296,160,152390,1,2
320,144,152540,1,2
320,208,152840,5,2
296,224,152990,1,2
272,208,153140,1,2
296,264,153440,5,4
296,264,154040,1,4
320,16,155240,1,2
288,16,155390,1,2
256,16,155541,1,4
256,80,155841,5,2
288,80,155991,1,2
320,80,156141,1,4
256,192,156741,12,4,158241
