osu file format v5

[General]
AudioFilename: 01 - Apocrypha.mp3
AudioLeadIn: 0
PreviewTime: -1
Countdown: 0
SampleSet: Soft
StackLeniency: 0.7
Mode: 0
LetterboxInBreaks: 1
EditorBookmarks: 4042,84042

[Metadata]
Title:Apocrypha
Artist:eufonius
Creator:kioukiou
Version:Normal
Source:
Tags:

[Difficulty]
HPDrainRate:4
CircleSize:4
OverallDifficulty:6
SliderMultiplier:1.1
SliderTickRate:2

[Events]
//Background and Video events
0,0,"eufonius-Apocrypha.jpg"
//Break Periods
2,74642,82992
//Storyboard Layer 0 (Background)
//Storyboard Layer 1 (Failing)
//Storyboard Layer 2 (Passing)
//Storyboard Layer 3 (Foreground)
//Storyboard Sound Samples
//Background Colour Transformations
3,100,163,162,255

[TimingPoints]
42,400,4,2,1,100,1
45442,-100,4,1,1,70,0
154442,-100,4,1,1,0,0

[Colours]
Combo1 : 228,171,133
Combo2 : 203,78,78
Combo3 : 198,137,224

[HitObjects]
432,64,4042,1,0
432,192,4442,1,0
432,192,4642,2,0,B|312:192,1,110
320,128,5242,1,0
320,128,5442,2,0,B|288:80|192:80|168:136,2,165
288,256,7042,6,0,B|288:328,2,55
240,208,7642,1,0
240,208,7842,2,0,B|120:208,1,110
104,272,8442,1,0
104,272,8642,2,0,B|184:336|256:272,1,165
253,274,9442,1,2
384,272,9842,1,0
384,272,10042,1,2
384,136,10442,6,0,B|384:56,2,55
352,192,11042,2,0,B|272:248|184:184,2,165
352,192,12442,1,2
24,192,13442,5,0
24,192,13642,2,0,B|104:144|192:200,2,165
24,256,15042,1,0
24,256,15242,1,2
24,256,15442,2,0,B|80:304|128:248,1,110,0|2
256,256,16242,1,2
256,56,16842,6,0,B|176:56,2,55,2|0|0
256,120,17442,2,0,B|432:120,2,165,2|2|2
120,120,19042,1,2
120,120,19242,1,2
120,248,19642,1,2
120,248,19842,6,0,B|40:248,2,55,0|2|0
184,248,20442,1,0
184,248,20642,2,0,B|280:328|400:240,2,220,2|0|2
184,112,22642,1,0
184,112,22842,1,2
296,48,23242,5,0
296,48,23442,1,0
360,48,23642,1,0
360,48,23842,2,0,B|360:176,2,110
264,136,25042,1,0
264,136,25242,2,0,B|224:88|152:88|116:142,1,165
120,264,26242,5,0
120,264,26442,1,0
248,264,26842,1,0
248,264,27042,1,0
424,72,27842,2,0,B|480:32,2,55
360,72,28442,1,0
360,72,28642,2,0,B|304:120|344:184,1,110,0|2
144,208,29642,6,0,B|96:272|144:352|232:312|224:240,2,220,4|0|0
144,208,31442,1,2
144,72,31842,1,2
272,72,32242,6,0,B|344:72,2,55
208,72,32842,2,0,B|152:96|152:200|224:216,1,165
336,208,33842,1,0
328,72,34242,2,0,B|256:72,2,55,2|2|2
456,72,35042,1,2
400,232,36042,6,0,B|416:200|448:200|464:216|480:240|488:264|480:296|456:312|432:336|392:320|392:280,2,220,4|0|0
336,232,37842,2,0,B|200:232,1,110,2|2
224,96,38642,6,0,B|184:56,2,55
224,160,39242,2,0,B|88:160,1,110
88,224,39842,2,0,B|208:224,2,110,2|2|2
288,224,41242,6,0,B|344:176|280:120,1,110
192,224,42042,2,0,B|136:272|208:336,1,110
256,192,42642,12,4,45242
416,72,45642,5,0
280,72,46042,1,0
280,72,46242,2,0,B|176:152,1,110
144,184,46842,1,0
192,232,47042,2,0,B|296:152,1,110
288,232,47642,2,0,B|288:312,1,55
408,232,48242,5,0
408,232,48442,2,0,B|456:184|392:112,1,110
272,136,49242,1,0
136,136,49642,1,0
136,200,49842,1,0
136,264,50042,2,0,B|152:304|264:304|296:264,1,165,0|2
288,208,50842,1,0
288,144,51042,2,0,B|336:96|398:153,1,110,2|2
184,144,52042,6,0,B|112:88|16:152,1,165
32,272,53042,1,0
32,272,53242,1,0
160,272,53642,1,0
288,272,54042,1,0
336,224,54242,1,0
288,176,54442,2,0,B|160:176,1,110
200,112,55042,5,0
200,112,55242,2,0,B|336:112,1,110
440,112,56042,1,0
440,112,56242,1,0
352,208,56642,2,0,B|296:264,2,55,8|8|8
256,112,57442,1,8
176,216,57842,1,8
176,216,58042,1,4
96,320,58442,6,0,B|152:360|200:360|269:307,2,165
104,184,60042,1,0
104,48,60442,1,0
168,48,60642,1,0
168,112,60842,2,0,B|168:248,1,110
234,222,61442,1,0
234,222,61642,2,0,B|234:110,2,110
232,288,62642,1,0
232,288,62842,1,0
360,288,63242,6,0,B|424:288|424:208,1,110,8|8
424,152,63842,2,0,B|424:80|344:80,2,110,8|8|8
288,152,65042,1,0
288,152,65242,1,0
152,152,65642,1,0
216,264,66042,2,0,B|216:344,2,55,0|8|8
80,256,66842,1,0
80,192,67042,6,0,B|80:72,2,110
144,192,68042,1,0
272,192,68442,1,0
208,72,68842,2,0,B|208:16,2,55,0|8|8
336,72,69642,6,0,B|384:96|384:200|328:216,1,165
204,213,70642,1,0
256,192,71042,12,4,74442
424,96,84042,6,0,B|472:56,2,55
424,160,84642,2,0,B|424:280,2,110
288,160,85842,1,8
288,160,86042,1,8
152,160,86442,2,0,B|88:160,2,55,0|8|8
152,224,87042,5,0
152,224,87242,2,0,B|152:296,2,55
216,224,87842,2,0,B|216:320|328:320,1,165
328,184,88842,1,0
328,48,89242,1,0
192,48,89642,1,0
192,112,89842,1,8
128,112,90042,1,8
128,240,90442,6,0,B|152:288|232:288|280:288|332:232,2,220
128,104,92442,1,0
256,104,92842,1,0
256,104,93042,1,8
256,104,93242,1,8
256,232,93642,5,0
368,168,94042,1,0
368,232,94242,1,0
368,296,94442,1,0
480,232,94842,1,0
480,232,95042,6,0,B|480:312,2,55,0|8|8
480,96,95842,1,8
344,96,96242,1,8
344,96,96442,1,4
208,96,96842,6,0,B|120:136|120:224|216:264,1,220
336,264,98042,1,0
336,128,98442,1,0
448,192,98842,1,0
448,320,99242,2,0,B|448:384,2,55,0|8|8
384,320,99842,5,0
384,256,100042,2,0,B|384:176,2,55
320,256,100642,2,0,B|296:208|208:208|168:265,1,165
40,256,101642,1,0
40,120,102042,1,8
40,120,102242,1,8
168,120,102642,1,8
168,120,102842,1,12
296,120,103242,6,0,B|344:72|408:136,2,110
296,184,104242,1,0
296,248,104442,2,8,B|248:296|184:232,2,110,8|0|0
424,248,105642,1,0
424,112,106042,1,8
424,112,106242,5,0
424,112,106442,2,0,B|368:56|312:120,1,110
328,168,107042,2,0,B|328:304,2,110
256,192,108042,12,0,109642
96,64,110042,5,2
96,192,110442,1,0
224,192,110842,1,2
352,192,111242,2,0,B|408:136,1,55
296,240,111842,1,2
160,240,112242,6,0,B|160:320,2,55
160,176,112842,1,0
160,40,113242,1,0
160,40,113442,2,0,B|208:80|274:33,1,110
392,40,114242,1,0
392,40,114442,2,0,B|448:96|376:152,1,110
328,136,115042,2,0,B|328:256,1,110,0|0
328,246,115642,1,4
192,248,116042,6,0,B|176:176|32:176|16:256,2,220
192,248,117842,1,2
320,248,118242,1,2
320,112,118642,6,0,B|392:112,2,55
256,112,119242,1,0
120,112,119642,1,0
112,240,120042,2,0,B|48:288,2,55
240,240,120842,1,0
360,192,121242,6,0,B|408:144|360:88,1,110
272,192,122042,2,0,B|216:240|280:304,1,110
256,192,122642,12,4,125242
424,80,125642,5,0
288,80,126042,1,0
288,80,126242,2,0,B|216:128|296:176,2,110
88,80,127642,1,0
88,80,127842,1,0
88,208,128242,5,0
88,208,128442,1,0
216,208,128842,1,0
312,120,129242,1,0
408,208,129642,1,0
408,208,129842,2,0,B|456:264|392:312,2,110,0|0|2
272,208,131042,1,2
136,208,131442,1,2
136,208,131642,1,4
32,128,132042,6,0,B|32:56|120:56,1,110
165,56,132642,2,0,B|231:56|231:141,2,110
167,121,133642,1,0
168,248,134042,1,0
288,184,134442,2,0,B|360:184,2,55,0|8|8
152,184,135242,6,0,B|40:184,1,110
72,120,135842,2,0,B|192:120,1,110
312,120,136642,1,8
312,120,136842,1,8
312,120,137042,1,8
312,248,137442,1,8
176,248,137842,1,8
176,248,138042,1,4
80,160,138442,6,0,B|112:96|192:96|211:174,2,165
80,224,139842,2,0,B|112:288|192:288|208:208,2,165
80,160,141242,1,0
168,56,141642,1,0
248,160,142042,1,0
248,160,142242,1,0
360,88,142642,2,0,B|408:120|408:208|352:240,2,165,0|0|2
224,88,144242,1,2
88,88,144642,1,2
152,200,145042,5,8
152,200,145242,1,8
280,200,145642,2,0,B|336:200,2,55,0|8|8
216,200,146242,5,0
216,200,146442,2,0,B|136:120|240:40,1,165
352,56,147442,1,0
352,184,147842,1,0
352,184,148042,2,0,B|336:248|256:264,3,110,2|2|2|2
144,256,149642,5,0
144,120,150042,1,0
208,120,150242,1,0
72,120,150642,2,0,B|16:176|88:232,1,110
256,192,151242,12,0,154442
