osu file format v6

[General]
AudioFilename: TVAtrue_tears_eufoniusAngel_on_tree.mp3
AudioLeadIn: 1996
PreviewTime: 586
Countdown: 1
SampleSet: Soft
StackLeniency: 0.7
Mode: 0
LetterboxInBreaks: 1

[Editor]
DistanceSpacing: 0.800000011920929
BeatDivisor: 4
GridSize: 8

[Metadata]
Title:Angel on tree
Artist:eufonius
Creator:frost-b-spec
Version:Normal
Source:true tears
Tags:image song isurugi noe

[Difficulty]
HPDrainRate:8
CircleSize:4
OverallDifficulty:4
SliderMultiplier:1.4
SliderTickRate:1

[Events]
//Background and Video events
0,0,"ttbg.png"
//Break Periods
2,52495,56451
2,88971,103951
//Storyboard Layer 0 (Background)
//Storyboard Layer 1 (Fail)
//Storyboard Layer 2 (Pass)
//Storyboard Layer 3 (Foreground)
//Storyboard Sound Samples
//Background Colour Transformations
3,100,163,162,255

[TimingPoints]
590,500,4,2,0,41,1,0
24527,500,4,2,0,41,1,0
28589,500,4,2,0,41,1,0
33295,500,4,2,0,70,1,0
57771,500,4,2,0,71,1,0
72521,-100,4,2,0,41,0,0
73021,-100,4,2,0,70,0,0
88521,-100,4,2,0,40,0,0
89021,-100,4,2,0,70,0,0
126646,-200,4,2,0,70,0,0
128396,-100,4,2,0,91,0,0
128896,-100,4,2,0,80,0,0
129396,-100,4,2,0,69,0,0
130146,-100,4,2,0,50,0,0
130646,-100,4,2,0,31,0,0
131396,-100,4,2,0,0,0,0

[Colours]
Combo1 : 255,207,136
Combo2 : 172,255,170
Combo3 : 130,253,253
Combo4 : 248,173,254

[HitObjects]
160,96,590,1,0
272,96,1090,1,2
384,96,1590,1,0
496,96,2090,2,0,B|368:192,1,140,2|0
384,180,2840,1,0
384,180,3090,1,2
384,288,3590,1,0
296,216,4090,1,2
192,256,4590,5,0
136,256,4840,1,0
80,256,5090,1,2
56,144,5590,1,0
56,88,5840,1,0
56,32,6090,1,2
168,32,6590,1,0
280,32,7090,1,2
392,32,7590,2,0,B|488:64|312:152|464:112,1,140
464,224,8590,5,0
360,272,9090,2,0,B|200:272,1,140,2|0
220,272,9840,1,0
220,272,10090,1,2
128,200,10590,1,0
128,144,10840,1,0
128,88,11090,1,2
240,64,11590,1,0
296,64,11840,1,0
352,64,12090,1,2
464,64,12590,5,0
464,176,13090,2,0,B|368:304,1,140,2|0
380,288,13840,1,0
380,288,14090,2,0,B|240:336,1,140,2|0
247,333,14840,1,0
247,333,15090,2,0,B|137:277|122:266,1,140
32,200,16090,1,2
144,192,16590,5,0
200,288,17090,1,2
88,288,17590,1,0
8,208,18090,2,0,B|136:112,1,140
120,124,18840,1,0
120,124,19090,1,2
120,124,19590,1,0
224,163,20090,1,2
322,110,20590,5,0
376,88,20840,1,0
424,120,21090,1,2
456,224,21590,1,0
456,280,21840,1,0
416,320,22090,1,2
320,272,22590,1,0
232,336,23090,1,2
120,336,23590,2,0,B|56:176,1,140,0|2
40,95,24527,5,0
152,96,25027,2,0,B|312:96,1,140,2|0
292,96,25777,1,0
292,96,26027,1,2
384,168,26527,1,0
408,216,26777,1,0
384,264,27027,1,2
272,264,27527,1,0
216,248,27777,1,0
176,280,28027,1,2
48,304,28590,5,0
48,192,29090,2,8,B|144:64,1,140,2|0
132,80,29840,1,0
132,80,30090,2,8,B|272:32,1,140,2|0
264,34,30840,1,0
264,34,31090,2,8,B|399:95,1,140,2|0
480,168,32090,5,4
256,96,33295,6,0,B|256:256,1,140,2|0
256,236,34045,1,0
256,236,34295,1,2
336,160,34795,1,0
392,176,35045,1,0
416,224,35295,1,2
376,264,35545,2,0,B|312:200|312:352|256:256|224:272|208:208,1,210
168,48,37295,5,2
112,32,37545,1,0
64,56,37795,1,0
56,112,38045,1,0
56,168,38295,1,2
160,120,38795,1,0
216,120,39045,1,0
272,120,39295,1,2
328,120,39545,2,0,B|352:120|400:96|464:160|440:280|424:240|432:288|432:288,1,210
208,272,41295,5,2
152,248,41545,1,0
136,192,41795,1,0
128,136,42045,1,0
104,88,42295,1,2
208,40,42795,1,0
264,56,43045,1,0
320,40,43295,1,2
376,56,43545,2,0,B|400:96|376:136,3,70
280,208,45295,5,2
224,224,45545,1,0
184,264,45795,1,0
136,288,46045,1,0
88,256,46295,1,2
72,144,46795,1,0
88,88,47045,1,0
136,64,47295,2,0,B|192:136|280:64|224:-8|352:64|352:64|352:64,1,210
344,104,48295,1,2
336,328,49295,5,2
256,104,50295,1,2
256,160,50545,1,0
200,160,50795,1,0
200,216,51045,1,0
256,216,51295,1,2
256,328,51795,2,8,B|256:168,1,140,2|2
240,288,57771,5,2
134,326,58271,1,0
32,288,58771,2,0,B|160:192,1,140,2|0
144,204,59521,1,0
144,204,59771,1,2
144,92,60271,1,0
223,171,60771,1,2
328,128,61271,5,0
376,128,61521,1,0
432,128,61771,1,2
456,240,62271,1,0
464,296,62521,1,0
440,344,62771,1,2
336,312,63271,1,0
232,352,63771,1,2
120,344,64271,2,0,B|0:336|136:184|96:272,1,140
40,111,65271,5,0
152,112,65771,2,8,B|312:112,1,140,2|0
292,112,66521,1,0
292,112,66771,1,2
384,184,67271,1,0
360,232,67521,1,0
360,288,67771,1,2
280,368,68271,1,0
248,328,68521,1,0
200,304,68771,1,2
48,320,69271,5,0
48,208,69771,2,0,B|144:80,1,140,2|0
132,96,70521,1,0
132,96,70771,2,0,B|272:48,1,140,2|0
264,50,71521,1,0
264,50,71771,2,0,B|399:111,1,140,2|0
480,184,72771,1,4
368,192,73271,5,0
312,96,73771,1,2
424,96,74271,1,0
504,168,74771,2,0,B|376:263,1,140,2|0
391,251,75521,1,0
391,251,75771,1,2
391,251,76271,1,0
286,212,76771,1,2
192,273,77271,5,0
144,296,77521,1,0
96,272,77771,1,2
56,168,78271,1,0
72,112,78521,1,0
104,64,78771,1,2
200,128,79271,1,0
280,48,79771,1,2
392,48,80271,2,0,B|456:208,1,140,0|2
472,288,81271,5,0
360,288,81771,2,8,B|200:288,1,140,2|0
220,288,82521,1,0
220,288,82771,1,2
184,184,83271,1,0
136,160,83521,1,0
128,104,83771,1,2
240,80,84271,1,0
296,80,84521,1,0
352,80,84771,1,2
464,80,85271,5,0
464,191,85771,2,0,B|368:320,1,140,2|0
380,303,86521,1,0
380,303,86771,2,0,B|240:351,1,140,2|0
247,348,87521,1,0
247,348,87771,2,0,B|112:287,1,140,2|0
32,216,88771,5,4
160,96,105271,5,0
272,96,105771,2,0,B|320:96|320:96|320:168|320:168|408:168,2,210,0|0|2
160,96,107771,1,2
160,152,108021,1,2
416,32,109271,5,0
416,144,109771,2,0,B|608:16|248:64|368:152|152:168,1,420
160,280,111771,1,2
160,224,112021,1,2
392,64,113271,5,0
296,112,113771,2,0,B|240:128|240:160|240:160|208:160|208:192|208:192|184:192|184:224|184:224|144:224,2,210,2|0|2
256,216,115771,1,2
256,272,116021,1,2
272,16,117271,5,0
288,128,117771,2,0,B|321:125|342:163|322:198|248:192|202:192|181:143|253:119,2,210,2|0|2
288,240,119771,1,2
232,240,120021,1,2
448,160,121771,5,2
224,160,122771,1,2
224,216,123021,1,0
224,272,123271,1,0
168,272,123521,1,0
112,272,123771,1,2
112,160,124271,1,2
112,48,124771,1,2
336,40,125771,5,0
248,104,126271,1,0
296,208,126771,2,0,B|224:208|224:208|168:208,1,105
256,208,128021,12,0,131771
