osu file format v6

[General]
AudioFilename: TVAtrue_tears_eufoniusAngel_on_tree.mp3
AudioLeadIn: 1952
PreviewTime: 586
Countdown: 1
SampleSet: Soft
StackLeniency: 0.5
Mode: 0
LetterboxInBreaks: 1

[Editor]
DistanceSpacing: 1
BeatDivisor: 4
GridSize: 8

[Metadata]
Title:Angel on tree
Artist:eufonius
Creator:frost-b-spec
Version:Hard
Source:true tears
Tags:image song isurugi noe anime

[Difficulty]
HPDrainRate:8
CircleSize:5
OverallDifficulty:7
SliderMultiplier:1.4
SliderTickRate:1

[Events]
//Background and Video events
0,0,"TrueTears010.jpg"
//Break Periods
2,52494,56871
2,88971,104371
//Storyboard Layer 0 (Background)
//Storyboard Layer 1 (Fail)
//Storyboard Layer 2 (Pass)
//Storyboard Layer 3 (Foreground)
//Storyboard Sound Samples
//Background Colour Transformations
3,100,163,162,255

[TimingPoints]
560,500,4,2,0,68,1,0
24527,500,4,2,0,68,1,0
28589,500,4,2,0,68,1,0
33295,500,4,2,0,72,1,0
57771,500,4,2,0,83,1,0
121771,-100,4,2,0,59,0,0
121896,-100,4,2,0,83,0,0
128416,-100,4,2,0,91,0,0
128916,-100,4,2,0,79,0,0
129416,-100,4,2,0,71,0,0
129916,-100,4,2,0,60,0,0
130416,-100,4,2,0,50,0,0
130916,-100,4,2,0,21,0,0
131416,-100,4,2,0,0,0,0

[Colours]
Combo1 : 255,216,157
Combo2 : 157,253,157
Combo3 : 184,247,252
Combo4 : 251,188,252

[HitObjects]
84,51,560,1,0
154,51,810,1,0
228,51,1060,1,2
163,174,1560,1,0
235,174,1810,1,0
307,174,2060,1,2
355,302,2560,1,0
283,302,2810,1,0
211,302,3060,1,2
263,172,3560,2,2,B|119:172,1,140
123,310,4560,5,0
195,310,4810,1,0
267,310,5060,1,2
299,174,5560,1,0
227,174,5810,1,0
163,174,6060,1,2
115,38,6560,1,0
187,38,6810,1,0
259,38,7060,1,2
155,134,7560,2,2,B|299:134,1,140
160,176,8560,5,0
120,120,8810,1,0
80,176,9060,1,2
216,176,9560,1,0
256,120,9810,1,0
296,176,10060,1,2
216,288,10560,1,0
144,296,10810,1,0
176,232,11060,1,2
304,280,11560,1,0
352,232,11810,1,0
376,296,12060,1,2
459,126,12560,5,2
323,118,13060,2,0,B|219:118,1,70
187,118,13560,1,0
219,182,13810,1,0
187,118,14060,1,2
51,118,14560,1,0
123,118,14810,1,0
86,177,15060,1,2
187,278,15560,2,2,B|235:278|267:110|267:278|283:278|299:278|307:278,1,140
211,158,16560,5,0
187,94,16810,1,0
251,78,17060,1,2
275,142,17310,1,0
331,94,17560,1,0
395,118,17810,1,0
435,174,18060,1,2
419,238,18310,1,0
387,302,18560,1,0
331,342,18810,1,0
259,326,19060,1,2
275,190,19560,2,2,B|179:190,2,70
29,216,20560,5,0
99,230,20810,1,0
147,278,21060,1,2
203,318,21310,1,0
235,254,21560,1,0
299,286,21810,1,0
363,318,22060,1,2
427,350,22310,1,0
475,294,22560,1,0
427,350,22810,1,0
419,278,23060,1,2
371,150,23560,2,2,B|339:70|267:70|259:110,1,140
163,174,24527,5,0
123,118,24777,1,0
83,174,25027,1,2
48,312,25527,2,0,B|112:248,1,70
168,280,26027,1,2
240,280,26277,1,2
296,240,26527,2,2,B|296:160,2,70
352,280,27277,2,2,B|424:280,3,70
443,174,28589,5,0
387,126,28839,1,2
387,126,29089,2,2,B|387:62,2,35,2|2|2
320,136,29589,1,2
264,96,29839,1,2
200,80,30089,1,0
144,120,30339,1,0
184,176,30589,1,2
120,208,30839,1,2
56,240,31089,1,0
192,248,31589,2,2,B|232:208|232:248|248:248|264:248|296:312|304:248|304:216|304:216,1,140
35,46,33295,5,2
75,102,33545,1,2
75,102,33670,1,2
75,102,33795,1,2
115,158,34045,1,0
147,222,34295,1,2
427,206,34795,5,2
355,198,35045,1,2
355,198,35170,1,2
355,198,35295,1,2
283,214,35545,1,0
219,238,35795,1,0
155,254,36045,1,0
91,238,36295,1,2
83,46,37295,5,2
155,54,37545,1,2
155,54,37670,1,2
155,54,37795,1,2
219,86,38045,1,0
275,134,38295,1,2
67,190,38795,5,2
107,246,39045,1,2
107,246,39170,1,2
107,246,39295,1,2
139,182,39545,1,0
179,238,39795,1,0
235,278,40045,1,0
243,206,40295,1,2
139,182,41295,5,2
203,150,41545,1,2
203,182,41670,1,2
203,214,41795,1,2
275,222,42045,1,0
275,150,42295,1,2
400,96,42795,5,2
384,160,43045,1,2
416,160,43170,1,2
400,192,43295,1,2
360,248,43545,1,0
304,296,43795,1,0
232,296,44045,1,0
168,328,44295,1,2
59,222,45295,5,2
123,190,45545,1,2
123,190,45670,1,2
123,190,45795,1,2
195,190,46045,1,0
259,222,46295,1,2
419,302,46795,5,2
387,238,47045,1,2
387,238,47170,1,2
387,238,47295,1,2
347,182,47545,1,0
283,158,47795,1,0
259,222,48045,1,0
195,190,48295,1,2
235,174,49295,5,2
123,38,50295,5,0
171,86,50545,1,0
235,118,50795,1,0
291,158,51045,1,0
323,222,51295,1,2
347,286,51545,1,0
288,320,51795,2,2,B|216:376|176:288,1,140,2|2
83,286,57771,6,2,B|155:350|203:294|211:278,1,140
267,286,58521,1,0
339,286,58771,1,0
411,286,59021,1,0
411,214,59271,1,0
483,214,59521,1,0
411,214,59771,2,2,B|267:214,1,140
203,214,60521,1,0
131,214,60771,1,0
59,142,61271,5,0
131,142,61521,1,0
203,142,61771,2,2,B|275:142,2,70
273,142,62521,1,0
343,142,62771,1,0
413,142,63021,2,0,B|413:62,2,70
413,142,63771,1,2
202,142,64271,2,2,B|175:144|160:161|142:185|161:220|175:236|204:240,1,140
235,86,65271,6,0,B|235:-10,2,70
235,158,66021,1,2
235,230,66271,2,0,B|235:318,2,70
235,158,67021,1,2
163,158,67271,2,0,B|59:158,2,70
235,158,68021,1,2
307,158,68271,2,0,B|403:158,2,70
235,158,69021,1,2
235,230,69271,6,2,B|235:318,1,70
165,300,69771,2,0,B|237:300,1,70
305,300,70271,2,0,B|201:300,1,70,0|0
235,301,70771,2,2,B|235:214,1,70
235,231,71271,2,0,B|235:158,1,70
235,161,71771,2,2,B|163:102,1,70
234,161,72271,2,2,B|294:111,1,70
235,70,72771,1,6
99,30,73271,5,0
171,46,73521,1,0
227,94,73771,1,2
291,70,74021,1,0
347,30,74271,1,0
403,70,74521,1,0
451,118,74771,1,2
475,182,75021,1,0
475,254,75271,5,0
451,318,75521,1,0
411,262,75771,1,2
451,318,76021,1,0
384,320,76271,1,0
344,264,76521,1,0
320,328,76771,1,2
240,216,77271,5,0
168,216,77521,1,0
240,216,77771,1,2
208,280,78021,1,0
256,328,78271,1,0
312,288,78521,1,0
328,224,78771,1,0
264,200,79021,5,0
248,136,79271,1,0
288,80,79521,1,0
355,62,79771,1,2
411,110,80021,1,0
379,174,80271,1,0
331,222,80521,1,0
267,198,80771,1,2
224,328,81271,5,2
272,280,81521,1,0
224,232,81771,1,0
176,280,82021,1,2
128,232,82271,5,2
176,184,82521,1,0
224,136,82771,1,0
224,232,83271,5,2
272,184,83521,1,0
320,232,83771,1,0
272,280,84021,1,2
320,328,84271,5,2
272,280,84521,1,0
320,232,84771,1,0
368,184,85271,5,2
320,232,85521,2,0,B|264:176,1,70
270,182,86021,2,0,B|216:232,1,70,0|2
218,229,86521,2,0,B|152:168,1,70
166,181,87021,2,0,B|104:248,1,70,0|2
118,232,87521,2,2,B|168:288,1,70
164,284,88021,2,0,B|232:216,1,70,0|2
256,184,88521,1,2
304,232,88771,1,2
256,192,105271,5,0
256,208,105771,12,2,107271
256,144,107521,5,0
208,192,107771,1,0
256,240,108021,1,0
304,192,108271,1,2
376,192,108521,1,0
304,192,108771,1,0
256,240,109021,1,0
208,192,109271,1,2
256,208,109771,12,2,111271
208,192,111521,5,0
256,240,111771,1,0
304,192,112021,1,0
256,144,112271,1,2
256,72,112521,1,0
256,144,112771,1,0
304,192,113021,1,0
256,240,113271,1,2
256,208,113771,12,2,115271
256,240,115521,5,0
304,192,115771,1,0
256,144,116021,1,0
208,192,116271,1,2
136,192,116521,1,0
208,192,116771,1,0
256,144,117021,1,0
304,192,117271,1,2
256,208,117771,12,2,119271
256,240,119521,5,0
208,192,119771,1,0
256,144,120021,1,0
312,192,120271,2,2,B|303:231|279:239|247:263|231:239|223:223|135:199|199:159|263:87|271:135|291:158|291:158|279:166,1,280
256,96,121521,5,2
256,64,121646,1,0
256,32,121771,1,4
256,96,122021,1,0
256,336,122771,5,2
256,264,123021,1,0
256,192,123271,1,0
328,192,123521,1,0
400,192,123771,1,2
328,192,124021,1,0
256,192,124271,1,0
184,192,124521,1,0
112,192,124771,1,2
184,192,125021,1,0
256,192,125271,1,0
256,48,125771,5,2
256,120,126021,1,0
256,192,126271,1,0
304,240,126521,1,2
256,288,126771,1,0
208,240,127021,1,0
256,192,127271,1,2
256,208,128021,12,0,131771
