osu file format v6

[General]
AudioFilename: TVAtrue_tears_eufoniusAngel_on_tree.mp3
AudioLeadIn: 1952
PreviewTime: 586
Countdown: 1
SampleSet: Soft
StackLeniency: 0.7
Mode: 0
LetterboxInBreaks: 1

[Editor]
DistanceSpacing: 0.600000023841858
BeatDivisor: 2
GridSize: 8

[Metadata]
Title:Angel on tree
Artist:eufonius
Creator:frost-b-spec
Version:Easy
Source:true tears
Tags:image song isurugi noe anime

[Difficulty]
HPDrainRate:3
CircleSize:3
OverallDifficulty:3
SliderMultiplier:1.4
SliderTickRate:1

[Events]
//Background and Video events
0,0,"TrueTears001.jpg"
//Break Periods
2,51495,56831
2,88971,103831
//Storyboard Layer 0 (Background)
//Storyboard Layer 1 (Fail)
//Storyboard Layer 2 (Pass)
//Storyboard Layer 3 (Foreground)
//Storyboard Sound Samples
//Background Colour Transformations
3,100,163,162,255

[TimingPoints]
590,500,4,2,0,68,1,0
24527,500,4,2,0,68,1,0
28589,500,4,2,0,68,1,0
33295,500,4,2,0,71,1,0
57771,500,4,2,0,81,1,0
88521,-100,4,2,0,30,0,0
89021,-100,4,2,0,81,0,0
128416,-100,4,2,0,91,0,0
128916,-100,4,2,0,79,0,0
129416,-100,4,2,0,71,0,0
129916,-100,4,2,0,60,0,0
130416,-100,4,2,0,50,0,0
130916,-100,4,2,0,21,0,0
131416,-100,4,2,0,0,0,0

[Colours]
Combo1 : 255,216,157
Combo2 : 157,253,157
Combo3 : 184,247,252
Combo4 : 251,188,252

[HitObjects]
256,160,1090,1,0
408,232,2090,1,2
248,280,3090,2,0,B|128:192|208:24|208:24|176:40,1,280
336,128,5090,5,2
304,296,6090,1,2
136,272,7090,2,0,B|184:272|184:272|176:176|232:216|232:216|224:120|312:160,1,280
448,64,9090,5,2
232,64,10090,1,2
400,64,11090,1,0
272,176,12090,1,2
440,184,13090,1,0
304,280,14090,1,2
472,288,15090,1,0
304,280,16090,1,2
320,200,16590,5,2
80,128,18090,1,2
232,56,19090,2,0,B|320:144|128:208|240:312,1,280
88,232,21090,1,2
256,232,22090,5,2
368,104,23090,2,0,B|288:32|168:24|96:136,1,280
112,272,25027,1,2
280,320,26027,5,2
112,320,27027,1,0
240,208,28027,1,2
72,200,29090,1,0
208,104,30090,1,2
40,104,31090,1,0
176,8,32090,1,2
80,64,33295,5,2
464,48,35295,6,0,B|80:160|304:336|496:352,1,560
48,336,39295,6,0,B|432:184|208:48|16:32,1,560
416,336,43295,6,0,B|304:-72|128:176|112:368,1,560
104,32,47295,6,0,B|240:496|392:0,1,560,0|0
256,296,51295,5,2
480,272,58271,5,2
320,312,59271,2,0,B|376:216|208:120|152:240,1,280
88,80,61271,1,2
248,136,62271,5,2
80,128,63271,2,0,B|160:328|320:144|256:360|320:352,1,280
368,160,65271,1,2
240,56,66271,5,2
408,64,67271,1,0
280,168,68271,1,2
448,184,69271,1,0
304,280,70271,1,2
472,296,71271,1,0
304,280,72271,1,2
248,216,72771,1,2
104,152,73771,5,2
256,72,74771,2,0,B|256:264,2,140
136,192,76771,1,2
256,312,77771,5,2
328,160,78771,2,0,B|136:160,2,140
256,312,80771,1,2
424,312,81771,5,2
256,312,82771,1,0
104,240,83771,1,2
256,168,84771,1,0
104,104,85771,1,2
256,32,86771,1,0
408,104,87771,1,2
256,184,88771,5,4
120,48,105271,5,2
40,48,105771,2,0,B|40:128|112:128|112:128|112:192|184:192|184:192|184:264|256:264|256:264|256:328|336:328|336:328|376:312|376:312|432:328|432:328|408:264,1,560
432,328,109771,6,0,B|432:248|360:248|360:248|360:184|288:184|288:184|288:112|216:112|216:112|216:48|136:48|136:48|96:64|96:64|40:48|40:48|64:112,1,560
256,208,113771,12,0,116271
184,112,117771,6,0,B|344:112|344:112|344:272|344:272|176:272|176:272,1,420
208,192,119771,1,2
208,192,120021,1,2
88,64,121771,5,2
256,64,122771,1,0
144,192,123771,1,0
256,320,124771,1,0
368,192,125771,1,2
256,208,128021,12,0,131771
