osu file format v5

[General]
AudioFilename: 1. Anemoi.mp3
AudioLeadIn: 0
PreviewTime: -1
Countdown: 1
SampleSet: Soft
StackLeniency: 0.7
Mode: 0
LetterboxInBreaks: 1
EditorBookmarks: 27756,34422,101089

[Metadata]
Title:Anemoi
Artist:eufonius
Creator:kioukiou
Version:Normal
Source:
Tags:

[Difficulty]
HPDrainRate:4
CircleSize:4
OverallDifficulty:5
SliderMultiplier:1.1
SliderTickRate:2

[Events]
//Background and Video events
0,0,"Anemoi.jpg"
//Break Periods
//Storyboard Layer 0 (Background)
//Storyboard Layer 1 (Failing)
//Storyboard Layer 2 (Passing)
//Storyboard Layer 3 (Foreground)
//Storyboard Sound Samples
//Background Colour Transformations
3,100,163,162,255

[TimingPoints]
256,416.666666666667,4,2,1,80,1
60672,-100,4,1,1,70,0
60881,-100,4,2,1,60,0
67547,-100,4,1,1,100,0
69735,-100,4,2,1,80,0
70151,-100,4,1,1,100,0
72651,-100,4,2,1,80,0
73797,-100,4,1,1,100,0
94839,-100,4,2,1,80,0
95047,-100,4,1,1,100,0
95672,-100,4,2,1,80,0
95881,-100,4,1,1,100,0
100672,-100,4,2,1,60,0
127860,-100,4,1,1,100,0
161297,-100,4,2,1,80,0
161714,-100,4,1,1,100,0
162235,-100,4,2,1,80,0
162547,-100,4,1,1,100,0
167756,-100,4,1,1,0,0

[Colours]
Combo1 : 255,150,0
Combo2 : 5,240,5
Combo3 : 128,0,255
Combo4 : 240,5,5

[HitObjects]
256,192,27756,12,0,28589
256,192,29422,12,0,30256
256,192,31089,12,0,34006
472,56,34422,6,0,B|400:-8|304:64,1,165
320,192,35464,1,0
392,192,35672,1,0
464,192,35881,1,0
64,32,37131,6,0,B|120:32,2,55
64,32,37756,2,0,B|64:160,2,110,2|2|2
208,40,39006,1,2
208,40,39214,1,2
432,328,40880,5,0
432,328,41089,1,0
360,328,41297,1,0
360,328,41505,1,0
288,328,41714,2,0,B|208:328|192:248,2,110,2|2|2
64,328,43797,5,0
64,328,44005,2,0,B|64:256,2,55,0|2|2
416,80,45672,5,2
416,80,45880,1,2
96,80,47755,5,0
96,80,47964,2,0,B|16:80,2,55,0|2|2
96,224,48797,2,0,B|168:224,2,55,0|2|2
400,328,50464,6,0,B|432:296|432:248|392:224,1,110
344,272,51089,2,0,B|312:240|312:192|352:168,2,110
272,272,52130,1,0
200,272,52339,1,2
128,272,52547,1,2
408,64,54214,5,0
336,64,54422,1,0
336,136,54630,1,0
264,136,54839,1,0
192,136,55047,2,0,B|136:184|208:248,1,110
264,232,55672,1,0
72,64,57130,5,0
72,64,57339,1,0
72,64,57547,1,0
72,64,57755,2,0,B|16:112|96:168,1,110
152,152,58380,2,0,B|288:152,2,110
256,192,59422,12,0,60672
440,72,61089,5,0
440,144,61297,1,0
440,216,61505,1,0
440,288,61714,1,0
312,216,62130,2,0,B|240:216,2,55,0|2|2
200,128,62964,2,0,B|272:128,2,55,0|2|2
56,128,63797,1,0
56,128,64005,1,4
56,272,64422,5,0
56,272,64630,2,0,B|96:336,2,55,0|2|2
200,272,65464,1,0
160,208,65672,1,0
208,152,65880,2,0,B|344:152,1,110
352,88,66505,2,4,B|232:88,2,110
352,232,67755,5,0
280,232,67964,1,0
208,232,68172,1,0
136,232,68380,2,0,B|88:176|152:120,1,110
208,136,69005,1,0
208,136,69214,1,0
352,136,69630,5,0
352,136,69839,1,4
352,280,70255,6,0,B|352:344,2,55
296,232,70880,2,0,B|248:184|176:248,3,110
56,232,72547,1,0
56,232,72755,1,4
56,88,73172,1,4
200,88,73589,1,4
200,232,74005,5,0
200,160,74214,1,0
272,160,74422,2,0,B|344:88|424:168,1,165
408,304,75464,1,0
336,304,75672,1,0
264,304,75880,2,0,B|200:304|200:224,2,110
264,160,77130,6,0,B|312:112,2,55
160,264,77964,2,0,B|112:312,2,55
112,152,78797,5,0
112,80,79006,1,0
184,80,79214,1,0
256,80,79422,2,0,B|304:32|368:96,2,110
256,152,80464,2,0,B|192:152,2,55
328,152,81089,2,0,B|376:200|376:256|320:296,1,165
176,288,82131,1,0
104,288,82339,1,0
32,288,82547,2,0,B|32:176,2,110
104,160,83797,6,0,B|104:80,2,55
248,160,84631,2,0,B|248:240,2,55
352,56,85464,1,0
400,112,85672,1,0
448,168,85881,1,0
400,224,86089,2,0,B|400:296,2,55
328,224,86714,2,0,B|328:360,2,110
328,152,87756,1,0
328,152,87964,1,0
256,192,88172,12,0,89422
96,64,89839,6,0,B|208:64,1,110
320,144,90672,2,0,B|192:144,1,110
256,192,91297,12,0,92339
408,48,92756,5,0
408,192,93172,1,0
408,192,93381,1,0
288,112,93797,2,0,B|240:176|296:224,2,110
288,112,94839,1,4
144,112,95256,1,0
144,184,95464,1,0
144,256,95672,1,4
288,256,96089,6,0,B|416:256,1,110
480,136,96922,2,0,B|352:136,1,110
256,192,97547,12,0,99839
104,48,101089,6,0,B|48:80|48:152|96:192,1,165,0|4
232,192,102131,2,0,B|312:192,2,55,0|2|2
432,312,103797,6,0,B|480:360,2,55
360,312,104422,2,0,B|320:352|256:352|200:304,1,165
208,96,105672,1,2
208,96,105881,1,2
96,312,107547,6,0,B|32:312,2,55
168,312,108172,1,0
168,312,108381,2,0,B|240:288|216:200,1,110,2|2
221,227,109006,1,2
448,48,110464,5,0
376,48,110672,1,0
304,48,110881,1,0
232,48,111089,2,0,B|160:88|160:184|232:232,1,220
368,232,112339,1,2
296,232,112547,1,2
72,72,114422,6,0,B|24:112,2,55
144,72,115047,2,0,B|272:72,1,110
296,128,115672,1,0
296,128,115881,2,4,B|432:128,2,110
152,128,117131,5,0
96,176,117339,1,0
152,224,117547,1,0
208,176,117756,2,0,B|336:176,2,110
64,176,119006,1,0
64,176,119214,1,0
64,176,119422,5,2
64,320,119839,1,2
208,320,120256,2,0,B|272:320,2,55,2|2|2
208,248,120881,6,0,B|144:248,2,55
280,248,121506,1,0
280,248,121714,2,0,B|320:200|272:144,1,110
200,152,122339,2,0,B|88:152,2,110
392,48,123797,6,0,B|448:48,2,55
320,48,124422,2,0,B|272:96|320:152,1,110
384,120,125047,2,0,B|432:168|384:224,3,110,0|0|4|0
388,218,126506,1,0
248,216,126922,1,4
176,216,127131,1,0
104,216,127339,1,0
104,72,127756,5,4
104,72,127964,1,0
176,72,128172,1,0
176,72,128381,2,0,B|224:120|288:64,1,110
344,72,129006,1,8
344,72,129214,1,8
336,216,129631,2,0,B|304:272,2,55,0|8|8
88,72,131089,5,0
88,72,131297,2,0,B|16:72,2,55
232,72,132131,2,0,B|304:72,2,55
160,192,132964,1,0
160,192,133172,2,0,B|160:328,2,110
304,192,134422,5,0
304,192,134631,2,0,B|360:144|288:88,1,110
160,104,135464,2,0,B|88:104,2,55
440,320,136922,5,0
440,320,137131,1,0
440,320,137339,1,0
256,192,137547,12,4,139422
96,72,140672,5,0
96,144,140881,1,0
96,216,141089,2,0,B|128:280|200:280|232:208,1,165
224,80,142131,1,0
224,80,142339,1,0
224,80,142547,2,0,B|304:24|392:96,1,165
376,296,143797,6,0,B|376:376,2,55
240,248,144631,2,0,B|240:168,2,55
96,248,145464,1,0
96,176,145672,1,0
168,176,145881,1,0
168,104,146089,2,0,B|208:56|280:56|328:128,1,165
312,248,147131,6,0,B|312:320,2,55
312,176,147756,2,0,B|272:136|200:136|160:184,1,165
160,320,148797,1,0
160,320,149006,1,0
160,320,149214,2,0,B|240:376|320:320,1,165
312,104,150464,6,0,B|368:104,2,55,0|8|8
168,104,151297,2,0,B|88:104,2,55,0|8|8
168,248,152131,1,0
168,248,152339,2,0,B|224:328|344:328|416:240,1,275
280,184,153797,1,0
280,184,154006,2,0,B|280:264,2,55
256,192,154631,12,0,156089
120,296,156506,6,0,B|240:296,1,110
352,216,157339,2,0,B|224:216,1,110
256,192,157964,12,0,159005
392,80,159422,6,0,B|336:40|272:88,1,110
328,136,160047,2,0,B|272:168|208:128,2,110
328,136,161089,1,0
336,280,161505,1,4
192,280,161922,1,0
120,280,162130,1,0
120,208,162339,1,4
208,96,162755,6,0,B|264:56|328:112,1,110
264,232,163589,2,0,B|328:272|376:224,1,110
256,192,164214,12,0,167755
