osu file format v5

[General]
AudioFilename: 1. Anemoi.mp3
AudioLeadIn: 0
PreviewTime: -1
Countdown: 1
SampleSet: Normal
StackLeniency: 0.7
Mode: 0
LetterboxInBreaks: 1
EditorBookmarks: 27756,34422,101089

[Metadata]
Title:Anemoi
Artist:eufonius
Creator:kioukiou
Version:Hard
Source:
Tags:

[Difficulty]
HPDrainRate:8
CircleSize:5
OverallDifficulty:7
SliderMultiplier:1.4
SliderTickRate:2

[Events]
//Background and Video events
0,0,"Anemoi.jpg"
//Break Periods
//Storyboard Layer 0 (Background)
//Storyboard Layer 1 (Failing)
//Storyboard Layer 2 (Passing)
//Storyboard Layer 3 (Foreground)
//Storyboard Sound Samples
//Background Colour Transformations
3,100,163,162,255

[TimingPoints]
256,416.666666666667,4,1,1,60,1
34006,-100,4,1,1,0,0
34422,-200,4,1,1,60,0
35256,-100,4,2,1,50,0
35464,-100,4,1,1,60,0
37756,-200,4,1,1,60,0
38589,-100,4,2,1,50,0
38797,-100,4,1,1,60,0
39317,-100,4,2,1,100,0
40881,-100,4,1,1,60,0
42130,-200,4,1,1,60,0
42964,-100,4,2,1,50,0
43797,-100,4,1,1,60,0
44422,-200,4,1,1,60,0
45256,-100,4,2,1,51,0
45464,-100,4,1,1,70,0
46089,-100,4,2,1,100,0
47756,-100,4,1,1,70,0
49214,-200,4,1,1,70,0
50047,-100,4,2,1,60,0
50256,-100,4,1,1,70,0
51089,-200,4,1,1,70,0
51922,-100,4,2,1,50,0
52131,-100,4,2,1,100,0
54422,-100,4,1,1,80,0
56089,-100,4,2,1,50,0
56297,-100,4,2,1,70,0
56714,-100,4,2,1,100,0
57131,-100,4,1,1,70,0
59422,-100,4,2,1,70,0
60672,-100,4,1,1,100,0
101089,-100,4,1,1,60,0
102547,-200,4,1,1,60,0
103380,-100,4,1,1,60,0
104422,-200,4,1,1,70,0
105256,-100,4,2,1,50,0
105464,-100,4,1,1,70,0
106089,-100,4,2,1,100,0
107756,-100,4,1,1,80,0
109422,-100,4,2,1,100,0
110256,-100,4,1,1,80,0
111922,-100,4,1,1,50,0
112131,-100,4,1,1,60,0
112339,-100,4,1,1,70,0
112547,-100,4,1,1,80,0
112755,-100,4,1,1,90,0
113381,-100,4,1,1,100,0
167756,-100,4,1,1,0,0

[Colours]
Combo1 : 255,150,0
Combo2 : 5,240,5
Combo3 : 128,0,255
Combo4 : 240,5,5

[HitObjects]
256,192,27756,12,0,28589
256,192,29422,12,0,30256
256,192,31089,12,0,34006
128,48,34422,6,0,B|64:112|128:192,1,140
120,240,35464,1,0
184,240,35672,1,0
184,176,35881,1,0
368,264,37131,6,0,B|432:240|432:200,2,70
304,264,37756,2,0,B|224:240|216:144,1,140
216,40,39006,1,0
216,40,39214,1,0
216,104,39422,6,0,B|272:160,1,70
200,168,39839,2,0,B|256:224,1,70
136,168,40464,1,2
136,168,40672,1,2
136,232,40880,6,0,B|72:232|72:280,2,70
200,232,41505,1,0
200,232,41714,1,0
328,232,42130,2,0,B|256:288|192:224,2,140
328,168,44005,5,0
264,168,44214,1,0
200,168,44422,2,0,B|136:104|208:40,1,140
328,48,45672,1,0
328,48,45880,1,0
328,112,46089,6,0,B|416:112,2,70
264,112,46714,1,2
264,112,46922,1,2
200,112,47130,2,0,B|112:112,2,70
200,176,47755,5,0
160,224,47964,1,0
208,264,48172,1,0
152,296,48380,2,0,B|208:368|288:280,1,140
336,296,49005,1,0
336,296,49214,2,0,B|336:152,1,140
336,32,50464,5,0
336,96,50672,1,0
272,96,50880,1,0
272,160,51089,2,0,B|208:240|144:144,1,140
160,96,52130,1,0
96,96,52339,1,2
96,160,52547,1,2
96,224,52755,6,0,B|24:224,2,70
96,224,53380,1,2
224,224,53797,1,2
224,288,54005,1,2
288,288,54214,1,2
288,224,54422,5,0
288,224,54630,2,0,B|352:168|272:88,2,140
224,224,55672,1,0
96,224,56089,1,0
96,224,56297,2,0,B|40:160|104:88,1,140
160,96,56922,2,0,B|160:16,2,70,2|0|0
160,160,57547,5,0
160,224,57755,2,0,B|232:248|304:224,1,140
296,160,58380,2,0,B|232:96|304:24,1,140
352,40,59005,1,0
352,40,59214,1,0
352,104,59422,5,2
416,104,59630,1,2
416,168,59839,1,2
480,168,60047,1,2
480,296,60464,1,0
416,296,60672,5,0
288,296,61089,1,0
288,296,61297,2,0,B|192:296,2,70
288,168,62130,1,0
240,128,62339,1,0
192,168,62547,1,0
192,296,62964,1,0
240,336,63172,1,0
288,296,63380,1,0
288,168,63797,5,0
288,168,64005,1,8
160,168,64422,5,0
104,200,64630,1,0
160,224,64839,1,0
104,256,65047,2,0,B|160:328|232:248,1,140
224,192,65672,2,0,B|224:120,2,70
288,192,66297,1,0
288,192,66505,2,0,B|288:360,2,140
288,128,67547,5,0
288,128,67755,2,0,B|344:120|336:64,2,70
224,128,68380,2,0,B|72:128,1,140
40,176,69005,1,0
80,224,69214,2,0,B|232:224,2,140
80,288,70255,5,0
144,288,70464,1,0
208,288,70672,1,0
272,288,70880,2,0,B|368:288|368:184,4,140
272,224,72755,1,0
216,192,72964,1,0
272,160,73172,1,0
216,128,73380,1,0
272,96,73589,1,0
272,96,73693,1,0
272,96,73797,1,0
336,96,74005,5,0
400,96,74214,1,0
400,160,74422,2,0,B|328:224|416:296,1,140
336,280,75047,2,0,B|400:224|328:128,1,140,0|0
280,152,75672,1,0
216,152,75880,1,0
248,208,76089,1,0
120,208,76505,1,0
120,80,76922,1,0
184,80,77130,6,0,B|184:8,2,70,0|8|8
184,208,77964,2,0,B|184:312,2,70,0|8|8
288,272,78797,5,0
344,240,79006,1,0
288,208,79214,1,0
344,176,79422,2,0,B|424:176,2,70
288,144,80047,2,0,B|144:144,1,140
148,144,80672,1,8
148,144,80881,1,8
88,144,81089,2,0,B|24:224|112:296,1,140
149,271,81714,1,0
248,200,82131,5,0
248,136,82339,1,0
248,200,82547,2,0,B|248:344,2,140
376,200,83797,5,0
440,200,84006,1,8
376,200,84214,1,8
248,200,84631,1,0
184,200,84839,1,8
248,200,85047,1,8
248,72,85464,5,0
192,104,85672,1,0
248,136,85881,1,0
304,168,86089,1,0
248,200,86297,1,0
192,232,86506,1,0
248,264,86714,2,0,B|392:264,1,140
408,200,87339,1,0
464,232,87547,1,0
464,296,87756,1,0
408,328,87964,1,0
256,192,88172,12,0,89006
256,192,89422,5,0
256,64,89839,5,0
40,192,90256,1,0
256,320,90672,1,0
472,192,91089,1,0
256,192,91297,12,0,92339
256,56,92756,5,4
256,184,93172,1,0
256,184,93381,1,0
256,184,93589,1,0
256,120,93797,2,0,B|256:80,2,35
192,120,94214,1,0
320,120,94631,1,0
384,120,94839,1,4
384,248,95256,1,0
288,248,95568,1,0
288,248,95672,1,4
160,248,96089,6,0,B|80:248|80:136,2,140
160,184,97131,1,0
160,184,97339,1,0
160,120,97547,2,0,B|256:120|256:232,4,140
96,120,99422,1,0
96,248,99839,1,0
160,248,100047,1,0
224,248,100256,2,0,B|224:304,2,35
288,248,100672,1,0
288,120,101089,6,0,B|232:56|160:120,1,140
160,176,101714,1,0
160,304,102131,1,0
160,240,102339,1,0
224,240,102547,2,0,B|288:296|352:240,1,140
352,112,103797,5,0
288,112,104006,1,0
288,176,104214,1,0
224,176,104422,2,0,B|224:32,1,140
96,40,105672,1,0
96,40,105881,1,0
96,104,106089,6,0,B|16:104,2,70,2|2|0
96,168,106714,1,2
96,168,107131,2,0,B|176:168,2,70,0|2|2
96,232,107756,5,0
152,264,107964,1,0
96,296,108172,1,0
152,328,108381,2,0,B|224:360|304:320,1,140
287,327,109006,1,0
288,136,109631,5,2
288,200,109839,1,2
288,264,110047,1,2
416,264,110464,6,0,B|504:264,2,70
416,200,111089,2,0,B|472:136|392:64,2,140
352,200,112131,1,0
288,200,112339,1,0
224,200,112547,1,0
160,200,112756,1,0
256,40,113381,5,0
128,40,113797,1,0
128,40,113901,1,0
128,40,114006,1,4
128,168,114422,6,0,B|72:240,2,70
192,168,115047,2,0,B|336:168,1,140
376,216,115672,1,0
328,256,115881,2,0,B|176:256,1,140
188,256,116506,1,8
188,256,116714,1,8
184,128,117131,5,0
120,128,117339,1,0
152,72,117547,1,0
152,136,117756,2,0,B|152:304,1,140
216,280,118381,1,0
344,280,118797,1,0
280,280,119006,1,8
280,216,119214,1,8
216,216,119422,5,0
216,88,119839,1,0
88,88,120256,1,0
152,88,120464,1,8
88,88,120672,1,8
88,152,120881,5,4
88,216,121089,2,0,B|88:312,2,70
152,216,121714,2,0,B|216:152|288:232,1,140
336,216,122339,1,0
336,88,122756,1,0
336,88,122860,1,0
336,88,122964,1,0
272,88,123172,1,0
272,152,123381,1,0
208,152,123589,1,0
144,152,123797,6,0,B|88:136|104:80,2,70
144,216,124422,2,0,B|144:368,1,140
80,356,125047,2,0,B|240:356,2,140
256,192,126089,12,0,127339
328,56,127756,5,4
328,56,127964,2,0,B|248:56,2,70,0|0|0
328,184,128797,2,0,B|328:280,2,70,0|8|8
200,184,129631,1,0
264,184,129839,1,8
200,184,130047,2,0,B|144:112|80:192,1,140,8|0
84,186,130672,1,8
80,312,131089,5,0
136,344,131297,1,0
192,312,131506,1,0
136,280,131714,2,0,B|136:120,1,140
136,72,132339,1,0
136,72,132547,2,0,B|208:16|280:80,1,140
216,112,133172,2,0,B|272:168|352:112,2,140
176,232,134422,5,0
136,184,134631,1,0
176,136,134839,1,0
216,184,135047,2,0,B|360:184,1,140
416,184,135672,1,0
480,184,135881,2,0,B|328:184,1,140
344,248,136506,1,0
344,120,136922,5,0
304,72,137131,1,0
264,120,137339,1,0
304,168,137547,1,0
256,192,137756,12,0,139006
256,192,139214,5,0
256,192,139422,1,0
256,56,140464,6,0,B|256:16,2,35
256,120,140881,1,0
256,120,141089,2,0,B|192:192|280:264,1,140
258,244,141714,2,0,B|320:192|248:112,1,140
192,120,142339,1,0
128,120,142547,2,0,B|128:264,1,140
128,260,143172,1,8
128,260,143381,1,8
256,264,143797,5,0
296,216,144006,1,8
256,168,144214,1,8
128,168,144631,1,0
80,128,144839,1,8
128,88,145047,1,8
256,88,145464,2,0,B|320:32,2,70
200,120,146089,1,0
256,152,146297,1,0
200,184,146506,1,0
256,216,146714,2,0,B|256:368,1,140
192,352,147339,1,8
128,352,147547,1,8
64,352,147756,6,0,B|8:288|72:208,1,140
104,272,148381,2,0,B|152:200|88:128,1,140
56,192,149006,1,0
56,192,149214,2,0,B|8:128|72:48,1,140
120,64,149839,1,8
248,64,150256,1,0
248,128,150464,5,0
248,192,150672,1,8
248,256,150881,1,8
376,256,151297,1,0
312,256,151506,1,8
248,256,151714,1,8
120,256,152131,2,0,B|120:336,2,70
120,192,152756,2,0,B|120:88,2,70
176,224,153381,2,0,B|336:224,1,140
376,224,154006,1,0
376,224,154214,1,0
440,224,154422,1,0
440,224,154631,1,0
256,192,154839,12,0,155672
256,192,156089,5,0
256,64,156506,5,0
472,192,156922,1,0
256,328,157339,1,0
40,192,157755,1,0
256,192,157964,12,0,159005
256,328,159422,5,0
256,200,159839,1,0
256,200,160047,1,0
256,200,160255,1,0
256,136,160464,2,0,B|256:80,2,35
320,136,160880,1,0
192,136,161297,1,0
128,136,161505,1,0
128,264,161922,1,0
224,264,162235,1,0
224,264,162339,1,0
352,264,162755,5,0
416,264,162964,2,0,B|464:200|408:120,1,140
352,136,163589,2,0,B|208:136,1,140
208,200,164214,2,0,B|64:200,1,140
256,192,164839,12,0,167755
