osu file format v9

[General]
AudioFilename: Aletheia.mp3
AudioLeadIn: 0
PreviewTime: -1
Countdown: 0
SampleSet: Normal
StackLeniency: 0.7
Mode: 0
LetterboxInBreaks: 0

[Editor]
DistanceSpacing: 1
BeatDivisor: 4
GridSize: 8

[Metadata]
Title:Aletheia
Artist:eufonius
Creator:Gottwald
Version:Normal
Source:irotoridori no sekai
Tags:riya

[Difficulty]
HPDrainRate:3
CircleSize:4
OverallDifficulty:3
ApproachRate:4
SliderMultiplier:1.2
SliderTickRate:1

[Events]
//Background and Video events
0,0,"shinku.jpg"
//Break Periods
//Storyboard Layer 0 (Background)
//Storyboard Layer 1 (Fail)
//Storyboard Layer 2 (Pass)
//Storyboard Layer 3 (Foreground)
//Storyboard Sound Samples
//Background Colour Transformations
3,100,163,162,255

[TimingPoints]
410,398.671096345515,4,2,0,100,1,0
46356,-100,4,2,0,5,0,0
49243,-100,4,2,0,100,0,1
74957,-100,4,2,0,100,0,0
111041,-100,4,1,0,70,0,0

[Colours]
Combo1 : 43,249,95
Combo2 : 198,2,70
Combo3 : 113,120,255

[HitObjects]
408,88,11572,2,0,B|408:216,1,120
304,264,12370,2,2,B|232:264|232:264,2,60
256,152,13167,1,0
360,96,13566,1,0
256,32,13964,1,0
152,96,14363,5,0
96,200,14762,1,2
152,304,15160,2,0,B|224:320|288:304,1,120
392,280,15958,1,0
472,192,16356,1,2
392,104,16755,1,0
304,192,17154,1,2
160,96,17951,6,0,B|160:224,1,120
240,304,18748,2,0,B|360:304,1,120
440,216,19546,2,0,B|440:72|440:72,2,120
320,216,20742,1,2
200,216,21140,2,0,B|72:216,1,120
80,96,21938,1,4
256,192,22536,12,0,23931
368,128,24330,6,0,B|448:128|448:128,2,60
368,248,25127,2,0,B|232:248,1,120
256,128,25924,2,0,B|256:48|256:48,2,60
56,152,26722,1,8
128,152,26921,1,8
96,88,27120,1,8
296,96,27519,6,0,B|416:96,1,120
424,184,28316,2,2,B|424:304,1,120
336,304,29114,2,0,B|336:184,1,120
216,192,29911,2,0,B|136:192|136:192,2,60
352,104,30709,6,0,B|272:128|208:96,1,120
120,80,31506,2,0,B|72:120|64:184,1,120
144,272,32303,1,0
232,192,32702,1,2
352,192,33101,2,0,B|496:192|496:192,2,120
256,112,34297,1,2
256,112,34695,1,2
256,232,35094,5,0
144,184,35493,1,2
32,232,35891,2,0,B|120:328|256:336,1,240
336,264,37087,1,2
336,264,37486,1,0
432,192,37885,2,0,B|480:128|432:72,1,120
328,120,38682,2,0,B|184:120,1,120
112,192,39479,1,0
184,288,39878,1,0
288,344,40277,6,0,B|288:216,1,120
352,120,41074,1,0
352,120,41473,2,0,B|224:120,1,120
112,192,42270,1,2
112,312,42669,1,0
224,312,43067,2,0,B|224:184,1,120
168,88,43865,2,0,B|96:88|96:88|104:88,2,60
168,88,44662,1,4
312,136,45061,6,0,B|336:200|312:272,1,120
216,192,45858,1,4
216,264,46057,1,2
144,264,46257,1,4
256,192,46456,12,0,48649
128,112,49446,2,0,B|48:112|48:112,2,60
128,256,50243,1,2
232,200,50642,1,0
336,264,51041,1,2
232,200,51439,1,0
232,80,51838,1,0
128,128,52237,2,0,B|128:248,1,120
256,312,53034,5,0
256,240,53433,2,0,B|256:120,1,120
192,88,54031,2,0,B|120:64|120:64,2,60
192,176,54629,2,0,B|128:192|128:192|136:192,2,60
344,128,55426,2,8,B|416:128|416:128,2,60
344,296,56223,6,0,B|224:296,1,120
80,216,57021,2,0,B|216:216,1,120
368,224,57818,1,0
424,144,58217,2,0,B|312:80|184:144,1,240
200,304,59413,5,0
200,216,59811,2,0,B|200:152|200:152,2,60
344,304,60609,1,0
432,184,61008,1,0
432,184,61406,1,0
432,328,61805,2,0,B|496:328|496:328,2,60
192,248,62602,6,0,B|272:280|328:232,1,120,0|0
312,104,63400,2,0,B|232:72|176:120,1,120
104,96,64197,1,0
192,176,64596,1,0
104,280,64994,1,8
192,280,65194,1,8
272,280,65393,1,8
360,136,65792,5,0
248,48,66190,1,0
248,192,66589,1,0
200,328,66988,2,0,B|72:328,1,120
24,192,67785,2,0,B|168:192,1,120
256,72,68582,1,0
352,72,68981,6,0,B|392:136|344:208,1,120
296,248,69778,2,0,B|216:272|168:240,1,120
64,120,70576,2,0,B|192:120,1,120
200,264,71373,1,0
280,168,71772,2,0,B|408:168,1,120
432,280,72569,1,0
432,280,72968,5,0
320,240,73366,1,2
208,280,73765,1,0
256,168,74164,2,0,B|256:88|256:88,2,60
408,192,75360,5,2
352,112,75758,1,0
352,112,76157,2,0,B|472:112|472:112|464:112,2,120
256,112,77353,1,2
256,208,77752,1,2
256,208,78150,1,2
352,200,78549,6,2,B|352:328,1,120
256,320,79346,1,2
256,320,79745,2,0,B|136:320,1,120
88,232,80542,2,2,B|88:88,1,120
184,112,81340,1,0
256,168,81738,6,0,B|392:168,1,120
432,88,82536,1,0
336,88,82934,2,0,B|192:88,1,120
176,176,83732,2,0,B|176:304|176:304,2,120
176,88,84928,6,2,B|320:88,1,120
368,224,85725,1,2
368,224,86124,2,0,B|288:320,1,120
152,280,86921,1,0
48,184,87320,1,0
256,192,87718,12,0,89711
328,120,91307,6,2,B|464:120|464:120|456:120,2,120
256,248,92503,1,0
192,120,92901,2,0,B|72:120,1,120
24,192,93699,1,2
24,264,93898,1,0
96,264,94097,1,2
280,152,94496,2,4,B|416:152|416:152|408:152,2,120
112,128,95692,2,4,B|48:80|48:80,2,60
280,96,96489,6,0,B|344:88|400:96,1,120
408,216,97287,1,2
408,216,97685,2,0,B|272:216,1,120
216,312,98483,2,2,B|344:312,1,120
456,304,99280,1,0
456,304,99679,2,2,B|456:176,1,120
384,88,100476,5,0
320,48,100675,1,2
320,120,100875,2,0,B|320:248,1,120
208,192,101672,1,2
208,192,102071,1,2
256,80,102469,1,2
256,80,102868,2,0,B|128:128|80:240,1,240
256,304,104064,5,0
384,192,104463,1,0
256,88,104861,1,0
120,192,105260,1,0
256,200,105659,2,2,B|256:80,1,120
256,200,106456,2,2,B|400:200,1,120
256,200,107253,2,2,B|136:200,1,120
64,72,108051,1,2
64,216,108449,1,2
176,312,108848,6,0,B|312:312,1,120
400,232,109645,2,0,B|400:104,1,120
256,96,110443,2,0,B|128:96,1,120
136,240,111240,5,2
256,328,111639,1,2
368,240,112037,1,2
256,112,112436,1,2
256,112,112835,2,4,B|256:184|256:184,3,60
