osu file format v9

[General]
AudioFilename: Aletheia.mp3
AudioLeadIn: 0
PreviewTime: 49239
Countdown: 0
SampleSet: Normal
StackLeniency: 0.7
Mode: 0
LetterboxInBreaks: 0

[Editor]
DistanceSpacing: 1.2
BeatDivisor: 4
GridSize: 8

[Metadata]
Title:Aletheia
Artist:eufonius
Creator:Gottwald
Version:Hard
Source:irotoridori no sekai
Tags:riya

[Difficulty]
HPDrainRate:6
CircleSize:5
OverallDifficulty:7
ApproachRate:7
SliderMultiplier:1.7
SliderTickRate:1

[Events]
//Background and Video events
0,0,"shinku.jpg"
//Break Periods
//Storyboard Layer 0 (Background)
//Storyboard Layer 1 (Fail)
//Storyboard Layer 2 (Pass)
//Storyboard Layer 3 (Foreground)
//Storyboard Sound Samples
//Background Colour Transformations
3,100,163,162,255

[TimingPoints]
410,398.671096345515,4,2,0,80,1,0
22237,-100,4,2,0,5,0,0
24031,-100,4,2,0,80,0,0
46356,-100,4,2,0,5,0,0
49239,-100,4,2,0,80,0,1
74957,-100,4,2,0,80,0,0
87196,-100,4,1,0,70,0,0
91587,-100,4,2,0,80,0,0
110435,-100,4,1,0,80,0,0

[Colours]
Combo1 : 43,249,95
Combo2 : 198,2,70
Combo3 : 113,120,255

[HitObjects]
400,112,11568,2,0,B|400:280,1,170
328,328,12166,1,2
328,328,12366,2,0,B|224:328,1,85
168,256,12764,1,2
96,184,12964,1,2
96,184,13063,1,0
96,184,13163,1,0
160,104,13362,5,0
248,56,13562,2,0,B|336:56,1,85,2|0
400,136,13960,2,2,B|440:176|392:224,1,85
328,288,14359,5,0
328,288,14758,2,0,B|240:304|152:288,1,170
88,216,15356,2,0,B|0:216|0:216,2,85
168,152,15954,1,2
168,152,16157,2,0,B|256:136|344:152,1,170
337,151,16751,1,2
336,256,16950,1,0
336,256,17150,2,4,B|432:256|432:256,2,85,2|4|4
96,272,17947,6,0,B|96:96,1,170
184,152,18545,1,2
256,80,18744,1,0
328,152,18944,1,2
256,224,19143,1,2
256,224,19243,1,0
256,224,19342,1,0
256,224,19542,2,0,B|256:312,1,85
160,288,19940,6,0,B|64:288,1,85
96,168,20339,2,0,B|192:168,1,85
181,168,20738,1,2
176,80,21140,6,0,B|264:64|360:88,1,170
448,128,21734,2,2,B|480:208|440:296,1,170
256,192,22336,12,0,23931
112,104,24326,5,0
48,160,24525,1,2
112,216,24724,2,0,B|112:328|112:328,2,85
200,264,25322,1,2
288,224,25522,5,0
360,152,25721,2,0,B|456:152|456:152,2,85
272,104,26319,2,0,B|168:80|88:104,1,170
103,99,26917,1,2
104,184,27116,1,8
384,96,27515,6,0,B|472:96|472:96,2,85
328,160,28113,1,2
328,160,28213,1,0
328,160,28312,1,0
384,224,28512,1,0
384,224,28711,2,0,B|328:296|240:304,1,170
152,304,29309,1,0
80,232,29508,1,2
80,232,29608,1,0
80,232,29708,2,0,B|80:112,1,85
120,56,30106,2,0,B|200:40|224:72,1,85
384,176,30705,5,2
384,176,30904,1,0
440,240,31103,1,0
384,304,31303,1,2
384,304,31502,1,0
280,304,31701,1,2
192,304,31905,1,0
96,304,32100,2,0,B|40:232|96:112,1,170
83,142,32698,5,0
83,142,32897,2,2,B|192:96|280:160,1,170
336,192,33495,1,2
336,192,33595,1,0
336,192,33695,2,0,B|432:192,1,85
480,272,34093,2,0,B|432:304|384:304,1,85
328,336,34492,1,0
240,336,34691,1,2
240,336,35090,5,4
240,248,35289,1,2
240,248,35389,1,0
240,248,35489,1,0
120,248,35688,2,0,B|120:336|120:336,2,85
48,208,36286,1,0
64,136,36485,2,2,B|152:136,1,85
248,136,36884,1,0
248,48,37083,1,2
248,48,37283,1,0
344,72,37482,6,0,B|448:72,1,85
488,160,37881,2,0,B|384:160,1,85
344,240,38279,1,2
344,240,38379,1,0
344,240,38479,1,0
344,240,38682,2,0,B|248:264|168:232,1,170
96,184,39276,2,0,B|-8:184|-8:184,2,85
96,184,39874,1,2
96,96,40077,1,0
176,96,40273,1,0
256,72,40472,5,2
256,72,40572,1,0
256,72,40671,2,0,B|256:160,1,85
256,312,41070,1,8
176,248,41269,1,8
72,128,41469,5,2
72,128,41668,2,0,B|168:128,1,85
176,48,42067,1,0
256,112,42266,2,0,B|344:80|424:120,1,170
464,216,42864,1,0
400,296,43063,2,2,B|312:328|232:288,1,170
56,192,43861,5,2
56,192,43960,1,0
56,192,44060,1,0
96,288,44259,1,2
96,288,44658,2,0,B|208:288,1,85
296,232,45057,6,2,B|384:152|288:56,1,170
240,128,45655,1,2
176,184,45854,2,2,B|88:264|184:360,1,170
256,192,46452,12,4,47847
392,112,49243,6,0,B|424:160|432:208,1,85
408,280,49641,2,0,B|512:280|512:280,2,85
408,280,50239,1,0
328,328,50439,1,0
256,280,50638,1,2
256,280,50837,2,0,B|152:280,1,85
112,224,51236,1,2
112,224,51336,1,0
112,224,51435,2,0,B|56:144|112:48,1,170
304,96,52233,6,0,B|392:80|496:96,1,170
464,264,53030,1,0
392,304,53229,1,0
304,304,53429,1,0
256,232,53628,1,8
256,232,53827,1,0
184,192,54031,5,8
120,144,54226,1,0
48,192,54425,1,0
120,240,54625,2,0,B|120:336,1,85
216,280,55027,1,0
256,184,55227,2,4,B|352:184|352:184,2,85
88,88,56219,6,0,B|88:152|144:152,1,85
131,151,56618,1,0
224,104,56817,2,0,B|320:96|368:184,1,170
344,280,57415,1,2
320,280,57515,1,0
296,280,57615,2,0,B|128:280,1,170
72,184,58213,5,0
144,256,58412,1,2
72,184,58611,2,0,B|72:80,1,85
176,112,59010,1,2
232,176,59210,1,0
240,192,59309,1,2
248,208,59413,2,0,B|280:256|320:256,1,85
384,200,59807,2,0,B|424:144|368:96,1,85
304,112,60206,1,0
304,112,60406,2,0,B|192:80|112:120,1,170
208,264,61004,2,0,B|288:296|376:264|376:264,2,170
208,264,62000,1,2
208,264,62200,1,4
40,144,62602,5,0
144,144,62798,1,2
40,144,62997,2,0,B|40:232,1,85
112,304,63396,1,2
112,304,63495,1,0
112,304,63595,1,0
112,304,63794,2,0,B|208:328|288:304,1,170
384,232,64392,5,0
464,176,64592,1,2
392,104,64791,2,0,B|496:104|496:104,2,85
275,96,65389,1,2
275,96,65489,1,2
275,96,65588,1,0
275,96,65688,1,2
275,96,65788,2,0,B|152:96,1,85
96,136,66186,2,0,B|40:216|96:304,1,170
168,240,66784,5,0
240,288,66984,1,2
304,240,67183,1,0
376,288,67382,1,2
440,240,67582,2,0,B|440:144,1,85
440,155,67980,1,2
440,155,68180,2,0,B|368:104|272:152,1,170
112,128,68977,6,0,B|16:128,2,85
152,216,69575,1,2
160,232,69675,1,0
168,248,69774,1,0
176,264,69874,1,0
192,280,69974,2,0,B|232:320|280:304,1,85
360,264,70372,1,0
360,264,70572,2,0,B|392:208|336:160,1,85
368,80,70970,2,0,B|456:80|456:80,2,85
368,80,71768,1,6
280,128,71967,6,2,B|184:128,1,85
128,288,72366,2,2,B|224:288,1,85
384,264,72764,1,0
472,168,72964,1,0
280,160,73163,1,0
216,80,73362,5,2
216,80,73462,1,0
216,80,73562,2,0,B|112:80,1,85
88,144,73960,1,0
24,200,74160,1,0
88,144,74359,2,0,B|184:144,1,85,2|0
208,240,74758,2,2,B|104:240,1,85
88,144,75156,5,0
88,144,75356,2,0,B|176:112|264:152,1,170
360,280,75954,2,0,B|248:320|176:272,1,170
72,240,76552,2,0,B|72:336|72:336,2,85
72,240,77150,1,0
72,152,77349,1,2
120,88,77548,2,0,B|216:88,1,85
280,128,77947,1,2
280,128,78051,1,0
280,128,78146,1,0
376,96,78350,6,0,B|472:96|472:96,2,85
368,200,78948,1,2
368,200,79047,1,0
368,200,79147,1,0
344,288,79342,2,0,B|248:288,1,85
176,344,79741,1,0
104,272,79940,2,0,B|104:176,1,85
160,128,80339,1,2
104,64,80538,1,0
48,128,80738,1,0
56,232,80937,2,0,B|168:232,1,85
141,232,81336,1,2
192,320,81535,5,2
192,320,81635,1,0
192,320,81734,1,0
280,264,81934,2,0,B|392:264|392:264,2,85
280,160,82536,1,0
280,160,82735,1,0
208,88,82934,2,0,B|104:152|72:200,1,170
76,194,83532,1,0
165,256,83732,1,0
165,256,84126,1,0
224,200,84326,1,2
168,144,84525,1,2
256,88,84724,5,2
256,88,84924,2,0,B|368:88,1,85
368,184,85322,1,2
368,184,85522,2,0,B|368:272,1,85
272,296,85924,1,2
272,296,86120,2,0,B|192:331|96:291,1,170
152,200,86718,1,2
152,200,86817,1,0
152,200,86917,1,0
304,192,87316,6,0,B|400:192,1,85
216,192,87714,2,0,B|104:192,1,85
136,88,88113,6,0,B|224:48,1,85
376,88,88512,2,0,B|288:48,1,85
256,136,88910,5,0
256,224,89110,1,0
256,224,89309,2,0,B|256:320|256:320,2,85
344,216,89907,2,0,B|432:216,1,85
168,216,90306,2,0,B|80:216,1,85
168,216,90705,1,0
256,88,90904,5,2
256,112,91004,1,0
256,136,91103,1,0
256,160,91203,1,0
256,184,91303,2,0,B|256:272,1,85
256,269,91701,1,8
176,304,91901,6,0,B|88:304,1,85
72,208,92299,2,0,B|48:160|72:120,1,85
160,104,92698,1,2
160,104,92897,2,0,B|264:80|360:112,1,170
328,103,93495,1,0
400,176,93695,1,2
400,264,93894,1,2
312,312,94093,6,0,B|216:312,1,85
160,232,94492,2,0,B|72:232|72:232,2,85
192,136,95090,1,2
192,136,95289,2,0,B|192:32,1,85
88,56,95688,2,0,B|88:144,1,85
56,240,96087,2,0,B|96:280|152:288,1,85
224,240,96485,1,2
224,240,96585,1,0
224,240,96685,1,0
224,240,96884,6,0,B|328:240|328:240,2,85
224,240,97681,1,4
256,144,97881,2,0,B|352:144,1,85
408,192,98279,1,2
448,264,98479,2,0,B|352:296|272:256,1,170
224,152,99077,1,0
224,152,99276,2,0,B|128:120|48:160,1,170
56,240,99874,1,0
56,240,100073,1,0
112,304,100273,1,2
112,304,100372,1,0
112,304,100472,2,0,B|208:304,1,85
296,216,100871,5,0
384,160,101070,2,0,B|480:160|480:160,2,85
320,104,101668,1,2
320,104,101768,1,0
320,104,101867,2,0,B|224:80|128:104,1,170
96,168,102465,2,0,B|0:168|0:168,2,85
144,240,103063,2,0,B|144:344|144:344,2,85
144,240,103661,1,2
96,168,103861,1,2
168,120,104060,6,0,B|256:96|352:128,1,170
400,280,104658,2,0,B|304:312|232:280,1,170
232,280,105256,1,2
152,216,105455,1,2
232,152,105655,2,0,B|344:152,1,85
416,256,106053,2,4,B|320:256,1,85,2|4
256,328,106452,1,2
256,328,106552,1,0
256,328,106651,1,0
256,328,106851,6,0,B|136:328,1,85
112,240,107249,2,0,B|80:176|128:128,1,85
192,104,107648,2,0,B|256:80|304:120,1,85
320,168,108047,1,2
320,168,108246,1,0
376,232,108445,2,0,B|496:232|496:232,2,85
320,296,109043,1,2
320,296,109243,2,0,B|240:320|136:296,1,170
56,264,109841,2,4,B|56:352|56:352|64:344,2,85
200,128,110638,5,8
128,168,110837,1,2
128,256,111037,1,8
200,304,111236,1,2
264,224,111435,6,2,B|368:224|368:224,2,85
264,224,112033,1,2
336,120,112233,6,0,B|448:120,1,85
408,288,112631,2,0,B|320:288,1,85
160,240,113030,5,2
256,96,113229,5,2
344,240,113429,5,4
