osu file format v9

[General]
AudioFilename: Aletheia.mp3
AudioLeadIn: 0
PreviewTime: -1
Countdown: 0
SampleSet: Soft
StackLeniency: 0.7
Mode: 0
LetterboxInBreaks: 0

[Editor]
DistanceSpacing: 1
BeatDivisor: 4
GridSize: 8

[Metadata]
Title:Aletheia
Artist:eufonius
Creator:Gottwald
Version:Easy
Source:iro toridori no sekai
Tags:riya

[Difficulty]
HPDrainRate:2
CircleSize:3
OverallDifficulty:3
ApproachRate:3
SliderMultiplier:1
SliderTickRate:1

[Events]
//Background and Video events
0,0,"shinku.jpg"
//Break Periods
//Storyboard Layer 0 (Background)
//Storyboard Layer 1 (Fail)
//Storyboard Layer 2 (Pass)
//Storyboard Layer 3 (Foreground)
//Storyboard Sound Samples
//Background Colour Transformations
3,100,163,162,255

[TimingPoints]
410,398.671096345515,4,2,0,80,1,0
46157,-100,4,2,0,5,0,0
48350,-100,4,2,0,80,0,0
49139,-100,4,2,0,80,0,1
74957,-100,4,2,0,80,0,0
75088,-100,4,2,0,80,0,0
87818,-100,4,2,0,5,0,0
91008,-100,4,1,0,70,0,0
110742,-100,4,2,0,5,0,0
112536,-100,4,1,0,70,0,0

[Colours]
Combo1 : 43,249,95
Combo2 : 198,2,70
Combo3 : 113,120,255

[HitObjects]
256,64,11572,1,0
176,152,11971,1,2
256,240,12370,1,0
344,152,12768,1,0
344,152,13167,6,2,B|464:152|464:152,2,100
256,64,14363,1,0
136,64,14762,1,2
136,184,15160,2,0,B|136:304,1,100
256,272,15958,2,0,B|352:312|472:272,1,200
144,96,17951,6,0,B|64:176|128:288,1,200
256,80,19546,1,2
304,192,19944,1,0
256,304,20343,2,2,B|136:304,1,100
104,200,21140,1,0
112,80,21539,2,0,B|328:80,1,200
408,160,22735,1,2
408,160,23134,1,2
408,160,23532,1,2
200,280,24330,5,0
200,280,24728,1,2
80,280,25127,1,0
80,280,25526,1,2
32,168,25924,2,0,B|240:168,1,200
448,88,27519,5,0
448,88,27918,2,0,B|448:296,1,200
336,248,29114,1,0
256,160,29512,1,2
136,160,29911,1,0
72,296,30709,6,0,B|128:320|176:296,1,100
232,192,31506,2,0,B|288:168|336:192,1,100
392,296,32303,1,0
392,296,32702,1,2
392,176,33101,2,0,B|392:64,1,100
272,64,33898,2,0,B|56:64,1,200
72,184,35094,5,0
72,304,35493,2,0,B|192:304,1,100
256,216,36290,1,0
256,96,36689,2,2,B|136:96|136:96,2,100
376,80,37885,1,2
376,80,38283,1,2
376,80,38682,2,0,B|448:168|368:272,1,200
136,288,40277,2,0,B|112:232|136:192,1,100
256,192,41074,1,0
256,192,41473,1,2
344,104,41871,6,0,B|456:104|456:104,2,100
256,192,43067,1,0
256,192,43466,2,0,B|256:304|256:304,2,100
256,72,44662,1,2
136,72,45061,1,2
136,192,45459,2,4,B|136:296,1,100
256,192,46257,12,0,48250
384,96,49247,6,0,B|384:248,1,150
280,304,50243,1,2
280,184,50642,1,0
176,120,51041,2,0,B|176:328|176:328,2,200
296,112,53034,5,0
296,112,53433,1,2
416,112,53831,1,0
416,112,54230,1,2
440,232,54629,2,0,B|344:288|240:232,1,200
80,64,56223,6,0,B|80:184,1,100
144,264,57021,1,0
232,184,57419,1,2
232,184,57818,2,0,B|440:184,1,200
336,112,59413,5,0
216,112,59811,1,0
216,112,60210,1,2
96,112,60609,1,0
96,112,61008,1,2
72,232,61406,2,0,B|168:288|272:232,1,200
376,280,62602,6,0,B|376:168,1,100
288,96,63400,1,2
288,216,63798,1,0
192,160,64197,2,0,B|104:232|184:336,1,200
400,232,65792,5,0
320,144,66190,1,0
400,56,66589,1,0
480,144,66988,1,0
400,232,67386,2,0,B|400:304|400:304,2,50
280,232,68184,2,4,B|168:232,1,100
160,112,68981,6,0,B|48:112|48:112|56:112,2,100
256,40,70177,1,2
256,160,70576,1,0
352,112,70974,2,0,B|472:112,1,100
448,296,71971,6,2,B|344:344|240:288,1,200
256,80,73366,2,0,B|360:32|464:88,1,200
432,256,74562,1,2
256,192,75160,5,0
256,192,75360,2,2,B|256:304|256:304,2,100
256,72,76556,2,0,B|368:72,1,100
424,176,77353,2,0,B|320:176,1,100
256,288,78549,6,2,B|136:288,1,100
96,184,79346,2,0,B|96:80|96:80,2,100
216,160,80542,2,0,B|320:160,1,100
408,80,81340,2,0,B|408:200,1,100
408,304,82137,1,0
304,240,82536,1,0
200,304,82934,1,0
104,240,83333,2,0,B|32:152|96:56,1,200
280,96,84529,6,2,B|400:96|400:96,2,100
160,96,85725,1,2
160,96,86124,2,0,B|88:184|152:280,1,200
256,192,87320,1,4
256,192,87918,12,0,90908
256,192,91307,5,0
336,104,91705,2,0,B|448:104|448:104,2,100
256,192,92901,1,0
128,192,93300,2,0,B|8:192|8:192,2,100
184,296,94496,2,0,B|392:296,1,200
256,96,96091,1,2
256,96,96489,6,0,B|256:200|256:200,2,100
128,96,97685,2,0,B|64:176|112:304,1,200
224,264,98881,2,0,B|432:264,1,200
424,144,100077,1,2
424,144,100476,1,0
296,144,100875,5,2
296,144,101273,2,0,B|96:144,1,200
96,264,102469,2,0,B|216:264,1,100
296,328,103267,1,0
392,256,103665,1,0
480,176,104064,2,0,B|448:112|392:104,1,100
288,88,104861,1,2
288,88,105260,1,2
184,144,105659,6,0,B|136:248|176:352,1,200
256,256,106855,1,2
344,336,107253,2,0,B|392:232|352:128,1,200
256,112,108449,1,2
256,112,108848,2,0,B|256:224|256:224,2,100
136,112,110044,1,2
136,232,110443,1,2
256,192,110841,12,0,112436
256,128,113034,6,4,B|256:64|256:64,2,50
