osu file format v14

[General]
AudioFilename: GUMI ft. ensou - COMA.mp3
AudioLeadIn: 0
PreviewTime: 76699
Countdown: 0
SampleSet: Soft
StackLeniency: 0.7
Mode: 0
LetterboxInBreaks: 1
WidescreenStoryboard: 0

[Editor]
DistanceSpacing: 0.5
BeatDivisor: 4
GridSize: 4
TimelineZoom: 1

[Metadata]
Title:COMA
TitleUnicode:COMA
Artist:ensou ft. GUMI
ArtistUnicode:ensou ft. GUMI
Creator:jinhang_ang
Version:Insane
Source:Cytus
Tags:electronic rock ensou-p ensou-music event horizon gumi megpoid tagalog vocaloid vocaloid rock Philippines video game cytus
BeatmapID:593743
BeatmapSetID:246522

[Difficulty]
HPDrainRate:7
CircleSize:4
OverallDifficulty:7
ApproachRate:8.5
SliderMultiplier:1.4
SliderTickRate:1

[Events]
//Background and Video events
0,0,"night_of_music_by_boootajp-d706343.jpg",0,0
//Break Periods
2,98889,108004
2,154879,158671
2,184212,194004
2,208213,210004
//Storyboard Layer 0 (Background)
//Storyboard Layer 1 (Fail)
//Storyboard Layer 2 (Pass)
//Storyboard Layer 3 (Foreground)
//Storyboard Sound Samples

[TimingPoints]
2680,333.333333333333,4,2,0,50,1,0
22013,-142.857142857143,4,2,0,50,0,0
23179,-125,4,2,0,50,0,0
24013,-100,4,2,0,50,0,0
44679,-83.3333333333333,4,2,0,50,0,0
45513,-133.333333333333,4,2,0,50,0,0
56346,-117.647058823529,4,2,0,50,0,0
65346,-166.666666666667,4,2,0,50,0,0
66679,-100,4,2,0,50,0,0
67346,-166.666666666667,4,2,0,50,0,0
71679,-100,4,2,0,50,0,0
74679,-133.333333333333,4,2,0,50,0,0
76679,-200,4,2,0,50,0,0
77346,-100,4,1,0,50,0,1
98679,-100,4,2,0,50,0,0
109679,-117.647058823529,4,2,0,50,0,0
117346,-100,4,2,0,50,0,0
120013,-166.666666666667,4,2,0,50,0,0
130013,-166.666666666667,4,2,0,50,0,0
130679,-100,4,1,0,50,0,1
152013,-100,4,2,0,50,0,0
160013,-117.647058823529,4,2,0,50,0,0
162679,-100,4,2,0,50,0,0
178679,-83.3333333333333,4,2,0,50,0,0
180679,-100,4,2,0,50,0,0
183346,-83.3333333333333,4,2,0,50,0,0
194679,-142.857142857143,4,2,0,50,0,0
200679,-125,4,2,0,50,0,0
201346,-111.111111111111,4,2,0,50,0,0
202013,-100,4,2,0,50,0,0
202679,-100,4,2,0,50,0,0
210679,-166.666666666667,4,2,0,50,0,0
216013,-100,4,2,0,50,0,0
221346,-100,4,1,0,50,0,1
237013,-133.333333333333,4,1,0,50,0,1
238679,-117.647058823529,4,1,0,50,0,1
240013,-100,4,1,0,50,0,1
242679,-100,4,1,0,50,0,1
253346,-100,4,2,0,50,0,0

[HitObjects]
244,284,2679,6,0,L|316:248,1,70
320,160,3013,2,0,L|244:196,1,70
188,128,3346,1,0,0:0:0:0:
188,128,3679,6,0,L|116:96,1,70
136,192,4013,2,0,L|216:232,1,70
280,264,4346,2,0,P|288:208|276:184,1,70
268,108,4679,1,0,0:0:0:0:
268,108,5013,1,0,0:0:0:0:
160,256,5346,6,0,L|216:192,1,70
296,212,5679,2,0,L|240:284,1,70
160,256,6013,2,0,P|88:232|60:168,1,140
152,168,6513,2,0,L|180:136,2,35,0|0|0,0:0|0:0|0:0,0:0:0:0:
232,212,6846,1,0,0:0:0:0:
296,144,7013,1,0,0:0:0:0:
268,56,7179,1,0,0:0:0:0:
180,72,7346,6,0,L|100:28,1,70
96,128,7679,2,0,L|168:176,1,70
164,256,8013,5,0,0:0:0:0:
164,256,8179,1,0,0:0:0:0:
252,240,8346,1,0,0:0:0:0:
252,240,8513,1,0,0:0:0:0:
196,168,8679,1,0,0:0:0:0:
196,168,9013,6,0,L|264:120,1,70
332,176,9346,2,0,L|400:128,1,70,0|0,0:0|0:0,0:0:0:0:
328,68,9679,2,0,L|396:20,1,70,0|0,0:0|0:0,0:0:0:0:
464,96,10013,5,0,0:0:0:0:
432,252,10263,1,0,0:0:0:0:
280,300,10513,1,0,0:0:0:0:
348,240,10679,6,0,L|324:156,1,70
252,124,11013,2,0,L|188:192,1,70
240,260,11346,2,0,P|148:244|112:188,1,140
80,132,11846,2,0,L|60:96,2,35,0|0|0,0:0|0:0|0:0,0:0:0:0:
172,136,12179,2,0,L|252:124,1,70
332,112,12513,6,0,L|344:80,1,35
360,36,12679,1,0,0:0:0:0:
360,36,12763,1,0,0:0:0:0:
360,36,12846,1,0,0:0:0:0:
416,108,13013,2,0,L|440:184,1,70
364,228,13346,6,0,L|296:280,1,70
244,208,13679,2,0,L|176:260,1,70
104,220,14013,1,0,0:0:0:0:
68,116,14179,1,0,0:0:0:0:
156,144,14346,2,0,L|240:112,1,70
244,208,14679,2,0,L|160:240,1,70
232,308,15013,2,0,L|316:276,1,70
332,200,15346,1,0,0:0:0:0:
332,200,15679,1,0,0:0:0:0:
332,200,16013,6,0,L|300:108,1,70
236,188,16346,2,0,L|268:280,1,70
168,268,16679,2,0,L|120:108,1,140
208,92,17179,6,0,L|224:52,2,35,0|0|0,0:0|0:0|0:0,0:0:0:0:
292,128,17513,1,0,0:0:0:0:
324,212,17679,1,0,0:0:0:0:
284,292,17846,1,0,0:0:0:0:
192,292,18013,2,0,L|72:200,1,140
80,206,18513,1,0,0:0:0:0:
80,206,18679,6,0,L|148:152,1,70
220,196,19013,2,0,L|288:142,2,70,0|0|0,0:0|0:0|0:0,0:0:0:0:
152,276,19513,1,0,0:0:0:0:
240,304,19679,2,0,L|324:304,1,70,0|0,0:0|0:0,0:0:0:0:
364,228,20013,2,0,P|372:184|356:152,1,70
280,120,20346,2,0,P|272:164|288:196,2,70,0|0|0,0:0|0:0|0:0,0:0:0:0:
356,152,20846,5,0,0:0:0:0:
356,144,20929,1,0,0:0:0:0:
356,136,21013,1,0,0:0:0:0:
356,128,21096,1,0,0:0:0:0:
356,120,21179,1,0,0:0:0:0:
356,112,21263,1,0,0:0:0:0:
356,104,21346,5,0,0:0:0:0:
208,52,21596,1,0,0:0:0:0:
88,152,21846,1,0,0:0:0:0:
88,152,22013,2,0,P|76:216|96:256,1,97.9999970092774
224,192,22679,2,0,L|300:184,2,73.4999977569581,0|0|0,0:0|0:0|0:0,0:0:0:0:
224,192,23346,2,0,P|168:152|236:40,1,224
231,40,24513,5,0,0:0:0:0:
231,40,24846,1,0,0:0:0:0:
328,60,25179,2,0,L|356:24,2,35,0|0|0,0:0|0:0|0:0,0:0:0:0:
336,152,25513,1,0,0:0:0:0:
336,152,25846,2,0,L|288:240,1,70
302,213,26346,2,0,P|244:268|168:252,1,140
188,264,27179,5,0,0:0:0:0:
188,264,27513,1,0,0:0:0:0:
148,236,27679,2,0,L|108:208,2,35,0|0|0,0:0|0:0|0:0,0:0:0:0:
224,176,28179,2,0,L|280:112,1,70
316,204,28513,2,0,L|260:268,1,70
224,176,28846,2,0,L|280:112,1,70
156,264,29346,6,0,P|104:184|152:88,1,210
150,89,30179,1,0,0:0:0:0:
248,72,30513,2,0,L|264:36,2,35,0|0|0,0:0|0:0|0:0,0:0:0:0:
292,152,30846,1,0,0:0:0:0:
292,152,31179,2,0,L|256:220,1,70
259,213,31679,1,0,0:0:0:0:
252,312,32013,6,0,P|228:304|192:144,1,210
189,147,32846,1,0,0:0:0:0:
200,56,33013,2,0,L|200:16,2,35,0|0|0,0:0|0:0|0:0,0:0:0:0:
280,116,33513,2,0,P|340:128|368:116,1,70
364,216,33846,2,0,P|304:204|276:216,1,70
252,284,34179,2,0,P|312:296|340:284,1,70
172,188,34679,6,0,P|96:152|120:40,1,210
115,43,35513,1,0,0:0:0:0:
115,43,35846,2,0,L|248:92,1,140
246,91,36513,1,0,0:0:0:0:
252,180,36679,1,0,0:0:0:0:
252,180,37013,1,0,0:0:0:0:
252,180,37346,6,0,P|304:264|408:272,1,210
407,272,38179,1,0,0:0:0:0:
407,272,38513,2,0,L|380:116,1,140
292,136,39013,2,0,L|216:176,1,70
264,252,39346,5,0,0:0:0:0:
176,236,39513,1,0,0:0:0:0:
144,152,39679,1,0,0:0:0:0:
200,80,39846,1,0,0:0:0:0:
240,160,40013,6,0,B|296:124|296:124|328:36,1,140
324,236,40679,2,0,B|380:200|380:200|412:112,1,140
408,312,41346,2,0,B|464:276|464:276|496:188,2,140,0|0|0,0:0|0:0|0:0,0:0:0:0:
320,296,42179,5,0,0:0:0:0:
316,288,42263,1,0,0:0:0:0:
312,280,42346,1,0,0:0:0:0:
308,272,42429,1,0,0:0:0:0:
304,264,42513,1,0,0:0:0:0:
300,256,42596,1,0,0:0:0:0:
296,248,42679,6,0,P|240:176|132:200,1,210
134,197,43513,1,0,0:0:0:0:
134,197,43846,2,0,P|136:272|192:312,1,140
232,216,44346,2,0,L|316:176,1,70
376,284,44679,6,0,P|408:136|256:72,1,335.999989746094
188,100,45513,6,0,P|144:112|128:112,2,52.5000020027161,0|0|0,0:0|0:0|0:0,0:0:0:0:
236,160,46013,2,0,P|272:200|328:212,1,105.000004005432
312,136,46513,2,0,B|332:104|332:104|316:80|328:40,1,105.000004005432,0|0,0:0|0:0,0:0:0:0:
400,68,47013,2,0,L|456:176,2,105.000004005432,0|0|0,0:0|0:0|0:0,0:0:0:0:
400,68,48013,5,0,0:0:0:0:
400,68,48346,6,0,L|344:40,1,52.5000020027161
296,100,48679,2,0,P|304:172|272:208,1,105.000004005432
232,140,49179,2,0,L|200:132,2,26.2500010013581,0|0|0,0:0|0:0|0:0,0:0:0:0:
288,196,49513,2,0,P|229:238|182:229,1,105.000004005432
160,168,50013,2,0,L|64:120,2,105.000004005432,0|0|0,0:0|0:0|0:0,0:0:0:0:
212,116,51013,5,0,0:0:0:0:
284,116,51346,1,0,0:0:0:0:
248,180,51679,1,0,0:0:0:0:
328,184,51846,2,0,L|356:200,2,26.2500010013581,0|0|0,0:0|0:0|0:0,0:0:0:0:
284,248,52179,2,0,P|228:256|180:216,1,105.000004005432
172,156,52679,2,0,P|120:192|112:240,1,105.000004005432
68,296,53179,1,0,0:0:0:0:
36,224,53346,2,0,L|8:112,1,105.000004005432
148,56,54013,2,0,L|176:168,1,105.000004005432
252,176,54513,2,0,L|284:184,2,26.2500010013581,0|0|0,0:0|0:0|0:0,0:0:0:0:
196,232,54846,2,0,L|312:268,1,105.000004005432
432,184,55513,2,0,L|400:212,2,26.2500010013581,0|0|0,0:0|0:0|0:0,0:0:0:0:
288,120,56013,5,0,0:0:0:0:
152,232,56346,2,0,P|112:200|100:196,1,59.5000011348725,0|0,0:0|0:0,0:0:0:0:
104,120,56679,2,0,L|224:56,1,119.000002269745
280,32,57179,2,0,B|316:16|316:16|364:44|352:84,1,119.000002269745
328,152,57679,2,0,P|284:208|288:264,2,119.000002269745,0|0|0,0:0|0:0|0:0,0:0:0:0:
188,84,58679,6,0,L|132:56,1,59.5000011348725
128,136,59013,2,0,P|188:200|192:232,2,119.000002269745,0|0|0,0:0|0:0|0:0,0:0:0:0:
116,212,59846,2,0,L|88:232,2,29.7500005674362,0|0|0,0:0|0:0|0:0,0:0:0:0:
56,164,60179,1,0,0:0:0:0:
56,164,60346,2,0,P|60:96|168:72,1,178.500003404617
220,104,61013,2,0,L|332:188,2,119.000002269745,0|0|0,0:0|0:0|0:0,0:0:0:0:
220,104,61846,5,0,0:0:0:0:
220,104,62013,2,0,P|168:172|180:224,1,119.000002269745
112,252,62513,1,0,0:0:0:0:
184,280,62679,2,0,L|228:328,2,59.5000011348725,0|0|0,0:0|0:0|0:0,0:0:0:0:
168,204,63179,2,0,L|124:144,2,59.5000011348725,0|0|0,0:0|0:0|0:0,0:0:0:0:
240,228,63679,5,0,0:0:0:0:
240,228,63846,1,0,0:0:0:0:
240,228,64013,6,0,P|304:180|316:136,1,119.000002269745
172,84,64679,2,0,P|108:132|96:176,1,119.000002269745
240,228,65346,2,0,P|268:272|368:244,1,167.999994873047
308,192,66179,5,0,0:0:0:0:
308,192,66679,5,0,0:0:0:0:
160,132,66929,1,0,0:0:0:0:
276,28,67179,1,0,0:0:0:0:
248,120,67346,2,0,L|216:212,1,83.9999974365235
272,268,68013,5,0,0:0:0:0:
280,264,68096,1,0,0:0:0:0:
288,260,68179,1,0,0:0:0:0:
296,256,68263,1,0,0:0:0:0:
300,248,68346,1,0,0:0:0:0:
304,240,68429,1,0,0:0:0:0:
308,232,68513,1,0,0:0:0:0:
312,224,68596,1,0,0:0:0:0:
320,216,68679,1,0,0:0:0:0:
328,208,68763,1,0,0:0:0:0:
336,200,68846,1,0,0:0:0:0:
344,192,68929,1,0,0:0:0:0:
352,184,69013,6,0,L|364:88,1,83.9999974365235
362,100,69513,1,0,0:0:0:0:
362,100,69679,1,0,0:0:0:0:
362,100,70013,2,0,L|272:76,1,83.9999974365235
240,88,70679,5,0,0:0:0:0:
232,92,70763,1,0,0:0:0:0:
224,100,70846,1,0,0:0:0:0:
220,108,70929,1,0,0:0:0:0:
216,120,71013,1,0,0:0:0:0:
216,132,71096,1,0,0:0:0:0:
220,144,71179,1,0,0:0:0:0:
224,152,71263,1,0,0:0:0:0:
232,160,71346,5,0,0:0:0:0:
240,168,71429,1,0,0:0:0:0:
248,176,71513,1,0,0:0:0:0:
308,216,71679,2,0,L|368:260,1,70
300,324,72013,6,0,L|136:192,1,210
80,120,72679,2,0,P|96:44|160:36,1,140
148,32,73679,5,0,0:0:0:0:
236,44,74013,1,0,0:0:0:0:
248,136,74346,1,0,0:0:0:0:
160,172,74679,2,0,L|56:212,2,105.000004005432,0|0|0,0:0|0:0|0:0,0:0:0:0:
176,80,75679,5,0,0:0:0:0:
176,80,75846,1,0,0:0:0:0:
88,112,76179,1,0,0:0:0:0:
88,112,76346,1,0,0:0:0:0:
160,168,76679,6,0,P|196:200|232:208,1,70
312,52,77346,6,0,L|304:216,2,140,0|0|0,0:0|0:0|0:0,0:0:0:0:
220,208,78346,2,0,L|216:277,2,70,0|0|0,0:0|0:0|0:0,0:0:0:0:
392,272,79013,2,0,P|408:228|400:200,1,70
324,164,79346,2,0,P|289:167|258:152,1,70
172,176,79679,2,0,P|168:141|183:110,1,70
248,44,80013,2,0,B|280:0|304:4|304:4|356:72,2,140,0|0|0,0:0|0:0|0:0,0:0:0:0:
276,224,81013,2,0,L|288:144,2,70,0|0|0,0:0|0:0|0:0,0:0:0:0:
240,44,81679,2,0,P|196:84|188:112,1,70
180,184,82013,2,0,P|132:168|112:136,1,70
60,84,82346,2,0,P|104:60|128:64,1,70
204,100,82679,6,0,L|352:132,2,140,0|0|0,0:0|0:0|0:0,0:0:0:0:
352,208,83679,2,0,P|396:192|412:164,2,70,0|0|0,0:0|0:0|0:0,0:0:0:0:
176,248,84346,2,0,L|260:228,1,70
180,164,84679,2,0,L|96:184,1,70,0|0,0:0|0:0,0:0:0:0:
132,92,85013,2,0,L|216:72,1,70,0|0,0:0|0:0,0:0:0:0:
268,136,85346,2,0,P|312:224|356:236,1,140
176,164,86013,2,0,P|132:76|88:64,1,140
268,136,86679,2,0,L|236:272,1,140
88,168,87346,5,0,0:0:0:0:
88,168,87429,1,0,0:0:0:0:
88,168,87513,1,0,0:0:0:0:
104,80,87679,1,0,0:0:0:0:
168,144,87846,1,0,0:0:0:0:
256,116,88013,6,0,P|232:208|188:236,2,140,0|0|0,0:0|0:0|0:0,0:0:0:0:
360,268,89013,2,0,L|336:168,2,70,0|0|0,0:0|0:0|0:0,0:0:0:0:
236,136,89679,2,0,P|264:96|296:88,1,70
372,116,90013,2,0,P|344:156|312:164,1,70
236,136,90346,2,0,P|205:152|189:182,1,70
276,216,90679,2,0,P|216:272|148:268,2,140,0|0|0,0:0|0:0|0:0,0:0:0:0:
364,56,91679,2,0,L|320:136,2,70,0|0|0,0:0|0:0|0:0,0:0:0:0:
336,236,92346,2,0,P|256:228|220:168,2,140,0|0|0,0:0|0:0|0:0,0:0:0:0:
336,236,93346,6,0,L|396:104,1,140
304,116,93846,2,0,L|264:124,2,35,0|0|0,0:0|0:0|0:0,0:0:0:0:
208,272,94346,2,0,L|168:248,1,35
148,220,94513,2,0,P|135:149|220:40,1,210
320,192,95346,1,0,0:0:0:0:
376,20,95679,1,0,0:0:0:0:
432,192,96013,2,0,P|368:292|216:256,1,280
260,88,97013,2,0,P|308:64|320:40,1,70
336,140,97346,2,0,L|284:272,2,140,0|0|0,0:0|0:0|0:0,0:0:0:0:
252,160,98179,5,0,0:0:0:0:
248,168,98263,1,0,0:0:0:0:
244,176,98346,1,0,0:0:0:0:
240,184,98429,1,0,0:0:0:0:
236,192,98513,1,0,0:0:0:0:
232,200,98596,1,0,0:0:0:0:
228,208,98679,1,0,0:0:0:0:
156,128,108679,5,0,0:0:0:0:
164,140,108763,1,0,0:0:0:0:
172,152,108846,1,0,0:0:0:0:
180,164,108929,1,0,0:0:0:0:
188,176,109013,1,0,0:0:0:0:
196,188,109096,1,0,0:0:0:0:
204,200,109179,1,0,0:0:0:0:
212,212,109263,1,0,0:0:0:0:
220,224,109346,1,0,0:0:0:0:
376,236,109679,6,0,L|336:172,1,59.5000011348725
408,140,110013,2,0,P|344:104|296:120,1,119.000002269745
272,184,110513,2,0,P|224:136|232:80,1,119.000002269745
152,104,111013,2,0,L|120:220,2,119.000002269745,0|0|0,0:0|0:0|0:0,0:0:0:0:
152,104,112013,5,0,0:0:0:0:
152,104,112179,5,0,0:0:0:0:
152,104,112346,2,0,P|200:152|264:144,2,119.000002269745,0|0|0,0:0|0:0|0:0,0:0:0:0:
224,80,113179,2,0,P|280:80|320:136,1,119.000002269745
380,172,113679,1,0,0:0:0:0:
308,200,113846,2,0,L|196:260,1,119.000002269745
260,308,114346,2,0,L|368:252,1,119.000002269745,0|0,0:0|0:0,0:0:0:0:
312,108,115013,5,0,0:0:0:0:
372,160,115179,1,0,0:0:0:0:
312,108,115346,2,0,P|244:112|192:72,1,119.000002269745
136,124,115846,2,0,L|76:164,1,59.5000011348725,0|0,0:0|0:0,0:0:0:0:
140,212,116179,2,0,B|168:264|168:264|240:272,1,119.000002269745
216,196,116679,2,0,L|236:168,2,29.7500005674362,0|0|0,0:0|0:0|0:0,0:0:0:0:
228,272,117013,2,0,L|292:320,1,59.5000011348725
340,244,117346,6,0,P|352:152|300:100,1,140
327,117,118013,2,0,P|248:148|184:124,1,140
197,133,118679,1,0,0:0:0:0:
197,133,119013,5,0,0:0:0:0:
112,168,119179,1,0,0:0:0:0:
292,200,119513,5,0,0:0:0:0:
376,168,119679,1,0,0:0:0:0:
376,168,120013,6,0,P|364:268|228:276,1,251.999992309571
188,212,121679,5,0,0:0:0:0:
144,140,122346,5,0,0:0:0:0:
144,140,122679,6,0,P|260:120|388:180,1,251.999992309571
340,244,124346,5,0,0:0:0:0:
260,268,124679,6,0,L|236:272,2,20.9999993591309,0|0|0,0:0|0:0|0:0,0:0:0:0:
260,268,125013,6,0,L|276:172,1,83.9999974365235
228,116,126013,5,0,0:0:0:0:
176,188,126513,6,0,P|136:216|56:200,1,125.999996154785
108,136,127346,5,0,0:0:0:0:
156,68,127679,1,0,0:0:0:0:
240,72,128013,6,0,P|292:96|336:88,1,83.9999974365235
324,176,128679,2,0,P|280:216|276:252,2,83.9999974365235,0|0|0,0:0|0:0|0:0,0:0:0:0:
324,176,130013,6,0,L|340:80,1,83.9999974365235
204,132,130679,6,0,P|160:188|80:192,2,140,0|0|0,0:0|0:0|0:0,0:0:0:0:
372,200,131679,2,0,L|396:112,2,70,0|0|0,0:0|0:0|0:0,0:0:0:0:
192,232,132346,2,0,P|168:192|176:156,1,70,0|0,0:0|0:0,0:0:0:0:
100,112,132679,2,0,L|172:92,1,70
248,132,133013,2,0,P|292:136|312:160,1,70
336,240,133346,2,0,P|396:180|392:120,2,140,0|0|0,0:0|0:0|0:0,0:0:0:0:
224,96,134346,1,0,0:0:0:0:
224,96,134513,2,0,P|208:176|304:244,1,210
356,72,135346,1,0,0:0:0:0:
180,24,135679,1,0,0:0:0:0:
144,204,136013,6,0,L|288:244,2,140,0|0|0,0:0|0:0|0:0,0:0:0:0:
296,104,137013,1,0,0:0:0:0:
296,104,137179,2,0,L|232:332,1,210
148,148,138013,2,0,L|168:224,1,70
80,248,138346,2,0,L|104:328,1,70
192,304,138679,2,0,P|240:276|248:248,1,70
308,196,139013,2,0,L|328:288,1,70
388,200,139346,2,0,L|372:120,1,70
316,60,139679,2,0,P|224:76|188:128,2,140,0|0|0,0:0|0:0|0:0,0:0:0:0:
184,184,140679,5,0,0:0:0:0:
184,184,140763,1,0,0:0:0:0:
184,184,140846,1,0,0:0:0:0:
200,272,141013,1,0,0:0:0:0:
116,236,141179,1,0,0:0:0:0:
100,148,141346,6,0,P|156:96|216:96,2,140,0|0|0,0:0|0:0|0:0,0:0:0:0:
268,224,142346,2,0,B|272:176|300:160|300:160|240:104,1,140,0|0,0:0|0:0,0:0:0:0:
412,200,143013,2,0,L|328:224,1,70
304,300,143346,2,0,L|220:324,1,70
180,248,143679,2,0,P|124:188|128:124,2,140,0|0|0,0:0|0:0|0:0,0:0:0:0:
316,128,144679,2,0,L|220:236,1,140
196,144,145179,2,0,B|248:88|284:36|312:40|368:56|384:96,1,210,0|0,0:0|0:0,0:0:0:0:
264,224,146013,1,0,0:0:0:0:
264,224,146346,1,0,0:0:0:0:
264,224,146679,6,0,P|176:248|124:220,1,140
134,229,147346,2,0,P|132:152|12:84,2,210,0|0|0,0:0|0:0|0:0,0:0:0:0:
288,132,148679,1,0,0:0:0:0:
276,312,149013,1,0,0:0:0:0:
196,148,149346,1,0,0:0:0:0:
196,148,150013,5,0,0:0:0:0:
196,148,150346,2,0,P|276:132|324:72,1,140
228,64,150846,2,0,L|328:268,1,210
320,252,151429,1,0,0:0:0:0:
320,252,151513,1,0,0:0:0:0:
228,260,151679,1,0,0:0:0:0:
180,184,151846,1,0,0:0:0:0:
256,192,152013,12,0,154679,0:0:0:0:
188,152,159346,5,0,0:0:0:0:
188,152,159513,1,0,0:0:0:0:
188,152,159679,1,0,0:0:0:0:
188,152,159846,1,0,0:0:0:0:
188,152,160013,6,0,B|232:192|232:192|304:192,1,119.000002269745
404,152,160679,2,0,B|360:112|360:112|288:112,1,119.000002269745
316,232,161346,5,0,0:0:0:0:
308,232,161429,1,0,0:0:0:0:
300,232,161513,1,0,0:0:0:0:
292,232,161596,1,0,0:0:0:0:
284,224,161679,1,0,0:0:0:0:
276,216,161763,1,0,0:0:0:0:
268,208,161846,1,0,0:0:0:0:
260,200,161929,1,0,0:0:0:0:
248,188,162013,6,0,L|224:152,1,29.7500005674362
144,168,162346,2,0,L|120:132,1,29.7500005674362
180,268,162679,6,0,P|92:264|52:216,1,140
236,196,163346,2,0,P|276:274|254:332,2,140
124,52,164346,1,0,0:0:0:0:
124,52,164513,1,0,0:0:0:0:
124,52,164679,6,0,L|264:88,1,140
259,86,165679,5,0,0:0:0:0:
259,86,166013,2,0,L|356:216,1,140
164,176,166679,2,0,L|67:46,1,140
236,160,167346,1,0,0:0:0:0:
236,160,167679,1,0,0:0:0:0:
300,332,168013,6,0,P|364:304|396:232,1,140
236,160,168679,2,0,P|172:188|140:260,1,140
156,68,169346,2,0,P|232:116|232:172,1,140
368,284,170013,2,0,L|340:136,1,140
172,212,170679,1,0,0:0:0:0:
100,156,170846,1,0,0:0:0:0:
184,124,171013,2,0,P|256:184|256:236,2,140
184,124,172013,5,0,0:0:0:0:
240,52,172179,1,0,0:0:0:0:
184,124,172513,5,0,0:0:0:0:
240,52,172680,1,0,0:0:0:0:
272,136,172846,1,0,0:0:0:0:
212,204,173013,6,0,L|204:248,2,35
300,224,173346,5,0,0:0:0:0:
336,308,173513,2,0,B|372:292|404:304|404:304|412:256|392:232|392:232|408:200|448:196,1,210
492,272,174179,1,0,0:0:0:0:
444,196,174346,2,0,P|452:148|436:120,1,70
360,164,174679,1,0,0:0:0:0:
356,72,174846,1,0,0:0:0:0:
276,120,175013,2,0,P|264:160|276:196,1,70
200,244,175346,2,0,P|152:240|124:248,1,70
172,328,175679,2,0,P|220:332|248:324,1,70
304,260,176013,5,0,0:0:0:0:
272,176,176179,1,0,0:0:0:0:
184,160,176346,2,0,P|120:128|104:56,1,140
192,76,176846,1,0,0:0:0:0:
284,80,177013,2,0,L|308:44,2,35
356,136,177346,2,0,P|396:168|400:260,1,140
320,220,177846,1,0,0:0:0:0:
232,240,178013,5,0,0:0:0:0:
148,204,178179,1,0,0:0:0:0:
108,124,178346,1,0,0:0:0:0:
136,36,178513,1,0,0:0:0:0:
216,108,178679,6,0,P|200:248|168:272,1,167.999994873047
368,136,179346,2,0,P|280:148|208:100,1,167.999994873047
96,292,180013,5,0,0:0:0:0:
188,236,180179,1,0,0:0:0:0:
148,132,180346,1,0,0:0:0:0:
196,32,180513,1,0,0:0:0:0:
264,112,180679,5,0,0:0:0:0:
268,120,180763,1,0,0:0:0:0:
272,128,180846,1,0,0:0:0:0:
276,136,180929,1,0,0:0:0:0:
280,144,181013,1,0,0:0:0:0:
284,152,181096,1,0,0:0:0:0:
288,160,181179,1,0,0:0:0:0:
292,168,181263,1,0,0:0:0:0:
296,176,181346,6,0,P|344:244|420:272,1,140
388,84,182013,1,0,0:0:0:0:
376,80,182096,1,0,0:0:0:0:
364,76,182179,1,0,0:0:0:0:
352,72,182263,1,0,0:0:0:0:
340,68,182346,1,0,0:0:0:0:
328,64,182429,1,0,0:0:0:0:
316,60,182513,6,0,P|208:60|140:132,1,210
216,164,183346,2,0,P|228:236|88:160,1,335.999989746094
152,208,194679,5,0,0:0:0:0:
248,196,195013,6,0,L|240:144,1,48.9999985046387
304,108,195346,2,0,P|336:112|384:180,1,97.9999970092774
324,204,195846,1,0,0:0:0:0:
324,204,196346,1,0,0:0:0:0:
276,264,196679,2,0,L|224:276,1,48.9999985046387
196,208,197013,2,0,L|184:184,2,24.4999992523194
260,168,197346,2,0,P|228:108|196:92,1,97.9999970092774
132,128,198013,2,0,P|92:99|75:54,1,97.9999970092774
152,52,198679,1,0,0:0:0:0:
228,76,199013,1,0,0:0:0:0:
304,64,199346,1,0,0:0:0:0:
276,136,199679,1,0,0:0:0:0:
200,148,200013,6,0,L|100:188,1,97.9999970092774
108,272,200679,6,0,L|216:224,1,112
200,316,201346,6,0,L|316:264,1,125.999996154785
376,232,202013,6,0,P|380:120|348:96,1,140
304,172,202513,1,0,0:0:0:0:
280,84,202679,2,0,P|184:116|128:100,2,140
280,84,203679,1,0,0:0:0:0:
280,84,204013,2,0,P|304:164|348:200,1,140
164,172,204679,2,0,P|140:92|96:56,1,140
252,156,205346,5,0,0:0:0:0:
180,324,205679,1,0,0:0:0:0:
16,244,206013,1,0,0:0:0:0:
96,80,206346,1,0,0:0:0:0:
144,196,206679,1,0,0:0:0:0:
144,196,207013,1,0,0:0:0:0:
316,132,207346,5,0,0:0:0:0:
316,132,207429,1,0,0:0:0:0:
316,132,207513,1,0,0:0:0:0:
240,184,207679,1,0,0:0:0:0:
240,184,207763,1,0,0:0:0:0:
240,184,207846,1,0,0:0:0:0:
208,100,208013,5,0,0:0:0:0:
184,232,210679,6,0,P|156:168|200:84,1,167.999994873047
272,168,211679,1,0,0:0:0:0:
316,96,211846,2,0,P|352:128|348:208,1,125.999996154785
316,280,212679,1,0,0:0:0:0:
244,236,213013,1,0,0:0:0:0:
180,180,213346,5,0,0:0:0:0:
304,164,213679,1,0,0:0:0:0:
236,80,214013,1,0,0:0:0:0:
236,80,214096,1,0,0:0:0:0:
236,80,214179,1,0,0:0:0:0:
160,100,214346,1,0,0:0:0:0:
104,44,214513,1,0,0:0:0:0:
104,44,215013,6,0,P|80:96|92:136,1,83.9999974365235
140,184,215679,2,0,P|192:192|228:224,1,83.9999974365235
132,320,216346,2,0,P|208:308|248:260,1,140
246,262,217013,1,0,0:0:0:0:
324,164,217179,1,0,0:0:0:0:
324,164,217679,6,0,P|264:128|248:52,2,140
260,220,218679,6,0,L|224:200,3,35
220,188,219013,2,0,L|204:156,3,35
204,140,219346,2,0,L|168:112,3,35
160,116,219679,2,0,L|120:132,3,35
120,144,220013,5,0,0:0:0:0:
120,156,220096,1,0,0:0:0:0:
120,168,220179,1,0,0:0:0:0:
120,180,220263,1,0,0:0:0:0:
120,192,220346,1,0,0:0:0:0:
120,204,220429,1,0,0:0:0:0:
120,216,220513,1,0,0:0:0:0:
120,228,220596,1,0,0:0:0:0:
120,240,220679,1,0,0:0:0:0:
120,248,221346,6,0,P|204:292|248:276,2,140
280,160,222346,2,0,P|304:196|288:236,2,70
108,224,223013,2,0,L|196:188,1,70
196,108,223346,2,0,L|128:136,1,70
108,224,223679,2,0,L|196:188,1,70
260,164,224013,2,0,P|328:216|324:272,2,140
396,44,225013,1,0,0:0:0:0:
328,100,225179,2,0,B|252:52|200:100|200:100|159:41,1,210
156,224,226013,5,0,0:0:0:0:
332,260,226346,2,0,P|256:200|268:148,2,140
352,172,227179,2,0,L|384:152,2,35
172,144,227679,2,0,L|132:160,1,35
100,180,227846,2,0,P|120:264|228:252,1,210
240,72,228679,2,0,L|284:208,1,140
240,72,229346,1,0,0:0:0:0:
240,72,230013,1,0,0:0:0:0:
240,72,230679,1,0,0:0:0:0:
240,72,231013,6,0,L|328:84,1,70
336,160,231346,5,0,0:0:0:0:
332,168,231429,1,0,0:0:0:0:
324,176,231513,1,0,0:0:0:0:
316,184,231596,1,0,0:0:0:0:
308,188,231679,1,0,0:0:0:0:
296,192,231763,1,0,0:0:0:0:
284,192,231846,1,0,0:0:0:0:
200,152,232013,5,0,0:0:0:0:
156,224,232679,1,0,0:0:0:0:
88,176,233346,1,0,0:0:0:0:
132,104,234013,1,0,0:0:0:0:
204,148,234679,5,0,0:0:0:0:
248,76,235345,1,0,0:0:0:0:
316,124,236012,1,0,0:0:0:0:
272,196,236679,1,0,0:0:0:0:
272,196,237013,5,0,0:0:0:0:
272,196,237346,2,0,P|168:152|192:56,1,210.000008010865
244,124,238679,2,0,P|243:221|124:224,1,238.00000453949
184,176,240013,2,0,P|184:273|324:248,1,280
248,224,241346,1,0,0:0:0:0:
248,224,241513,1,0,0:0:0:0:
248,224,242013,5,0,0:0:0:0:
240,216,242096,1,0,0:0:0:0:
236,208,242179,1,0,0:0:0:0:
232,196,242263,1,0,0:0:0:0:
232,184,242346,1,0,0:0:0:0:
232,172,242429,1,0,0:0:0:0:
236,164,242513,1,0,0:0:0:0:
244,156,242596,1,0,0:0:0:0:
248,148,242679,6,0,P|208:120|200:96,1,70
288,68,243013,2,0,L|360:40,1,70
380,128,243346,2,0,P|352:184|364:220,1,70
324,276,243679,2,0,L|248:300,1,70
172,264,244013,2,0,L|132:188,1,70
48,204,244346,2,0,L|92:288,1,70
140,200,244679,2,0,P|132:144|148:124,1,70
224,164,245013,2,0,L|244:240,1,70
308,168,245346,6,0,P|288:108|264:92,1,70
200,76,245679,2,0,L|128:96,1,70
68,160,246013,2,0,P|60:224|76:248,1,70
144,260,246346,2,0,P|208:252|224:224,1,70
292,216,246679,2,0,L|336:280,1,70
368,188,247013,2,0,P|356:144|372:108,1,70
272,132,247346,2,0,L|192:136,2,70
356,96,247846,1,0,0:0:0:0:
368,188,248013,6,0,L|384:268,1,70
292,264,248346,2,0,P|272:224|232:208,1,70
212,292,248679,2,0,L|140:232,1,70
168,156,249013,2,0,P|176:108|152:72,1,70
84,128,249346,2,0,P|76:176|100:212,1,70
160,244,249679,2,0,L|244:216,1,70
252,132,250013,1,0,0:0:0:0:
340,112,250179,1,0,0:0:0:0:
412,168,250346,2,0,P|372:240|380:296,2,140
424,80,251346,5,0,0:0:0:0:
424,80,251679,1,0,0:0:0:0:
424,80,252013,5,0,0:0:0:0:
352,24,252179,1,0,0:0:0:0:
340,116,252346,1,0,0:0:0:0:
268,60,252513,1,0,0:0:0:0:
256,148,252679,1,0,0:0:0:0:
252,160,252763,1,0,0:0:0:0:
248,168,252846,1,0,0:0:0:0:
240,176,252929,1,0,0:0:0:0:
232,184,253013,1,0,0:0:0:0:
224,188,253096,1,0,0:0:0:0:
216,192,253179,2,0,P|160:208|144:200,1,70
