osu file format v14

[General]
AudioFilename: 5-10 COMA.mp3
AudioLeadIn: 0
PreviewTime: 55379
Countdown: 0
SampleSet: Soft
StackLeniency: 0.6
Mode: 0
LetterboxInBreaks: 0
WidescreenStoryboard: 0

[Editor]
DistanceSpacing: 1.2
BeatDivisor: 2
GridSize: 4
TimelineZoom: 1.3

[Metadata]
Title:COMA
TitleUnicode:COMA
Artist:ensou ft. GUMI
ArtistUnicode:ensou ft. GUMI
Creator:-[Hikari]-
Version:Easy
Source:Cytus
Tags:Autumn sodarose vocaloid yf_bmp megpoid filipino
BeatmapID:566002
BeatmapSetID:167740

[Difficulty]
HPDrainRate:2
CircleSize:2
OverallDifficulty:2
ApproachRate:3
SliderMultiplier:0.799999999999999
SliderTickRate:1

[Events]
//Background and Video events
0,0,"COMA.jpg",0,0
//Break Periods
2,80246,80939
//Storyboard Layer 0 (Background)
//Storyboard Layer 1 (Fail)
//Storyboard Layer 2 (Pass)
//Storyboard Layer 3 (Foreground)
//Storyboard Sound Samples

[TimingPoints]
2713,333.333333333333,4,2,1,80,1,0
56046,-100,4,2,1,85,0,1
72046,-100,4,2,1,80,0,0
88046,-100,4,2,1,85,0,1
98712,-100,4,2,1,80,0,0
102629,-100,4,2,1,30,0,0

[Colours]
Combo1 : 0,140,0
Combo2 : 217,217,217
Combo3 : 108,54,0

[HitObjects]
256,192,713,12,2,2712,0:0:0:0:
354,114,4046,6,0,P|303:164|260:169,1,79.9999999999999,8|2,0:0|0:0,0:0:0:0:
212,119,4712,2,0,P|263:69|306:64,1,79.9999999999999,8|2,0:0|0:0,0:0:0:0:
351,17,5379,6,0,P|444:81|449:139,1,160,12|8,0:0|0:0,0:0:0:0:
456,312,6712,2,0,P|363:248|358:190,1,160,2|8,0:0|0:0,0:0:0:0:
354,114,7712,1,8,0:0:0:0:
267,71,8046,6,0,P|182:67|112:111,1,160,6|8,0:0|0:0,0:0:0:0:
83,192,9046,1,2,0:0:0:0:
77,287,9379,2,0,P|157:247|172:166,2,160,2|8|6,0:0|0:0|0:0,0:0:0:0:
256,192,11046,12,6,13379,0:0:0:0:
388,226,14712,6,0,P|306:261|240:221,1,160,2|8,0:0|0:0,0:0:0:0:
182,160,15712,1,8,0:0:0:0:
109,100,16046,6,0,P|91:175|136:242,1,160,6|8,0:0|0:0,0:0:0:0:
230,243,17046,2,0,P|217:292|184:325,2,79.9999999999999,2|0|0,0:0|0:0|0:0,0:0:0:0:
182,160,18046,2,0,P|245:147|278:162,1,79.9999999999999,8|2,0:0|0:0,0:0:0:0:
350,178,18712,6,0,P|337:256|405:321,1,160,6|8,0:0|0:0,0:0:0:0:
434,231,19712,2,0,P|447:153|379:88,1,160
308,58,20712,2,0,P|273:68|204:49,1,79.9999999999999,8|8,0:0|0:0,0:0:0:0:
136,40,21379,6,0,P|77:137|87:205,1,160,6|8,0:0|0:0,0:0:0:0:
137,255,22379,2,0,P|169:211|169:167,2,79.9999999999999,2|2|2,0:0|0:0|0:0,0:0:0:0:
41,267,23379,2,0,P|96:348|175:345,1,160,8|4,0:0|0:0,0:0:0:0:
341,326,24712,5,8,0:0:0:0:
256,153,25379,1,2,0:0:0:0:
447,167,26046,2,0,P|413:142|401:98,1,79.9999999999999,8|2,0:0|0:0,0:0:0:0:
387,12,26712,5,4,0:0:0:0:
256,153,27379,1,8,0:0:0:0:
126,294,28046,2,0,L|222:303,1,79.9999999999999,2|8,0:0|0:0,0:0:0:0:
179,209,28712,2,0,L|83:200,1,79.9999999999999,8|8,0:0|0:0,0:0:0:0:
24,140,29379,5,6,0:0:0:0:
114,109,29712,2,0,P|187:94|275:150,1,160,2|2,0:0|0:0,0:0:0:0:
278,225,30712,2,0,P|287:279|332:321,1,79.9999999999999,6|2,0:0|0:0,0:0:0:0:
396,306,31379,2,0,P|387:252|342:210,1,79.9999999999999,8|8,0:0|0:0,0:0:0:0:
333,144,32046,6,0,P|368:126|392:94,1,79.9999999999999,6|2,0:0|0:0,0:0:0:0:
305,53,32712,2,0,P|269:70|245:102,1,79.9999999999999,8|2,0:0|0:0,0:0:0:0:
247,198,33379,1,8,0:0:0:0:
293,281,33712,2,0,L|395:289,2,79.9999999999999,8|8|0,0:0|0:0|0:0,0:0:0:0:
197,281,34712,5,6,0:0:0:0:
26,192,35379,1,2,0:0:0:0:
197,103,36046,1,2,0:0:0:0:
380,46,36712,2,0,P|327:86|316:115,1,79.9999999999999,2|8,0:0|0:0,0:0:0:0:
408,137,37379,5,2,0:0:0:0:
488,188,37712,2,0,P|409:232|334:195,1,160,8|8,0:0|0:0,0:0:0:0:
311,121,38712,2,0,P|267:156|253:197,1,79.9999999999999,0|8,0:0|0:0,0:0:0:0:
271,271,39379,2,0,P|204:257|183:232,1,79.9999999999999,2|8,0:0|0:0,0:0:0:0:
119,194,40046,5,6,0:0:0:0:
92,101,40379,2,0,P|22:199|40:252,1,160,8|8,0:0|0:0,0:0:0:0:
98,294,41379,2,0,L|192:297,1,79.9999999999999,2|8,0:0|0:0,0:0:0:0:
271,271,42046,2,0,L|365:274,1,79.9999999999999,2|8,0:0|0:0,0:0:0:0:
404,353,42712,6,0,P|446:260|419:207,1,160,6|2,0:0|0:0,0:0:0:0:
350,151,43712,1,8,0:0:0:0:
254,170,44046,2,0,P|188:232|100:216,1,160,6|2,0:0|0:0,0:0:0:0:
51,163,45046,1,8,0:0:0:0:
96,77,45379,6,0,P|198:63|253:179,1,240,6|0,0:0|0:0,0:0:0:0:
318,243,46712,2,0,P|216:257|161:141,1,240
229,83,48046,6,0,P|330:42|456:86,1,240,6|0,0:0|0:0,0:0:0:0:
466,175,49379,2,0,P|409:307|315:331,1,240,2|8,0:0|0:0,0:0:0:0:
229,326,50712,6,0,P|126:241|131:194,1,160,6|8,0:0|0:0,0:0:0:0:
114,132,51712,2,0,P|217:217|212:264,1,160,0|2,0:0|0:0,0:0:0:0:
229,326,52712,2,0,P|289:296|307:264,1,79.9999999999999,8|2,0:0|0:0,0:0:0:0:
256,192,53379,12,2,54712,0:0:0:0:
119,100,56046,6,0,P|208:83|262:131,1,160,6|2,0:0|0:0,0:0:0:0:
178,177,57046,1,8,0:0:0:0:
91,218,57379,2,0,P|157:270|246:245,1,160,2|2,0:0|0:0,0:0:0:0:
308,206,58379,1,8,0:0:0:0:
353,121,58712,6,0,P|401:181|403:217,1,79.9999999999999,6|8,0:0|0:0,0:0:0:0:
380,275,59379,2,0,L|359:362,1,79.9999999999999,2|8,0:0|0:0,0:0:0:0:
456,341,60046,2,0,L|474:263,1,79.9999999999999,2|8,0:0|0:0,0:0:0:0:
491,168,60712,2,0,P|477:121|435:74,1,79.9999999999999,2|8,0:0|0:0,0:0:0:0:
397,22,61379,5,4,0:0:0:0:
213,79,62046,2,0,L|305:96,2,79.9999999999999,2|8|2,0:0|0:0|0:0,0:0:0:0:
211,175,63046,2,0,L|119:158,2,79.9999999999999,8|2|8,0:0|0:0|0:0,0:0:0:0:
305,191,64046,6,0,P|247:261|181:263,2,160,6|2|2,0:0|0:0|0:0,0:0:0:0:
397,22,66046,2,0,P|361:52|335:100,1,79.9999999999999,8|8,0:0|0:0,0:0:0:0:
312,170,66712,6,0,P|261:127|252:103,1,79.9999999999999,6|8,0:0|0:0,0:0:0:0:
264,20,67379,2,0,P|205:33|178:66,1,79.9999999999999,2|8,0:0|0:0,0:0:0:0:
166,137,68046,2,0,P|138:165|103:182,1,79.9999999999999,0|8,0:0|0:0,0:0:0:0:
81,89,68712,2,0,P|45:106|17:134,1,79.9999999999999,2|8,0:0|0:0,0:0:0:0:
15,231,69379,6,0,P|85:280|155:264,1,160,6|2,0:0|0:0,0:0:0:0:
103,183,70379,1,8,0:0:0:0:
81,89,70712,2,0,L|169:73,1,79.9999999999999,0|8,0:0|0:0,0:0:0:0:
249,108,71379,2,0,L|337:92,1,79.9999999999999,0|8,0:0|0:0,0:0:0:0:
393,164,72046,6,0,P|419:75|385:20,2,160,4|0|8,0:0|0:0|0:0,0:0:0:0:
323,230,73712,2,0,P|381:258|395:257,2,79.9999999999999,0|8|2,0:0|0:0|0:0,0:0:0:0:
297,137,74712,6,0,P|230:207|233:265,1,160,6|2,0:0|0:0,0:0:0:0:
310,322,75712,2,0,P|229:361|153:310,1,160,8|2,0:0|0:0,0:0:0:0:
127,247,76712,1,8,0:0:0:0:
144,152,77046,1,8,0:0:0:0:
256,192,77379,12,6,80046,0:0:0:0:
256,112,82379,5,0,0:0:0:0:
309,32,82712,6,0,P|352:117|250:207,1,240,6|0,0:0|0:0,0:0:0:0:
207,286,84046,2,0,P|167:182|254:111,1,240,6|0,0:0|0:0,0:0:0:0:
333,165,85379,6,0,P|248:208|158:106,1,240,6|0,0:0|0:0,0:0:0:0:
79,63,86712,2,0,P|184:23|255:111,1,240,6|0,0:0|0:0,0:0:0:0:
157,117,88046,5,6,0:0:0:0:
207,198,88379,2,0,L|208:293,1,79.9999999999999,8|8,0:0|0:0,0:0:0:0:
304,277,89046,2,0,L|305:198,1,79.9999999999999,8|2,0:0|0:0,0:0:0:0:
354,117,89712,1,8,0:0:0:0:
305,34,90046,2,0,P|266:81|259:118,1,79.9999999999999,8|8,0:0|0:0,0:0:0:0:
256,192,90712,5,6,0:0:0:0:
179,249,91046,2,0,L|149:348,2,79.9999999999999,8|8|8,0:0|0:0|0:0,0:0:0:0:
256,192,92046,1,2,0:0:0:0:
333,135,92379,2,0,L|363:36,2,79.9999999999999,8|8|8,0:0|0:0|0:0,0:0:0:0:
344,230,93379,6,0,L|314:329,1,79.9999999999999,6|8,0:0|0:0,0:0:0:0:
225,316,94046,2,8,L|255:217,1,79.9999999999999
263,144,94712,2,0,L|287:68,1,79.9999999999999,2|8,0:0|0:0,0:0:0:0:
191,77,95379,2,8,L|168:154,1,79.9999999999999
179,249,96046,6,0,L|91:271,2,79.9999999999999,6|2|8,0:0|0:0|0:0,0:0:0:0:
256,192,97046,1,8,0:0:0:0:
333,249,97379,2,0,L|421:271,2,79.9999999999999,0|2|8,0:0|0:0|0:0,0:0:0:0:
256,192,98379,1,8,0:0:0:0:
256,96,98712,5,6,0:0:0:0:
256,192,99046,12,0,105379,0:0:0:0:
