osu file format v12

[General]
AudioFilename: comaensou.mp3
AudioLeadIn: 0
PreviewTime: 77450
Countdown: 0
SampleSet: Normal
StackLeniency: 0.7
Mode: 3
LetterboxInBreaks: 0
SpecialStyle: 0
WidescreenStoryboard: 1

[Editor]
DistanceSpacing: 0.8
BeatDivisor: 4
GridSize: 32
TimelineZoom: 1.6

[Metadata]
Title:COMA
TitleUnicode:COMA
Artist:ensou feat. GUMI
ArtistUnicode:ensou feat. GUMI
Creator:arcwinolivirus
Version:4K MX
Source:Cytus
Tags:tagalog vocaloid filipino
BeatmapID:364414
BeatmapSetID:147152

[Difficulty]
HPDrainRate:8
CircleSize:4
OverallDifficulty:8
ApproachRate:5
SliderMultiplier:1.4
SliderTickRate:1

[Events]
//Background and Video events
0,0,"BG.png",0,0
//Break Periods
//Storyboard Layer 0 (Background)
//Storyboard Layer 1 (Fail)
//Storyboard Layer 2 (Pass)
//Storyboard Layer 3 (Foreground)
//Storyboard Sound Samples
//Background Colour Transformations
3,100,163,162,255

[TimingPoints]
117,333.333333333333,4,1,1,50,1,0
2116,-133.333333333333,4,1,1,50,0,0
2783,-100,4,1,1,50,0,0
21450,-80,4,1,1,50,0,0
21533,-133.333333333333,4,1,1,50,0,0
21700,-80,4,1,1,50,0,0
21783,-133.333333333333,4,1,1,50,0,0
21950,-100,4,1,1,50,0,0
22783,-80,4,1,1,50,0,0
22866,-133.333333333333,4,1,1,50,0,0
23033,-80,4,1,1,50,0,0
23116,-133.333333333333,4,1,1,50,0,0
23283,-100,4,1,1,50,0,0
23450,-500,4,1,1,50,0,0
23533,-285.714285714286,4,1,1,50,0,0
23616,-200,4,1,1,50,0,0
23700,-142.857142857143,4,1,1,50,0,0
23866,-111.111111111111,4,1,1,50,0,0
24033,-100,4,1,1,50,0,0
65450,-500,4,1,1,50,0,0
65533,-200,4,1,1,50,0,0
65616,-166.666666666667,4,1,1,50,0,0
65700,-142.857142857143,4,1,1,50,0,0
65783,-125,4,1,1,50,0,0
65866,-111.111111111111,4,1,1,50,0,0
65950,-100,4,1,1,50,0,0
66116,-100,4,1,1,50,0,0
66216,-133.333333333333,4,1,1,50,0,0
66283,-50,4,1,1,50,0,0
66366,-400,4,1,1,50,0,0
66783,-80,4,1,1,50,0,0
66866,-133.333333333333,4,1,1,50,0,0
67033,-80,4,1,1,50,0,0
67116,-133.333333333333,4,1,1,50,0,0
67283,-100,4,1,1,50,0,0
69200,-133.333333333333,4,1,1,50,0,0
69450,-80,4,1,1,50,0,0
69533,-133.333333333333,4,1,1,50,0,0
69616,-80,4,1,1,50,0,0
69700,-133.333333333333,4,1,1,50,0,0
69783,-80,4,1,1,50,0,0
69866,-133.333333333333,4,1,1,50,0,0
69950,-100,4,1,1,50,0,0
75783,-80,4,1,1,50,0,0
75866,-133.333333333333,4,1,1,50,0,0
75950,-80,4,1,1,50,0,0
76116,-133.333333333333,4,1,1,50,0,0
76283,-80,4,1,1,50,0,0
76366,-133.333333333333,4,1,1,50,0,0
76450,-200,4,1,1,50,0,0
77450,-100,4,1,1,50,0,1
93450,-100,4,1,1,50,0,0
120116,-133.333333333333,4,1,1,50,0,0
129783,-200,4,1,1,50,0,0
130783,-100,4,1,1,50,0,1
146783,-100,4,1,1,50,0,0

[HitObjects]
64,192,783,128,0,2783:2:0:0:8:
192,192,2116,128,0,2783:2:0:0:0:
448,192,2783,1,0,2:0:0:0:
320,192,2783,1,4,3:0:0:0:
64,192,2866,1,4,3:0:0:0:
192,192,2950,1,4,3:0:0:0:
320,192,2950,1,0,2:0:0:0:
448,192,3116,1,0,2:0:0:0:
320,192,3116,1,4,3:0:0:0:
192,192,3283,1,0,2:0:0:0:
320,192,3283,1,4,3:0:0:0:
64,192,3450,1,0,2:0:0:0:
448,192,3450,1,0,3:0:0:0:
192,192,3783,1,0,2:0:0:0:
64,192,3783,1,4,3:0:0:0:
320,192,3866,1,4,3:0:0:0:
64,192,3950,1,0,2:0:0:0:
192,192,3950,1,4,3:0:0:0:
320,192,4116,1,4,3:0:0:0:
448,192,4116,1,0,2:0:0:0:
64,192,4200,1,4,3:0:0:0:
448,192,4283,1,4,3:0:0:0:
320,192,4283,1,0,2:0:0:0:
192,192,4450,1,0,2:0:0:0:
320,192,4450,1,4,3:0:0:0:
448,192,4616,1,0,2:0:0:0:
192,192,4616,1,4,3:0:0:0:
320,192,4783,1,0,3:0:0:0:
192,192,4783,1,0,2:0:0:0:
64,192,4950,1,4,3:0:0:0:
448,192,5033,1,4,3:0:0:0:
320,192,5116,1,0,3:0:0:0:
192,192,5116,1,0,2:0:0:0:
448,192,5283,1,4,3:0:0:0:
64,192,5450,1,4,0:0:0:0:
192,192,5450,1,4,3:0:0:0:
320,192,5616,1,0,2:0:0:0:
192,192,5616,1,4,3:0:0:0:
64,192,5783,1,0,2:0:0:0:
192,192,5783,1,4,3:0:0:0:
320,192,5950,1,0,2:0:0:0:
192,192,5950,1,4,3:0:0:0:
448,192,6116,1,0,3:0:0:0:
320,192,6116,128,0,7450:2:0:0:0:
64,192,6283,1,0,2:0:0:0:
192,192,6450,1,0,2:0:0:0:
64,192,6616,1,4,3:0:0:0:
192,192,6700,1,4,3:0:0:0:
64,192,6783,1,4,3:0:0:0:
448,192,6950,1,4,3:0:0:0:
64,192,7116,1,4,3:0:0:0:
448,192,7283,1,4,3:0:0:0:
192,192,7366,1,4,3:0:0:0:
64,192,7450,128,0,7616:2:0:0:0:
448,192,7450,1,0,3:0:0:0:
448,192,7616,128,0,7783:2:0:0:0:
192,192,7616,1,0,3:0:0:0:
64,192,7783,128,0,7950:2:0:0:0:
320,192,7783,1,0,3:0:0:0:
448,192,7950,128,0,8116:2:0:0:0:
192,192,7950,1,0,3:0:0:0:
192,192,8116,1,4,0:0:0:0:
64,192,8116,1,4,3:0:0:0:
320,192,8200,1,4,3:0:0:0:
192,192,8283,1,0,2:0:0:0:
64,192,8283,1,4,3:0:0:0:
448,192,8450,1,0,2:0:0:0:
320,192,8450,1,4,3:0:0:0:
64,192,8616,1,0,2:0:0:0:
448,192,8616,1,4,3:0:0:0:
192,192,8783,1,0,2:0:0:0:
320,192,8783,1,0,3:0:0:0:
192,192,9116,1,4,3:0:0:0:
64,192,9116,1,0,2:0:0:0:
320,192,9200,1,4,3:0:0:0:
192,192,9283,1,4,3:0:0:0:
64,192,9283,1,0,2:0:0:0:
320,192,9450,1,4,3:0:0:0:
448,192,9450,1,0,2:0:0:0:
192,192,9533,1,4,3:0:0:0:
320,192,9616,1,4,3:0:0:0:
448,192,9616,1,0,2:0:0:0:
64,192,9783,1,0,2:0:0:0:
320,192,9783,1,4,3:0:0:0:
320,192,9950,1,0,2:0:0:0:
192,192,9950,1,4,3:0:0:0:
448,192,10116,1,4,0:0:0:0:
192,192,10116,1,8,3:0:0:0:
192,192,10366,1,4,3:0:0:0:
64,192,10366,1,4,0:0:0:0:
448,192,10616,1,4,3:0:0:0:
64,192,10616,1,4,0:0:0:0:
448,192,10783,1,0,2:0:0:0:
320,192,10783,1,4,3:0:0:0:
320,192,10950,1,0,2:0:0:0:
192,192,10950,1,4,3:0:0:0:
64,192,11116,1,0,2:0:0:0:
448,192,11116,1,4,3:0:0:0:
320,192,11283,1,0,2:0:0:0:
192,192,11283,1,4,3:0:0:0:
192,192,11450,1,0,3:0:0:0:
64,192,11450,128,0,12783:2:0:0:0:
448,192,11616,1,0,2:0:0:0:
192,192,11783,1,0,2:0:0:0:
448,192,11950,1,4,3:0:0:0:
320,192,12033,1,4,3:0:0:0:
448,192,12116,1,4,3:0:0:0:
320,192,12283,1,4,3:0:0:0:
448,192,12450,1,4,3:0:0:0:
320,192,12616,1,4,3:0:0:0:
192,192,12700,1,4,3:0:0:0:
448,192,12783,128,0,12950:2:0:0:0:
320,192,12783,1,0,3:0:0:0:
192,192,12866,1,0,3:0:0:0:
64,192,12950,128,0,13116:2:0:0:0:
320,192,12950,1,0,3:0:0:0:
448,192,13116,128,0,13283:2:0:0:0:
192,192,13116,1,0,3:0:0:0:
64,192,13283,128,0,13450:2:0:0:0:
320,192,13283,1,0,3:0:0:0:
448,192,13450,1,4,0:0:0:0:
192,192,13450,1,4,3:0:0:0:
192,192,13616,1,4,3:0:0:0:
448,192,13616,1,0,2:0:0:0:
320,192,13783,1,4,3:0:0:0:
448,192,13783,1,0,2:0:0:0:
64,192,13950,1,4,3:0:0:0:
448,192,13950,1,0,2:0:0:0:
320,192,14116,1,0,3:0:0:0:
192,192,14116,1,0,2:0:0:0:
448,192,14283,1,4,3:0:0:0:
64,192,14283,1,4,2:0:0:0:
320,192,14450,1,4,3:0:0:0:
64,192,14450,1,0,2:0:0:0:
64,192,14616,1,0,2:0:0:0:
192,192,14616,1,4,3:0:0:0:
320,192,14783,1,4,3:0:0:0:
64,192,14783,1,0,2:0:0:0:
192,192,14950,1,4,3:0:0:0:
64,192,14950,1,0,2:0:0:0:
448,192,15116,1,4,3:0:0:0:
64,192,15116,1,0,2:0:0:0:
192,192,15283,1,4,3:0:0:0:
64,192,15283,1,0,2:0:0:0:
320,192,15450,1,0,3:0:0:0:
192,192,15450,128,0,16116:2:0:0:0:
448,192,15616,1,4,3:0:0:0:
64,192,15700,1,4,3:0:0:0:
320,192,15783,1,4,2:0:0:0:
448,192,15783,1,4,3:0:0:0:
320,192,15950,1,4,3:0:0:0:
64,192,16033,1,4,3:0:0:0:
320,192,16116,1,4,3:0:0:0:
448,192,16116,1,4,0:0:0:0:
192,192,16283,1,4,3:0:0:0:
320,192,16283,1,0,2:0:0:0:
192,192,16450,1,4,3:0:0:0:
64,192,16450,1,0,2:0:0:0:
192,192,16616,1,4,3:0:0:0:
320,192,16616,1,0,2:0:0:0:
320,192,16783,1,0,3:0:0:0:
448,192,16783,128,0,18116:2:0:0:0:
192,192,16950,1,0,2:0:0:0:
64,192,17116,1,0,2:0:0:0:
320,192,17283,1,4,3:0:0:0:
64,192,17366,1,4,3:0:0:0:
192,192,17450,1,4,3:0:0:0:
320,192,17450,1,0,2:0:0:0:
192,192,17616,1,4,3:0:0:0:
320,192,17783,1,4,3:0:0:0:
64,192,17950,1,4,3:0:0:0:
320,192,18116,1,0,3:0:0:0:
192,192,18116,1,0,2:0:0:0:
192,192,18283,1,0,3:0:0:0:
64,192,18283,1,0,2:0:0:0:
448,192,18450,1,0,2:0:0:0:
320,192,18450,1,0,3:0:0:0:
192,192,18616,1,0,3:0:0:0:
320,192,18616,1,0,2:0:0:0:
64,192,18783,1,4,0:0:0:0:
448,192,18783,1,4,3:0:0:0:
192,192,18950,1,4,3:0:0:0:
64,192,18950,1,0,2:0:0:0:
320,192,19116,1,4,3:0:0:0:
64,192,19116,1,0,2:0:0:0:
448,192,19283,1,4,3:0:0:0:
64,192,19283,1,0,2:0:0:0:
192,192,19450,1,0,2:0:0:0:
320,192,19450,1,0,3:0:0:0:
320,192,19616,1,4,3:0:0:0:
448,192,19616,1,4,2:0:0:0:
192,192,19783,1,4,3:0:0:0:
64,192,19783,1,0,2:0:0:0:
448,192,19950,1,0,2:0:0:0:
320,192,19950,1,4,3:0:0:0:
192,192,20116,1,4,0:0:0:0:
320,192,20116,1,4,3:0:0:0:
192,192,20283,1,0,2:0:0:0:
320,192,20283,1,4,3:0:0:0:
64,192,20450,1,4,2:0:0:0:
192,192,20450,1,4,3:0:0:0:
192,192,20616,1,4,3:0:0:0:
320,192,20616,1,0,3:0:0:0:
448,192,20783,128,0,21450:2:0:0:0:
64,192,20783,1,0,3:0:0:0:
320,192,20950,1,4,3:0:0:0:
192,192,21033,1,8,3:0:0:0:
320,192,21116,1,4,3:0:0:0:
192,192,21200,1,8,3:0:0:0:
64,192,21283,1,4,3:0:0:0:
192,192,21366,1,8,3:0:0:0:
320,192,21450,1,4,3:0:0:0:
64,192,21450,1,4,0:0:0:0:
192,192,21700,1,4,0:0:0:0:
320,192,21700,1,4,3:0:0:0:
320,192,21950,1,4,3:0:0:0:
448,192,21950,1,4,0:0:0:0:
64,192,22116,1,0,3:0:0:0:
448,192,22116,128,4,22616:0:0:0:0:
320,192,22283,1,0,2:0:0:0:
192,192,22450,1,0,2:0:0:0:
320,192,22616,1,4,3:0:0:0:
64,192,22700,1,4,3:0:0:0:
320,192,22783,1,4,3:0:0:0:
192,192,22783,1,0,2:0:0:0:
64,192,23033,1,0,2:0:0:0:
192,192,23033,1,4,3:0:0:0:
320,192,23283,1,4,3:0:0:0:
192,192,23283,1,0,2:0:0:0:
64,192,23450,128,0,24033:2:0:0:0:
192,192,24116,1,4,3:0:0:0:
448,192,24116,128,4,24616:0:0:0:0:
320,192,24283,1,4,3:0:0:0:
64,192,24283,1,0,2:0:0:0:
192,192,24450,1,0,2:0:0:0:
320,192,24616,1,4,3:0:0:0:
64,192,24616,128,0,26783:2:0:0:0:
448,192,24783,1,0,2:0:0:0:
192,192,24783,1,0,3:0:0:0:
320,192,25116,1,0,2:0:0:0:
448,192,25283,1,4,3:0:0:0:
192,192,25366,1,4,3:0:0:0:
448,192,25450,1,4,3:0:0:0:
320,192,25616,1,4,3:0:0:0:
448,192,25783,1,0,2:0:0:0:
192,192,25950,1,4,3:0:0:0:
448,192,26116,1,0,2:0:0:0:
320,192,26116,1,0,3:0:0:0:
192,192,26283,1,4,3:0:0:0:
448,192,26450,1,0,2:0:0:0:
320,192,26450,1,0,3:0:0:0:
192,192,26616,1,0,2:0:0:0:
448,192,26783,128,4,27283:0:0:0:0:
320,192,26783,1,4,3:0:0:0:
64,192,26950,1,4,3:0:0:0:
192,192,26950,1,0,2:0:0:0:
320,192,27116,1,0,2:0:0:0:
192,192,27283,1,4,3:0:0:0:
64,192,27283,128,0,29450:2:0:0:0:
448,192,27450,1,0,2:0:0:0:
320,192,27450,1,0,3:0:0:0:
320,192,27783,1,4,3:0:0:0:
192,192,27866,1,4,3:0:0:0:
320,192,27950,1,4,3:0:0:0:
448,192,28116,1,0,2:0:0:0:
320,192,28283,1,4,3:0:0:0:
448,192,28450,1,0,2:0:0:0:
192,192,28616,1,4,3:0:0:0:
448,192,28783,1,0,3:0:0:0:
320,192,28783,1,0,2:0:0:0:
192,192,29116,1,4,3:0:0:0:
192,192,29450,128,4,29950:0:0:0:0:
320,192,29450,1,4,3:0:0:0:
448,192,29616,1,0,2:0:0:0:
64,192,29616,1,4,3:0:0:0:
320,192,29783,1,0,2:0:0:0:
448,192,29950,128,0,32116:2:0:0:0:
64,192,29950,1,4,3:0:0:0:
192,192,30116,1,0,3:0:0:0:
320,192,30116,1,0,2:0:0:0:
192,192,30450,1,0,2:0:0:0:
64,192,30616,1,4,3:0:0:0:
320,192,30700,1,4,3:0:0:0:
64,192,30783,1,4,3:0:0:0:
192,192,30950,1,4,3:0:0:0:
64,192,31116,1,0,2:0:0:0:
320,192,31283,1,4,3:0:0:0:
64,192,31450,1,0,2:0:0:0:
192,192,31450,1,0,3:0:0:0:
320,192,31616,1,4,3:0:0:0:
64,192,31783,1,0,2:0:0:0:
192,192,31783,1,0,3:0:0:0:
320,192,31950,1,4,3:0:0:0:
192,192,32116,128,4,32616:0:0:0:0:
64,192,32116,1,4,3:0:0:0:
320,192,32283,1,0,2:0:0:0:
448,192,32283,1,4,3:0:0:0:
64,192,32450,1,0,2:0:0:0:
320,192,32616,1,4,3:0:0:0:
448,192,32616,128,0,33116:2:0:0:0:
192,192,32783,1,0,2:0:0:0:
64,192,32783,1,0,3:0:0:0:
64,192,33116,128,0,34116:2:0:0:0:
320,192,33116,1,4,3:0:0:0:
192,192,33200,1,4,3:0:0:0:
320,192,33283,1,4,3:0:0:0:
192,192,33450,1,0,2:0:0:0:
448,192,33616,1,0,3:0:0:0:
320,192,33616,1,0,2:0:0:0:
192,192,33783,1,4,3:0:0:0:
320,192,33950,1,4,3:0:0:0:
448,192,34116,128,0,34283:2:0:0:0:
192,192,34116,1,0,3:0:0:0:
64,192,34283,128,0,34450:2:0:0:0:
320,192,34450,1,4,3:0:0:0:
448,192,34450,128,0,34616:2:0:0:0:
64,192,34616,128,0,34783:2:0:0:0:
192,192,34783,1,4,3:0:0:0:
320,192,34783,128,4,35283:0:0:0:0:
448,192,34950,1,0,2:0:0:0:
192,192,35116,1,0,2:0:0:0:
64,192,35283,1,4,3:0:0:0:
448,192,35283,128,0,37450:2:0:0:0:
320,192,35450,1,0,3:0:0:0:
192,192,35450,1,0,2:0:0:0:
320,192,35783,1,4,3:0:0:0:
192,192,36116,1,0,2:0:0:0:
320,192,36283,1,4,3:0:0:0:
64,192,36450,1,0,2:0:0:0:
320,192,36616,1,4,3:0:0:0:
64,192,36783,1,0,3:0:0:0:
192,192,36783,1,0,2:0:0:0:
320,192,37116,1,0,2:0:0:0:
192,192,37450,128,0,37950:2:0:0:0:
64,192,37450,1,4,3:0:0:0:
448,192,37616,1,0,2:0:0:0:
320,192,37783,1,0,2:0:0:0:
448,192,37950,1,4,3:0:0:0:
64,192,37950,128,0,40116:2:0:0:0:
320,192,38116,1,0,3:0:0:0:
192,192,38116,1,0,2:0:0:0:
320,192,38450,1,4,3:0:0:0:
192,192,38783,1,0,2:0:0:0:
320,192,38950,1,4,3:0:0:0:
192,192,39116,1,0,2:0:0:0:
448,192,39283,1,4,3:0:0:0:
192,192,39450,1,0,2:0:0:0:
320,192,39450,1,0,3:0:0:0:
448,192,39616,1,0,2:0:0:0:
320,192,39616,1,0,3:0:0:0:
192,192,39783,1,0,2:0:0:0:
320,192,39783,1,0,3:0:0:0:
448,192,39950,1,0,2:0:0:0:
320,192,39950,1,0,3:0:0:0:
192,192,40116,1,4,0:0:0:0:
320,192,40116,1,4,3:0:0:0:
320,192,40283,1,4,3:0:0:0:
448,192,40283,1,0,2:0:0:0:
64,192,40450,1,0,3:0:0:0:
448,192,40450,1,0,2:0:0:0:
192,192,40616,1,4,3:0:0:0:
448,192,40783,1,0,3:0:0:0:
64,192,40783,128,0,41116:2:0:0:0:
448,192,41116,1,0,2:0:0:0:
192,192,41116,1,0,3:0:0:0:
320,192,41283,1,4,3:0:0:0:
192,192,41366,1,4,3:0:0:0:
320,192,41450,1,0,3:0:0:0:
448,192,41450,128,0,41783:2:0:0:0:
192,192,41616,1,4,3:0:0:0:
320,192,41783,1,0,3:0:0:0:
64,192,41783,1,0,2:0:0:0:
192,192,41950,1,4,3:0:0:0:
448,192,42116,1,0,3:0:0:0:
320,192,42116,1,0,2:0:0:0:
192,192,42283,1,4,3:0:0:0:
320,192,42366,1,8,3:0:0:0:
192,192,42450,1,4,3:0:0:0:
64,192,42616,1,8,3:0:0:0:
320,192,42783,1,4,3:0:0:0:
448,192,42783,128,4,43283:0:0:0:0:
320,192,42950,1,4,3:0:0:0:
192,192,42950,1,0,2:0:0:0:
192,192,43116,1,4,3:0:0:0:
64,192,43116,1,0,2:0:0:0:
192,192,43283,1,4,3:0:0:0:
320,192,43283,128,0,43783:2:0:0:0:
64,192,43450,1,0,2:0:0:0:
448,192,43450,1,0,3:0:0:0:
448,192,43783,1,4,3:0:0:0:
64,192,43783,128,0,44116:2:0:0:0:
320,192,43950,1,0,3:0:0:0:
448,192,44116,1,4,3:0:0:0:
192,192,44116,128,0,45450:2:0:0:0:
64,192,44283,5,4,3:0:0:0:
320,192,44450,1,4,3:0:0:0:
64,192,44616,1,4,3:0:0:0:
320,192,44783,128,0,45450:2:0:0:0:
448,192,44783,1,0,3:0:0:0:
64,192,44950,1,4,3:0:0:0:
448,192,45116,1,0,3:0:0:0:
64,192,45200,1,0,3:0:0:0:
448,192,45283,1,0,3:0:0:0:
64,192,45366,1,0,3:0:0:0:
448,192,45450,5,4,3:0:0:0:
320,192,45616,1,0,2:0:0:0:
64,192,45783,128,0,45950:2:0:0:0:
448,192,45783,1,4,3:0:0:0:
320,192,45950,1,0,2:0:0:0:
192,192,46116,1,4,3:0:0:0:
64,192,46283,128,0,46450:2:0:0:0:
448,192,46283,1,0,2:0:0:0:
320,192,46450,1,4,3:0:0:0:
64,192,46616,1,0,2:0:0:0:
192,192,46700,1,0,2:0:0:0:
448,192,46783,1,0,2:0:0:0:
320,192,46783,1,4,3:0:0:0:
64,192,46950,1,0,2:0:0:0:
448,192,47116,1,4,3:0:0:0:
192,192,47116,128,0,47283:2:0:0:0:
320,192,47283,1,0,2:0:0:0:
64,192,47450,1,4,3:0:0:0:
448,192,47450,1,0,2:0:0:0:
192,192,47616,128,0,47783:2:0:0:0:
320,192,47616,1,0,2:0:0:0:
448,192,47783,1,4,3:0:0:0:
64,192,47783,1,0,2:0:0:0:
320,192,47950,1,0,2:0:0:0:
192,192,48116,1,0,2:0:0:0:
64,192,48116,1,4,3:0:0:0:
448,192,48283,1,0,2:0:0:0:
64,192,48450,1,4,3:0:0:0:
320,192,48450,128,0,48616:2:0:0:0:
192,192,48616,1,0,2:0:0:0:
448,192,48783,1,4,3:0:0:0:
320,192,48950,128,0,49116:2:0:0:0:
64,192,48950,1,0,2:0:0:0:
192,192,49116,1,4,3:0:0:0:
448,192,49283,1,0,2:0:0:0:
320,192,49366,1,0,2:0:0:0:
64,192,49450,1,4,3:0:0:0:
320,192,49616,1,0,2:0:0:0:
64,192,49783,1,4,3:0:0:0:
448,192,49783,128,0,49950:2:0:0:0:
192,192,49950,1,0,2:0:0:0:
320,192,50116,1,4,3:0:0:0:
192,192,50200,1,0,2:0:0:0:
448,192,50283,128,0,50450:2:0:0:0:
64,192,50283,1,0,2:0:0:0:
320,192,50366,1,0,2:0:0:0:
192,192,50450,1,4,3:0:0:0:
320,192,50616,1,0,2:0:0:0:
64,192,50783,128,0,52116:2:0:0:0:
448,192,50783,1,4,3:0:0:0:
192,192,50950,1,0,2:0:0:0:
320,192,50950,128,0,51116:2:0:0:0:
448,192,51116,1,4,3:0:0:0:
192,192,51283,1,0,2:0:0:0:
320,192,51450,1,4,3:0:0:0:
192,192,51616,1,0,2:0:0:0:
448,192,51616,128,0,51783:2:0:0:0:
320,192,51783,1,4,3:0:0:0:
192,192,51950,1,0,2:0:0:0:
320,192,52116,128,0,52783:2:0:0:0:
448,192,52116,1,4,3:0:0:0:
64,192,52283,1,0,2:0:0:0:
192,192,52450,1,4,3:0:0:0:
448,192,52450,128,0,52616:2:0:0:0:
64,192,52616,1,0,2:0:0:0:
192,192,52783,128,0,53450:2:0:0:0:
448,192,52783,1,4,3:0:0:0:
320,192,52950,1,0,2:0:0:0:
64,192,52950,128,0,53116:2:0:0:0:
448,192,53116,1,4,3:0:0:0:
320,192,53283,1,0,2:0:0:0:
448,192,53450,128,0,54783:2:0:0:0:
64,192,53450,1,4,3:0:0:0:
192,192,53616,1,0,2:0:0:0:
64,192,53783,1,4,3:0:0:0:
320,192,53783,128,0,53950:2:0:0:0:
192,192,53950,1,0,2:0:0:0:
320,192,54116,1,4,3:0:0:0:
192,192,54283,1,0,2:0:0:0:
64,192,54283,128,0,54450:2:0:0:0:
320,192,54450,1,4,3:0:0:0:
64,192,54616,1,0,2:0:0:0:
320,192,54783,128,0,55116:2:0:0:0:
192,192,54783,1,4,3:0:0:0:
448,192,54950,1,0,2:0:0:0:
192,192,55116,128,0,55450:2:0:0:0:
64,192,55116,1,4,3:0:0:0:
448,192,55283,1,0,2:0:0:0:
64,192,55450,128,0,55783:2:0:0:0:
320,192,55450,1,4,3:0:0:0:
448,192,55533,1,0,2:0:0:0:
320,192,55616,1,0,2:0:0:0:
192,192,55700,1,0,2:0:0:0:
320,192,55783,128,0,56116:2:0:0:0:
448,192,55783,1,4,3:0:0:0:
192,192,55950,1,0,2:0:0:0:
64,192,56116,1,4,0:0:0:0:
448,192,56116,1,4,3:0:0:0:
320,192,56283,1,0,2:0:0:0:
448,192,56450,1,0,3:0:0:0:
192,192,56450,128,0,56616:2:0:0:0:
320,192,56616,1,0,2:0:0:0:
64,192,56783,1,0,2:0:0:0:
192,192,56950,1,0,2:0:0:0:
320,192,56950,128,0,57116:2:0:0:0:
64,192,57116,1,0,2:0:0:0:
448,192,57116,1,0,3:0:0:0:
192,192,57283,1,0,2:0:0:0:
320,192,57450,1,4,3:0:0:0:
64,192,57450,1,0,2:0:0:0:
448,192,57616,1,0,2:0:0:0:
320,192,57783,1,0,3:0:0:0:
192,192,57783,128,0,57950:2:0:0:0:
448,192,57950,1,0,2:0:0:0:
64,192,58116,1,0,2:0:0:0:
192,192,58283,1,4,3:0:0:0:
448,192,58283,128,0,58450:2:0:0:0:
64,192,58450,1,0,2:0:0:0:
320,192,58450,1,0,3:0:0:0:
192,192,58616,1,0,2:0:0:0:
448,192,58783,1,4,3:0:0:0:
64,192,58783,1,0,2:0:0:0:
320,192,58950,1,0,2:0:0:0:
192,192,59116,1,0,3:0:0:0:
64,192,59116,128,0,59283:2:0:0:0:
320,192,59283,1,0,2:0:0:0:
192,192,59450,1,0,2:0:0:0:
320,192,59616,1,0,2:0:0:0:
448,192,59616,128,0,59783:2:0:0:0:
64,192,59783,1,0,2:0:0:0:
192,192,59783,1,0,3:0:0:0:
320,192,59950,1,0,2:0:0:0:
192,192,60116,1,4,3:0:0:0:
448,192,60116,1,0,2:0:0:0:
320,192,60283,1,0,2:0:0:0:
64,192,60450,1,0,3:0:0:0:
192,192,60450,128,0,60616:2:0:0:0:
320,192,60616,1,0,2:0:0:0:
192,192,60783,1,4,3:0:0:0:
64,192,60783,1,0,2:0:0:0:
192,192,60950,1,4,3:0:0:0:
320,192,60950,128,0,61116:2:0:0:0:
448,192,61116,1,0,3:0:0:0:
64,192,61116,1,0,2:0:0:0:
320,192,61283,1,4,3:0:0:0:
448,192,61283,1,0,2:0:0:0:
192,192,61450,1,4,3:0:0:0:
64,192,61450,1,0,2:0:0:0:
448,192,61616,1,0,2:0:0:0:
320,192,61783,1,0,3:0:0:0:
192,192,61783,128,0,61950:2:0:0:0:
448,192,61950,1,0,2:0:0:0:
192,192,62116,1,0,2:0:0:0:
448,192,62283,128,0,62450:2:0:0:0:
320,192,62283,1,0,2:0:0:0:
192,192,62450,1,0,3:0:0:0:
64,192,62450,1,0,2:0:0:0:
448,192,62616,1,0,2:0:0:0:
64,192,62783,1,0,2:0:0:0:
192,192,62783,1,4,3:0:0:0:
320,192,62950,1,0,2:0:0:0:
448,192,63116,1,0,3:0:0:0:
64,192,63116,128,0,63283:2:0:0:0:
320,192,63283,1,0,2:0:0:0:
64,192,63450,1,0,2:0:0:0:
192,192,63450,1,4,3:0:0:0:
192,192,63616,1,4,3:0:0:0:
320,192,63616,128,0,63783:2:0:0:0:
64,192,63783,1,0,2:0:0:0:
448,192,63783,1,0,3:0:0:0:
448,192,63950,1,0,3:0:0:0:
64,192,63950,1,0,2:0:0:0:
192,192,64116,1,4,0:0:0:0:
320,192,64116,1,4,3:0:0:0:
448,192,64283,1,0,2:0:0:0:
320,192,64283,1,4,3:0:0:0:
64,192,64450,1,0,2:0:0:0:
192,192,64450,1,0,3:0:0:0:
320,192,64616,1,4,3:0:0:0:
192,192,64616,1,0,2:0:0:0:
64,192,64783,1,0,2:0:0:0:
320,192,64783,1,4,3:0:0:0:
192,192,64950,1,4,3:0:0:0:
448,192,64950,1,0,2:0:0:0:
448,192,65116,1,0,2:0:0:0:
320,192,65116,1,0,3:0:0:0:
64,192,65283,1,0,2:0:0:0:
192,192,65283,1,4,3:0:0:0:
320,192,65450,128,0,66116:2:0:0:0:
192,192,65450,1,4,3:0:0:0:
64,192,65950,1,4,3:0:0:0:
192,192,66116,5,0,3:0:0:0:
320,192,66283,1,8,3:0:0:0:
192,192,66283,1,0,2:0:0:0:
320,192,66783,5,4,3:0:0:0:
448,192,66783,1,4,0:0:0:0:
320,192,67033,1,4,3:0:0:0:
192,192,67033,1,4,0:0:0:0:
64,192,67283,1,4,0:0:0:0:
192,192,67283,1,4,3:0:0:0:
320,192,67450,1,0,3:0:0:0:
448,192,67450,128,0,67783:2:0:0:0:
192,192,67783,1,0,2:0:0:0:
320,192,67950,1,4,3:0:0:0:
192,192,68033,1,4,3:0:0:0:
320,192,68116,1,4,3:0:0:0:
64,192,68200,1,0,2:0:0:0:
320,192,68283,1,4,3:0:0:0:
192,192,68366,1,4,3:0:0:0:
448,192,68450,1,4,3:0:0:0:
192,192,68533,1,0,2:0:0:0:
320,192,68616,1,4,3:0:0:0:
64,192,68700,1,0,2:0:0:0:
320,192,68783,1,0,3:0:0:0:
192,192,68866,1,0,2:0:0:0:
448,192,68950,1,0,2:0:0:0:
64,192,69033,1,0,2:0:0:0:
320,192,69116,1,0,3:0:0:0:
192,192,69116,128,0,69450:2:0:0:0:
64,192,69450,1,4,0:0:0:0:
320,192,69450,1,4,3:0:0:0:
448,192,69616,1,4,3:0:0:0:
192,192,69616,1,0,2:0:0:0:
320,192,69783,1,4,3:0:0:0:
64,192,69783,1,0,2:0:0:0:
192,192,69950,1,0,2:0:0:0:
448,192,69950,1,4,3:0:0:0:
64,192,70116,1,0,3:0:0:0:
448,192,70116,128,0,70450:2:0:0:0:
192,192,70450,1,0,2:0:0:0:
64,192,70450,128,0,71450:2:0:0:0:
320,192,70616,1,4,3:0:0:0:
192,192,70700,1,4,3:0:0:0:
320,192,70783,1,4,3:0:0:0:
192,192,70950,1,4,3:0:0:0:
448,192,71033,1,4,3:0:0:0:
192,192,71116,1,4,3:0:0:0:
320,192,71283,1,4,3:0:0:0:
448,192,71450,1,0,3:0:0:0:
64,192,71533,1,0,3:0:0:0:
448,192,71616,1,0,3:0:0:0:
320,192,71783,1,0,3:0:0:0:
64,192,71950,1,0,3:0:0:0:
192,192,72116,1,4,3:0:0:0:
448,192,72116,128,4,73116:0:0:0:0:
320,192,72450,1,0,2:0:0:0:
192,192,72616,1,4,3:0:0:0:
64,192,72783,1,0,3:0:0:0:
320,192,72783,1,0,2:0:0:0:
320,192,73116,1,4,3:0:0:0:
64,192,73116,128,4,74783:0:0:0:0:
192,192,73450,1,0,2:0:0:0:
320,192,73616,1,4,3:0:0:0:
192,192,73950,1,4,3:0:0:0:
320,192,74116,1,0,2:0:0:0:
448,192,74116,1,0,3:0:0:0:
192,192,74450,1,4,3:0:0:0:
320,192,74783,128,4,75783:0:0:0:0:
448,192,74783,1,4,3:0:0:0:
192,192,75116,1,4,3:0:0:0:
448,192,75283,1,4,3:0:0:0:
64,192,75450,1,0,3:0:0:0:
192,192,75450,1,0,2:0:0:0:
192,192,75783,1,8,3:0:0:0:
448,192,75783,1,0,2:0:0:0:
192,192,75950,1,8,3:0:0:0:
448,192,75950,1,0,2:0:0:0:
320,192,76283,1,8,3:0:0:0:
64,192,76283,1,0,2:0:0:0:
320,192,76450,1,8,3:0:0:0:
64,192,76450,1,0,2:0:0:0:
448,192,77450,1,4,3:0:0:0:
64,192,77450,1,4,0:0:0:0:
320,192,77616,1,4,3:0:0:0:
192,192,77783,1,0,2:0:0:0:
64,192,77783,1,0,3:0:0:0:
320,192,77950,1,4,3:0:0:0:
64,192,78116,1,4,3:0:0:0:
448,192,78116,1,0,2:0:0:0:
192,192,78283,1,4,3:0:0:0:
448,192,78450,1,0,3:0:0:0:
320,192,78450,1,0,2:0:0:0:
448,192,78616,1,4,3:0:0:0:
192,192,78616,128,0,78950:2:0:0:0:
64,192,78783,1,4,3:0:0:0:
320,192,78950,1,4,3:0:0:0:
64,192,79116,1,0,3:0:0:0:
448,192,79116,1,0,2:0:0:0:
320,192,79283,1,4,3:0:0:0:
448,192,79450,1,0,2:0:0:0:
192,192,79450,1,4,3:0:0:0:
320,192,79616,1,4,3:0:0:0:
64,192,79783,1,0,3:0:0:0:
192,192,79783,1,0,2:0:0:0:
448,192,79950,1,4,3:0:0:0:
192,192,80116,1,4,3:0:0:0:
320,192,80116,1,0,2:0:0:0:
448,192,80283,1,4,3:0:0:0:
64,192,80450,1,0,3:0:0:0:
320,192,80450,1,0,2:0:0:0:
448,192,80616,1,4,3:0:0:0:
192,192,80783,1,4,3:0:0:0:
64,192,80783,1,0,2:0:0:0:
320,192,80950,1,4,3:0:0:0:
192,192,81116,1,0,2:0:0:0:
448,192,81116,1,0,3:0:0:0:
64,192,81283,1,4,3:0:0:0:
320,192,81283,128,0,81616:2:0:0:0:
448,192,81450,1,4,3:0:0:0:
192,192,81616,1,4,3:0:0:0:
448,192,81783,1,0,3:0:0:0:
320,192,81783,1,0,2:0:0:0:
64,192,81950,1,4,3:0:0:0:
192,192,82116,1,0,2:0:0:0:
320,192,82116,1,4,3:0:0:0:
448,192,82283,1,4,3:0:0:0:
192,192,82366,1,4,3:0:0:0:
448,192,82450,1,0,2:0:0:0:
320,192,82450,1,0,3:0:0:0:
192,192,82616,1,4,3:0:0:0:
320,192,82783,1,4,3:0:0:0:
448,192,82783,128,4,83283:0:0:0:0:
192,192,82950,1,4,3:0:0:0:
320,192,83116,1,0,2:0:0:0:
64,192,83116,1,0,3:0:0:0:
192,192,83283,1,4,3:0:0:0:
64,192,83450,1,0,2:0:0:0:
448,192,83450,1,4,3:0:0:0:
320,192,83616,1,4,3:0:0:0:
64,192,83783,1,0,3:0:0:0:
192,192,83783,1,0,2:0:0:0:
448,192,83950,1,4,3:0:0:0:
192,192,84116,1,4,3:0:0:0:
320,192,84283,1,4,3:0:0:0:
192,192,84366,1,4,3:0:0:0:
320,192,84450,1,0,2:0:0:0:
448,192,84450,1,0,3:0:0:0:
192,192,84616,1,4,3:0:0:0:
320,192,84783,1,4,3:0:0:0:
64,192,84783,1,0,2:0:0:0:
448,192,84950,1,4,3:0:0:0:
64,192,85116,1,0,3:0:0:0:
192,192,85116,1,0,2:0:0:0:
320,192,85283,1,4,3:0:0:0:
448,192,85450,1,4,3:0:0:0:
192,192,85450,128,0,85616:2:0:0:0:
64,192,85616,1,4,3:0:0:0:
192,192,85783,1,0,3:0:0:0:
320,192,85783,128,0,85950:2:0:0:0:
64,192,85950,1,4,3:0:0:0:
320,192,86116,1,4,3:0:0:0:
192,192,86116,128,0,86283:2:0:0:0:
448,192,86283,1,4,3:0:0:0:
320,192,86450,1,0,3:0:0:0:
64,192,86450,128,0,87116:2:0:0:0:
448,192,86616,1,4,3:0:0:0:
192,192,86783,1,4,3:0:0:0:
448,192,86950,1,4,3:0:0:0:
192,192,87116,1,0,2:0:0:0:
320,192,87116,1,0,3:0:0:0:
448,192,87283,1,4,3:0:0:0:
192,192,87450,1,0,3:0:0:0:
64,192,87450,1,0,2:0:0:0:
320,192,87533,1,0,3:0:0:0:
192,192,87616,1,0,3:0:0:0:
320,192,87783,1,0,3:0:0:0:
448,192,87783,1,0,2:0:0:0:
192,192,87950,1,0,3:0:0:0:
64,192,88116,1,4,0:0:0:0:
448,192,88116,128,4,88450:3:0:0:0:
192,192,88450,1,0,3:0:0:0:
320,192,88450,128,0,88783:2:0:0:0:
64,192,88783,1,0,2:0:0:0:
448,192,88783,1,4,3:0:0:0:
192,192,88950,1,4,3:0:0:0:
448,192,89116,1,0,3:0:0:0:
320,192,89116,1,0,2:0:0:0:
192,192,89283,1,4,3:0:0:0:
320,192,89283,128,0,89616:2:0:0:0:
64,192,89450,1,0,2:0:0:0:
448,192,89616,1,4,3:0:0:0:
64,192,89783,1,0,2:0:0:0:
192,192,89783,1,0,3:0:0:0:
320,192,90116,1,4,3:0:0:0:
448,192,90116,1,0,2:0:0:0:
192,192,90283,1,4,3:0:0:0:
64,192,90450,1,0,3:0:0:0:
448,192,90450,128,0,90783:2:0:0:0:
320,192,90783,1,4,3:0:0:0:
192,192,90783,1,0,2:0:0:0:
192,192,91116,1,0,2:0:0:0:
64,192,91116,1,0,3:0:0:0:
320,192,91450,1,4,3:0:0:0:
192,192,91450,128,0,91783:2:0:0:0:
448,192,91616,1,4,3:0:0:0:
64,192,91783,1,0,3:0:0:0:
320,192,91783,1,0,2:0:0:0:
192,192,91950,1,4,3:0:0:0:
448,192,91950,128,0,92283:2:0:0:0:
64,192,92116,1,0,2:0:0:0:
192,192,92283,1,4,3:0:0:0:
320,192,92450,1,0,3:0:0:0:
64,192,92450,128,0,92950:2:0:0:0:
448,192,92616,1,4,3:0:0:0:
192,192,92783,1,0,2:0:0:0:
320,192,92950,1,4,3:0:0:0:
192,192,93116,1,0,2:0:0:0:
64,192,93116,1,0,3:0:0:0:
448,192,93450,1,4,3:0:0:0:
192,192,93450,128,4,93950:0:0:0:0:
320,192,93783,1,0,2:0:0:0:
64,192,93950,1,4,3:0:0:0:
448,192,94033,1,4,3:0:0:0:
192,192,94116,1,0,3:0:0:0:
64,192,94116,128,0,94450:2:0:0:0:
320,192,94450,1,4,3:0:0:0:
192,192,94533,1,4,3:0:0:0:
320,192,94616,1,4,3:0:0:0:
448,192,94616,128,0,94950:2:0:0:0:
64,192,94783,1,0,2:0:0:0:
192,192,94950,1,4,3:0:0:0:
320,192,95116,128,0,95366:2:0:0:0:
64,192,95116,1,0,2:0:0:0:
448,192,95283,1,4,3:0:0:0:
64,192,95450,1,0,3:0:0:0:
192,192,95450,128,0,95700:2:0:0:0:
64,192,95783,1,4,3:0:0:0:
448,192,95783,128,0,96033:2:0:0:0:
320,192,96116,1,4,3:0:0:0:
64,192,96116,128,4,96450:0:0:0:0:
192,192,96450,1,0,2:0:0:0:
320,192,96616,1,4,3:0:0:0:
192,192,96700,1,4,3:0:0:0:
320,192,96783,1,0,2:0:0:0:
448,192,96783,1,0,3:0:0:0:
320,192,97116,1,0,2:0:0:0:
64,192,97116,1,0,2:0:0:0:
448,192,97283,1,4,3:0:0:0:
192,192,97450,1,4,3:0:0:0:
64,192,97450,128,4,98116:0:0:0:0:
320,192,97783,1,4,3:0:0:0:
192,192,97783,1,0,2:0:0:0:
320,192,98116,1,0,3:0:0:0:
448,192,98116,128,0,98616:2:0:0:0:
192,192,98283,1,4,3:0:0:0:
320,192,98366,1,8,3:0:0:0:
64,192,98450,1,4,3:0:0:0:
192,192,98616,1,4,3:0:0:0:
64,192,98783,1,4,0:0:0:0:
320,192,98783,1,4,3:0:0:0:
192,192,98950,1,0,2:0:0:0:
320,192,98950,1,4,3:0:0:0:
448,192,99116,1,4,3:0:0:0:
64,192,99116,1,0,2:0:0:0:
320,192,99283,1,0,2:0:0:0:
192,192,99450,1,0,2:0:0:0:
448,192,99450,1,0,3:0:0:0:
320,192,99616,1,4,3:0:0:0:
64,192,99616,1,0,2:0:0:0:
192,192,99783,1,4,3:0:0:0:
448,192,99783,1,0,2:0:0:0:
320,192,99950,1,0,2:0:0:0:
64,192,100116,1,4,3:0:0:0:
448,192,100116,1,0,2:0:0:0:
448,192,100283,1,0,2:0:0:0:
192,192,100283,1,4,3:0:0:0:
64,192,100450,1,0,2:0:0:0:
320,192,100450,1,4,3:0:0:0:
448,192,100616,1,0,2:0:0:0:
320,192,100783,1,0,2:0:0:0:
64,192,100783,1,0,3:0:0:0:
448,192,100950,1,4,3:0:0:0:
192,192,100950,1,0,2:0:0:0:
320,192,101033,1,4,3:0:0:0:
64,192,101116,1,4,3:0:0:0:
192,192,101116,128,0,101450:2:0:0:0:
448,192,101283,1,4,3:0:0:0:
64,192,101450,1,0,2:0:0:0:
320,192,101450,1,4,3:0:0:0:
448,192,101616,1,0,2:0:0:0:
192,192,101616,1,4,3:0:0:0:
64,192,101783,1,0,2:0:0:0:
192,192,101783,1,4,3:0:0:0:
320,192,101950,1,0,2:0:0:0:
448,192,102116,1,0,3:0:0:0:
192,192,102116,1,0,2:0:0:0:
320,192,102283,1,4,3:0:0:0:
64,192,102283,1,0,2:0:0:0:
320,192,102450,1,4,3:0:0:0:
448,192,102450,1,0,2:0:0:0:
192,192,102616,1,0,2:0:0:0:
64,192,102783,1,0,2:0:0:0:
320,192,102783,1,4,3:0:0:0:
192,192,102950,1,4,3:0:0:0:
448,192,102950,1,0,2:0:0:0:
64,192,103116,1,0,3:0:0:0:
448,192,103116,1,0,2:0:0:0:
320,192,103283,1,0,2:0:0:0:
448,192,103450,1,0,3:0:0:0:
64,192,103450,1,0,2:0:0:0:
320,192,103533,1,0,3:0:0:0:
192,192,103616,1,4,3:0:0:0:
64,192,103616,1,0,2:0:0:0:
448,192,103783,1,0,3:0:0:0:
64,192,103783,128,0,104116:2:0:0:0:
192,192,103866,1,0,3:0:0:0:
320,192,103950,1,4,3:0:0:0:
448,192,103950,1,0,2:0:0:0:
320,192,104116,1,4,0:0:0:0:
448,192,104116,1,4,3:0:0:0:
64,192,104283,1,0,2:0:0:0:
192,192,104283,1,4,3:0:0:0:
320,192,104450,1,4,3:0:0:0:
448,192,104450,1,0,2:0:0:0:
192,192,104616,1,0,2:0:0:0:
64,192,104783,1,0,3:0:0:0:
320,192,104783,1,0,2:0:0:0:
192,192,104950,1,4,3:0:0:0:
448,192,104950,1,0,2:0:0:0:
320,192,105116,1,4,3:0:0:0:
64,192,105116,1,0,2:0:0:0:
448,192,105283,1,0,2:0:0:0:
64,192,105450,1,4,0:0:0:0:
192,192,105450,1,4,3:0:0:0:
320,192,105616,1,4,3:0:0:0:
448,192,105616,1,0,2:0:0:0:
192,192,105783,1,4,3:0:0:0:
64,192,105783,1,0,2:0:0:0:
320,192,105950,1,0,2:0:0:0:
448,192,106116,1,0,3:0:0:0:
192,192,106116,1,0,2:0:0:0:
320,192,106283,1,4,3:0:0:0:
64,192,106283,1,0,2:0:0:0:
448,192,106450,1,0,3:0:0:0:
192,192,106450,1,0,2:0:0:0:
320,192,106616,1,4,3:0:0:0:
64,192,106783,1,4,3:0:0:0:
448,192,106783,1,4,0:0:0:50:
448,192,106950,1,0,2:0:0:0:
192,192,106950,1,4,3:0:0:0:
320,192,107116,1,4,3:0:0:0:
64,192,107116,1,4,0:0:0:50:
448,192,107283,1,4,3:0:0:0:
64,192,107450,1,0,3:0:0:0:
192,192,107450,1,4,0:0:0:50:
320,192,107616,1,4,3:0:0:0:
192,192,107700,1,4,3:0:0:0:
320,192,107783,1,4,3:0:0:0:
448,192,107783,1,4,0:0:0:0:
192,192,107950,1,4,3:0:0:0:
320,192,108116,1,4,0:0:0:0:
448,192,108116,1,0,3:0:0:0:
320,192,108283,1,4,3:0:0:0:
192,192,108366,1,4,3:0:0:0:
448,192,108450,1,0,3:0:0:0:
320,192,108450,1,4,0:0:0:0:
192,192,108616,1,4,3:0:0:0:
448,192,108700,1,0,2:0:0:0:
64,192,108783,1,4,3:0:0:0:
320,192,108866,1,8,3:0:0:0:
192,192,108950,1,4,3:0:0:0:
448,192,109033,1,8,3:0:0:0:
64,192,109116,1,4,3:0:0:0:
320,192,109200,1,8,3:0:0:0:
192,192,109283,1,4,3:0:0:0:
320,192,109366,1,8,3:0:0:0:
64,192,109450,1,4,3:0:0:0:
448,192,109450,128,4,109783:0:0:0:0:
64,192,109783,1,0,3:0:0:0:
192,192,109783,1,0,2:0:0:0:
320,192,109950,1,4,3:0:0:0:
64,192,110116,1,4,3:0:0:0:
320,192,110283,1,4,3:0:0:0:
192,192,110450,128,0,110783:2:0:0:0:
448,192,110450,1,0,3:0:0:0:
64,192,110616,1,0,2:0:0:0:
448,192,110783,1,4,3:0:0:0:
320,192,110950,1,4,3:0:0:0:
192,192,111116,128,0,111450:2:0:0:0:
64,192,111116,1,0,3:0:0:0:
448,192,111283,1,0,2:0:0:0:
64,192,111450,1,4,3:0:0:0:
320,192,111533,1,4,3:0:0:0:
64,192,111616,1,4,3:0:0:0:
448,192,111783,1,0,3:0:0:0:
320,192,111783,1,0,2:0:0:0:
192,192,111950,1,4,3:0:0:0:
64,192,112116,128,0,112450:2:0:0:0:
448,192,112116,1,4,3:0:0:0:
320,192,112450,1,0,2:0:0:0:
448,192,112450,1,0,3:0:0:0:
192,192,112616,1,4,3:0:0:0:
448,192,112783,1,4,3:0:0:0:
192,192,112950,1,4,3:0:0:0:
320,192,113116,128,0,113450:2:0:0:0:
64,192,113116,1,0,3:0:0:0:
448,192,113283,1,0,2:0:0:0:
64,192,113450,1,4,3:0:0:0:
320,192,113616,1,4,3:0:0:0:
448,192,113783,1,0,3:0:0:0:
192,192,113783,1,0,2:0:0:0:
320,192,113950,1,4,3:0:0:0:
64,192,114116,1,4,3:0:0:0:
448,192,114283,1,4,3:0:0:0:
320,192,114450,128,0,114783:2:0:0:0:
192,192,114450,1,0,3:0:0:0:
64,192,114783,1,4,0:0:0:0:
448,192,114783,128,0,115116:2:0:0:0:
320,192,115116,1,0,2:0:0:0:
192,192,115116,1,0,3:0:0:0:
64,192,115283,1,4,3:0:0:0:
320,192,115450,1,4,3:0:0:0:
64,192,115616,1,4,3:0:0:0:
320,192,115783,1,0,3:0:0:0:
192,192,115783,128,0,116116:2:0:0:0:
448,192,115950,1,0,2:0:0:0:
320,192,116116,128,0,117450:2:0:0:0:
64,192,116116,1,4,3:0:0:0:
448,192,116283,1,4,3:0:0:0:
192,192,116450,1,0,2:0:0:0:
64,192,116450,1,0,3:0:0:0:
448,192,116616,1,0,2:0:0:0:
64,192,116783,1,4,3:0:0:0:
448,192,116866,1,4,3:0:0:0:
64,192,116950,1,4,3:0:0:0:
64,192,117116,1,0,3:0:0:0:
192,192,117116,1,0,2:0:0:0:
448,192,117283,1,4,3:0:0:0:
64,192,117450,128,4,117783:0:0:0:0:
192,192,117450,1,4,3:0:0:0:
448,192,117783,1,0,3:0:0:0:
320,192,117783,1,0,2:0:0:0:
192,192,117950,1,4,3:0:0:0:
320,192,118116,1,4,3:0:0:0:
64,192,118283,1,4,3:0:0:0:
192,192,118450,128,0,118783:2:0:0:0:
448,192,118450,1,0,3:0:0:0:
64,192,118616,1,0,2:0:0:0:
448,192,118783,128,0,120116:2:0:0:0:
320,192,118783,1,4,0:0:0:0:
192,192,118950,1,0,2:0:0:0:
64,192,119116,1,0,3:0:0:0:
320,192,119116,1,0,2:0:0:0:
192,192,119283,1,0,2:0:0:0:
64,192,119283,1,0,3:0:0:0:
320,192,119450,1,4,3:0:0:0:
192,192,119533,1,4,3:0:0:0:
64,192,119616,1,0,3:0:0:0:
320,192,119616,1,0,2:0:0:0:
64,192,119783,1,0,3:0:0:0:
192,192,119783,1,0,2:0:0:0:
320,192,120116,1,4,3:0:0:0:
64,192,120116,128,4,122783:0:0:0:0:
192,192,120283,1,0,2:0:0:0:
320,192,120450,1,0,2:0:0:0:
192,192,120616,1,0,2:0:0:0:
448,192,120783,1,0,2:0:0:0:
320,192,121116,1,0,2:0:0:0:
192,192,121283,1,0,2:0:0:0:
320,192,121450,1,0,2:0:0:0:
192,192,121616,1,0,2:0:0:0:
448,192,121783,1,0,2:0:0:0:
192,192,121950,1,0,2:0:0:0:
448,192,122116,1,0,2:0:0:0:
320,192,122116,1,4,3:0:0:0:
192,192,122283,1,0,2:0:0:0:
320,192,122450,1,0,2:0:0:0:
192,192,122616,1,0,2:0:0:0:
320,192,122783,1,4,3:0:0:0:
448,192,122783,128,4,125450:0:0:0:0:
192,192,122950,1,0,2:0:0:0:
320,192,123116,1,0,2:0:0:0:
192,192,123283,1,0,2:0:0:0:
64,192,123450,1,0,2:0:0:0:
320,192,123783,1,0,2:0:0:0:
192,192,123950,1,0,2:0:0:0:
320,192,124116,1,4,3:0:0:0:
64,192,124116,1,0,2:0:0:0:
192,192,124283,1,0,2:0:0:0:
64,192,124450,1,0,2:0:0:0:
320,192,124616,1,0,2:0:0:0:
64,192,124783,1,0,2:0:0:0:
192,192,124950,1,4,3:0:0:0:
320,192,124950,1,0,2:0:0:0:
320,192,125116,1,0,2:0:0:0:
64,192,125116,1,0,3:0:0:0:
192,192,125283,1,0,2:0:0:0:
320,192,125450,128,4,128116:0:0:0:0:
64,192,125450,1,4,3:0:0:0:
192,192,125616,1,0,2:0:0:0:
64,192,125783,1,0,2:0:0:0:
448,192,125950,1,0,2:0:0:0:
192,192,126116,1,0,2:0:0:0:
64,192,126116,1,0,3:0:0:0:
192,192,126450,1,0,2:0:0:0:
448,192,126616,1,4,3:0:0:0:
64,192,126616,1,0,2:0:0:0:
192,192,126783,1,0,2:0:0:0:
448,192,126950,1,0,2:0:0:0:
64,192,127116,1,0,2:0:0:0:
192,192,127116,1,4,3:0:0:0:
192,192,127283,1,0,2:0:0:0:
448,192,127450,1,0,3:0:0:0:
64,192,127450,1,0,2:0:0:0:
192,192,127616,1,0,2:0:0:0:
64,192,127783,1,4,3:0:0:0:
448,192,127783,1,0,2:0:0:0:
192,192,128116,128,4,129783:0:0:0:0:
448,192,128116,1,4,3:0:0:0:
448,192,128450,1,0,2:0:0:0:
64,192,128450,1,4,3:0:0:0:
320,192,128616,1,0,2:0:0:0:
64,192,128783,1,0,3:0:0:0:
448,192,128783,1,0,2:0:0:0:
320,192,128950,1,0,2:0:0:0:
320,192,129116,128,0,129783:2:0:0:0:
64,192,129116,1,4,3:0:0:0:
448,192,129450,1,4,3:0:0:0:
448,192,130783,1,4,3:0:0:0:
64,192,130783,1,4,0:0:0:0:
320,192,130950,1,4,3:0:0:0:
448,192,131116,1,0,3:0:0:0:
192,192,131116,1,0,2:0:0:0:
320,192,131283,1,4,3:0:0:0:
64,192,131449,1,0,2:0:0:0:
448,192,131450,1,4,3:0:0:0:
320,192,131616,1,4,3:0:0:0:
192,192,131783,1,0,2:0:0:0:
64,192,131783,1,0,3:0:0:0:
320,192,131949,128,0,132283:2:0:0:0:
64,192,131950,1,4,3:0:0:0:
448,192,132116,1,4,3:0:0:0:
192,192,132283,1,4,3:0:0:0:
448,192,132449,1,0,3:0:0:0:
64,192,132449,1,0,2:0:0:0:
320,192,132616,1,4,3:0:0:0:
64,192,132783,1,4,3:0:0:0:
448,192,132783,1,0,2:0:0:0:
192,192,132950,1,4,3:0:0:0:
448,192,133116,1,0,3:0:0:0:
320,192,133116,1,0,2:0:0:0:
192,192,133283,1,4,3:0:0:0:
448,192,133450,1,4,3:0:0:0:
64,192,133450,1,0,2:0:0:0:
320,192,133616,1,4,3:0:0:0:
448,192,133783,1,0,3:0:0:0:
192,192,133783,1,0,2:0:0:0:
64,192,133950,1,4,3:0:0:0:
448,192,134116,1,0,2:0:0:0:
320,192,134116,1,4,3:0:0:0:
192,192,134283,1,4,3:0:0:0:
64,192,134449,1,0,3:0:0:0:
320,192,134449,1,0,2:0:0:0:
192,192,134616,128,0,134949:2:0:0:0:
448,192,134616,1,4,3:0:0:0:
320,192,134783,1,4,3:0:0:0:
448,192,134950,1,4,3:0:0:0:
64,192,135116,1,0,3:0:0:0:
192,192,135116,1,0,2:0:0:0:
448,192,135283,1,4,3:0:0:0:
320,192,135450,1,4,3:0:0:0:
192,192,135450,1,0,2:0:0:0:
192,192,135616,1,4,3:0:0:0:
320,192,135699,1,4,3:0:0:0:
192,192,135783,1,0,2:0:0:0:
64,192,135783,1,0,3:0:0:0:
320,192,135949,1,4,3:0:0:0:
64,192,136116,128,4,136616:0:0:0:0:
192,192,136116,1,4,3:0:0:0:
320,192,136283,1,4,3:0:0:0:
192,192,136449,1,0,2:0:0:0:
448,192,136449,1,0,3:0:0:0:
320,192,136616,1,4,3:0:0:0:
448,192,136783,1,0,2:0:0:0:
64,192,136783,1,4,3:0:0:0:
192,192,136949,1,4,3:0:0:0:
448,192,137116,1,0,3:0:0:0:
64,192,137116,1,0,2:0:0:0:
192,192,137283,1,4,3:0:0:0:
320,192,137449,1,4,3:0:0:0:
192,192,137616,1,4,3:0:0:0:
320,192,137699,1,4,3:0:0:0:
192,192,137783,1,0,2:0:0:0:
64,192,137783,1,0,3:0:0:0:
320,192,137949,1,4,3:0:0:0:
192,192,138116,1,4,3:0:0:0:
448,192,138116,1,0,2:0:0:0:
64,192,138283,1,4,3:0:0:0:
320,192,138449,1,0,2:0:0:0:
448,192,138449,1,0,3:0:0:0:
192,192,138616,1,4,3:0:0:0:
320,192,138783,128,0,138949:2:0:0:0:
64,192,138783,1,4,3:0:0:0:
448,192,138950,1,4,3:0:0:0:
192,192,139116,128,0,139283:2:0:0:0:
320,192,139116,1,0,3:0:0:0:
448,192,139283,1,4,3:0:0:0:
192,192,139449,1,4,3:0:0:0:
64,192,139450,128,0,139616:2:0:0:0:
320,192,139616,1,4,3:0:0:0:
448,192,139783,128,0,140449:2:0:0:0:
192,192,139783,1,0,3:0:0:0:
64,192,139949,1,4,3:0:0:0:
320,192,140116,1,4,3:0:0:0:
64,192,140283,1,4,3:0:0:0:
192,192,140449,1,0,3:0:0:0:
320,192,140449,1,0,2:0:0:0:
64,192,140616,1,0,2:0:0:0:
448,192,140783,1,0,2:0:0:0:
320,192,140783,1,0,3:0:0:0:
192,192,140866,1,0,3:0:0:0:
320,192,140949,1,0,3:0:0:0:
64,192,141116,1,0,2:0:0:0:
192,192,141116,1,0,3:0:0:0:
320,192,141283,1,0,3:0:0:0:
448,192,141450,1,4,3:0:0:0:
64,192,141450,128,4,141783:0:0:0:0:
320,192,141783,1,0,3:0:0:0:
448,192,141783,128,0,142116:2:0:0:0:
192,192,142116,1,0,2:0:0:0:
64,192,142116,1,4,3:0:0:0:
320,192,142283,1,4,3:0:0:0:
64,192,142449,1,0,3:0:0:0:
448,192,142450,1,0,2:0:0:0:
320,192,142616,1,4,3:0:0:0:
192,192,142616,128,0,142949:2:0:0:0:
448,192,142950,1,4,3:0:0:0:
64,192,143116,1,0,3:0:0:0:
192,192,143116,1,0,2:0:0:0:
320,192,143450,1,4,3:0:0:0:
448,192,143450,1,0,2:0:0:0:
192,192,143616,1,4,3:0:0:0:
64,192,143783,1,0,2:0:0:0:
448,192,143783,1,0,3:0:0:0:
192,192,144116,1,4,3:0:0:0:
320,192,144116,1,0,2:0:0:0:
448,192,144449,1,0,3:0:0:0:
320,192,144450,128,0,144783:2:0:0:0:
192,192,144783,1,4,3:0:0:0:
64,192,144783,1,0,2:0:0:0:
448,192,144950,1,4,3:0:0:0:
192,192,145116,1,0,2:0:0:0:
320,192,145116,1,0,3:0:0:0:
64,192,145283,128,0,145616:2:0:0:0:
448,192,145283,1,4,3:0:0:0:
192,192,145450,1,0,2:0:0:0:
320,192,145616,1,4,3:0:0:0:
448,192,145783,128,0,146283:2:0:0:0:
192,192,145783,1,0,3:0:0:0:
64,192,145949,1,4,3:0:0:0:
320,192,146116,1,0,2:0:0:0:
192,192,146283,1,4,3:0:0:0:
448,192,146449,1,0,3:0:0:0:
320,192,146449,1,0,2:0:0:0:
192,192,146783,1,4,3:0:0:0:
320,192,146783,128,4,147283:0:0:0:0:
64,192,147116,1,0,2:0:0:0:
448,192,147283,1,4,3:0:0:0:
192,192,147366,1,4,3:0:0:0:
448,192,147449,128,0,147783:2:0:0:0:
320,192,147449,1,0,3:0:0:0:
192,192,147783,1,4,3:0:0:0:
320,192,147866,1,4,3:0:0:0:
192,192,147950,1,4,3:0:0:0:
64,192,147950,128,0,148283:2:0:0:0:
448,192,148116,1,0,2:0:0:0:
320,192,148283,1,4,3:0:0:0:
192,192,148449,128,0,148699:2:0:0:0:
448,192,148450,1,0,2:0:0:0:
64,192,148616,1,4,3:0:0:0:
448,192,148783,1,0,3:0:0:0:
320,192,148783,128,0,149033:2:0:0:0:
64,192,149116,128,0,149450:2:0:0:0:
448,192,149116,1,4,3:0:0:0:
192,192,149449,1,4,3:0:0:0:
320,192,149450,128,4,149783:0:0:0:0:
192,192,149783,1,0,2:0:0:0:
448,192,149949,1,4,3:0:0:0:
192,192,150033,1,4,3:0:0:0:
320,192,150116,1,0,2:0:0:0:
448,192,150116,1,0,3:0:0:0:
320,192,150449,1,0,3:0:0:0:
192,192,150449,1,0,2:0:0:0:
64,192,150616,1,4,3:0:0:0:
448,192,150783,128,4,151449:0:0:0:0:
320,192,150783,1,4,3:0:0:0:
192,192,150950,1,0,2:0:0:0:
64,192,150950,1,0,3:0:0:0:
320,192,151116,1,4,3:0:0:0:
192,192,151283,1,4,3:0:0:0:
64,192,151449,128,0,151949:2:0:0:0:
320,192,151450,1,0,3:0:0:0:
192,192,151533,1,0,3:0:0:0:
320,192,151616,1,0,3:0:0:0:
192,192,151783,1,0,3:0:0:0:
448,192,151950,1,0,3:0:0:0:
320,192,152116,1,0,2:0:0:0:
192,192,152116,128,4,154783:0:0:0:0:
64,192,154783,1,0,2:0:0:0:
448,192,154783,1,4,0:0:0:0:
