osu file format v12

[General]
AudioFilename: Endless Know.mp3
AudioLeadIn: 2000
PreviewTime: 58002
Countdown: 0
SampleSet: Soft
StackLeniency: 0.7
Mode: 0
LetterboxInBreaks: 0
EpilepsyWarning: 1
WidescreenStoryboard: 0

[Editor]
DistanceSpacing: 1
BeatDivisor: 4
GridSize: 4

[Metadata]
Title:Endless Know
TitleUnicode:エンドレス・ノー
Artist:encounter+
ArtistUnicode:encounter+
Creator:Yumih
Version:Easy
Source:Queen of Darkness: The Second Reproduction
Tags:Visual Novel DakeDekaane Momori Ruka
BeatmapID:265748
BeatmapSetID:97647

[Difficulty]
HPDrainRate:2
CircleSize:2
OverallDifficulty:2
ApproachRate:3
SliderMultiplier:1.1
SliderTickRate:1

[Events]
//Background and Video events
0,0,"TheSecondReproduction.jpg",0,0
//Break Periods
//Storyboard Layer 0 (Background)
//Storyboard Layer 1 (Fail)
//Storyboard Layer 2 (Pass)
//Storyboard Layer 3 (Foreground)
//Storyboard Sound Samples
//Background Colour Transformations
3,100,163,162,255

[TimingPoints]
20897,394.736842105263,4,2,1,40,1,0
23660,-100,4,2,2,50,0,0
24054,-100,4,2,1,40,0,0
29975,-100,4,2,2,50,0,0
30370,-100,4,2,1,40,0,0
36291,-100,4,2,2,40,0,0
36686,-100,4,2,1,40,0,0
42607,-100,4,2,2,50,0,0
43002,-100,4,2,1,40,0,0
45765,-100,4,2,2,40,0,0
46160,-100,4,2,2,50,0,0
58791,-100,4,2,2,70,0,1
65107,-100,4,2,2,60,0,0
66094,-100,4,2,2,45,0,0
66489,-100,4,2,2,60,0,0
71028,-100,4,2,1,70,0,0
71423,-100,4,2,2,70,0,1
85633,-100,4,2,2,70,0,0
87607,-100,4,2,2,60,0,0
88002,-100,4,2,2,50,0,0
88396,-100,4,2,2,40,0,0
88791,-100,4,2,2,30,0,0
89186,-100,4,2,2,20,0,0
89581,-100,4,2,2,15,0,0
89975,-100,4,2,2,10,0,0
90370,-100,4,2,2,5,0,0

[Colours]
Combo1 : 79,72,79
Combo2 : 214,214,214
Combo3 : 88,61,135
Combo4 : 79,166,164

[HitObjects]
116,112,20896,2,0,P|67:171|81:256,2,165,12|8|2,0:0|0:0|0:0,0:0:0:0:
172,208,22475,2,0,P|240:292|348:304,1,220
440,248,23660,5,8,0:0:0:0:
440,136,24054,2,0,P|379:55|305:53,2,165,8|8|2,0:0|0:0|0:0,0:0:0:0:
440,248,25633,2,0,P|379:329|305:331,2,165,0|0|2,0:0|0:0|0:0,0:0:0:0:
392,152,27212,6,0,L|224:160,1,165,8|8,0:0|0:0,0:0:0:0:
60,188,28396,1,2,0:0:0:0:
68,296,28791,2,0,P|144:320|215:282,1,165,0|0,0:0|0:0,0:0:0:0:
308,144,29975,5,8,0:0:0:0:
412,112,30370,2,0,P|408:192|348:248,1,165,8|8,0:0|0:0,0:0:0:0:
256,192,31554,12,12,33528,0:0:0:0:
152,88,34318,5,0,0:0:0:0:
52,132,34712,2,0,P|36:184|40:239,1,110,2|0,0:0|0:0,0:0:0:0:
72,344,35502,1,0,0:0:0:0:
176,376,35896,2,0,P|230:380|286:351,1,110,0|8,0:0|0:0,0:0:0:0:
352,276,36686,5,8,0:0:0:0:
404,176,37081,2,0,P|424:125|424:70,2,110,0|0|2,0:0|0:0|0:0,0:0:0:0:
296,180,38265,1,0,0:0:0:0:
76,152,39054,1,0,0:0:0:0:
116,256,39449,1,2,0:0:0:0:
180,344,39844,6,0,P|282:368|354:292,1,220,12|0,0:0|0:0,0:0:0:0:
372,184,41028,1,2,0:0:0:0:
304,96,41423,2,0,P|151:82|106:229,1,330,0|8,0:0|0:0,0:0:0:0:
184,304,43002,6,0,P|236:325|290:319,1,110,8|0,0:0|0:0,0:0:0:0:
248,216,43791,1,0,0:0:0:0:
356,232,44186,1,2,0:0:0:0:
440,168,44581,2,0,P|464:216|471:274,2,110,8|0|8,0:0|0:0|0:0,0:0:0:0:
376,80,45765,1,8,0:0:0:0:
268,72,46160,6,0,P|192:102|146:169,1,165,4|0,0:0|0:0,0:0:0:0:
124,332,47344,1,8,0:0:0:0:
231,347,47739,2,0,P|288:348|329:312,2,110,2|0|0,0:0|0:0|0:0,0:0:0:0:
252,240,48923,1,8,0:0:0:0:
220,132,49318,6,0,L|192:24,2,110,2|0|0,0:0|0:0|0:0,0:0:0:0:
252,240,50502,1,8,0:0:0:0:
300,340,50896,2,0,P|377:320|423:255,1,165,4|4,0:0|0:0,0:0:0:0:
424,88,52081,1,8,0:0:0:0:
320,64,52475,6,0,B|268:114|268:114|177:129,1,165,4|0,0:0|0:0,0:0:0:0:
32,208,53660,1,8,0:0:0:0:
140,236,54054,2,0,L|120:364,2,110,2|0|0,0:0|0:0|0:0,0:0:0:0:
177,129,55239,1,8,0:0:0:0:
256,192,55633,12,0,58002,0:0:0:0:
136,144,58791,6,0,P|158:94|201:61,1,110,4|8,0:0|0:0,0:0:0:0:
312,60,59581,2,0,P|355:93|378:143,1,110,0|8,0:0|0:0,0:0:0:0:
368,256,60370,2,0,L|148:256,1,220,2|0,0:0|0:0,0:0:0:0:
36,256,61554,1,8,0:0:0:0:
92,160,61949,6,0,L|164:68,1,110,4|8,0:0|0:0,0:0:0:0:
256,20,62739,1,0,0:0:0:0:
352,73,63133,2,0,L|420:160,1,110,8|2,0:0|0:0,0:0:0:0:
444,268,63923,1,8,0:0:0:0:
364,344,64318,2,0,P|267:344|275:245,1,220,0|4,0:0|0:0,0:0:0:0:
175,200,65502,6,0,P|143:273|69:305,1,165,8|4,0:0|0:0,0:0:0:0:
64,196,66489,2,0,L|156:36,1,165,4|8,0:0|0:0,0:0:0:0:
256,64,67475,1,2,0:0:0:0:
348,124,67870,5,8,0:0:0:0:
248,172,68265,2,0,B|248:228|248:228|304:232|348:284|344:340,1,220,4|0,0:0|0:0,0:0:0:0:
232,336,69449,1,8,0:0:0:0:
120,336,69844,2,0,B|116:280|152:244|152:244|152:160,1,165,4|4,0:0|0:0,0:0:0:0:
404,72,71423,5,4,0:0:0:0:
404,184,71818,2,0,P|456:169|496:131,2,110,8|0|8,0:0|0:0|0:0,0:0:0:0:
300,224,73002,2,0,P|256:317|144:324,1,220,2|0,0:0|0:0,0:0:0:0:
192,228,74186,1,8,0:0:0:0:
124,144,74581,5,4,0:0:0:0:
220,92,74975,2,0,L|340:104,1,110,8|0,0:0|0:0,0:0:0:0:
300,212,75765,2,0,L|424:192,1,110,8|2,0:0|0:0,0:0:0:0:
460,296,76554,2,0,L|240:332,1,220,8|8,0:0|0:0,0:0:0:0:
132,332,77739,6,0,P|92:292|76:240,1,110,4|8,0:0|0:0,0:0:0:0:
92,132,78528,1,0,0:0:0:0:
204,136,78923,2,0,P|252:164|281:210,1,110,8|4,0:0|0:0,0:0:0:0:
384,248,79712,1,8,0:0:0:0:
372,140,80107,2,0,P|342:94|298:61,1,110,0|8,0:0|0:0,0:0:0:0:
188,80,80896,6,0,P|128:120|168:255,1,220,4|0,0:0|0:0,0:0:0:0:
252,304,82081,1,8,0:0:0:0:
352,256,82475,2,0,P|388:200|348:104,2,165,4|4|8,0:0|0:0|0:0,0:0:0:0:
252,304,84054,6,0,P|241:250|258:198,1,110,4|8,0:0|0:0,0:0:0:0:
268,88,84844,1,0,0:0:0:0:
160,72,85239,1,8,0:0:0:0:
144,180,85633,2,0,P|115:221|71:252,2,82.5,4|4|4,0:0|0:0|0:0,0:0:0:0:
256,192,86818,12,0,90370,0:0:0:0:
