osu file format v14

[General]
AudioFilename: SAWASDEE FUCKERS.mp3
AudioLeadIn: 0
PreviewTime: 35275
Countdown: 0
SampleSet: None
StackLeniency: 0.7
Mode: 2
LetterboxInBreaks: 1
WidescreenStoryboard: 1

[Editor]
Bookmarks: 6011,17790,20735,29570,32514,33987,59017,67852,73741,79631,85520,97300,105398,107238,108711
DistanceSpacing: 1.6
BeatDivisor: 4
GridSize: 8
TimelineZoom: 2.8

[Metadata]
Title:Sawasdee
TitleUnicode:สวัสดี
Artist:encX
ArtistUnicode:encX
Creator:ZeroEightOne
Version:Overdose
Source:
Tags:
BeatmapID:687088
BeatmapSetID:307044

[Difficulty]
HPDrainRate:5
CircleSize:4
OverallDifficulty:9.2
ApproachRate:9.2
SliderMultiplier:2.99999990463257
SliderTickRate:1

[Events]
//Background and Video events
0,0,"lake-bridge-thailand.jpg",0,0
//Break Periods
//Storyboard Layer 0 (Background)
//Storyboard Layer 1 (Fail)
//Storyboard Layer 2 (Pass)
//Storyboard Layer 3 (Foreground)
//Storyboard Sound Samples

[TimingPoints]
3067,368.098159509202,4,3,0,50,1,0
17790,-100,4,3,1,50,0,0
17882,-100,4,3,2,50,0,0
20735,-100,4,3,1,75,0,0
35459,-66.6666666666667,4,3,1,100,0,1
59017,-100,4,2,1,100,0,0
59109,-100,4,3,1,50,0,0
61962,-100,4,3,1,100,0,0
62054,-100,4,3,2,75,0,0
64907,-100,4,3,1,100,0,0
64999,-100,4,3,2,50,0,0
65643,-100,4,3,1,100,0,0
65735,-100,4,3,2,50,0,0
66379,-100,4,3,1,100,0,0
67852,-100,4,3,1,100,0,0
67944,-100,4,3,2,50,0,0
70244,-100,4,3,1,100,0,0
70797,-100,4,3,2,100,0,0
73097,-100,4,3,2,5,0,0
73603,-100,4,3,2,25,0,0
73649,-100,4,3,2,50,0,0
73695,-100,4,3,2,75,0,0
73741,-100,4,3,1,100,0,0
73833,-100,4,3,2,60,0,0
84048,-100,4,3,1,100,0,0
85520,-66.6666666666667,4,3,1,100,0,1
97300,-100,4,3,1,100,0,0
107238,-100,4,3,1,5,0,0
107330,-100,4,3,1,100,0,0

[Colours]
Combo1 : 255,0,0
Combo2 : 255,0,0
Combo3 : 255,255,255
Combo4 : 0,0,255
Combo5 : 255,255,255

[HitObjects]
104,328,3066,6,0,P|216:288|328:280,1,224.999992847443,4|0,0:0|0:0,0:0:0:0:
416,240,3435,1,0,0:0:0:0:
328,176,3527,1,0,0:0:0:0:
416,120,3619,2,0,P|328:64|240:56,1,149.999995231629,8|4,0:0|0:0,0:0:0:0:
80,112,3987,6,0,L|0:152,2,74.9999976158143
328,176,4355,1,8,0:0:0:0:
80,112,4539,2,0,L|48:192,1,74.9999976158143,4|0,0:0|0:0,0:0:0:0:
0,216,4723,2,0,L|32:296,1,74.9999976158143
80,304,4907,2,0,L|48:384,1,74.9999976158143
256,320,5091,5,8,0:0:0:0:
432,304,5275,1,4,0:0:0:0:
256,320,5459,2,0,L|256:224,2,74.9999976158143
80,304,5827,1,8,0:0:0:0:
432,304,6011,1,4,0:0:0:0:
80,304,6379,5,0,0:0:0:0:
360,112,6747,6,0,L|416:112,1,37.4999988079071
377,141,6839,6,0,L|431:156,1,37.4999988079071
386,174,6931,6,0,L|434:202,1,37.4999988079071
386,208,7024,6,0,L|425:248,1,37.4999988079071
424,248,7116,1,0,0:0:0:0:
320,296,7208,6,0,P|272:280|224:224,2,74.9999976158143,0|8|0,0:0|0:0|0:0,0:0:0:0:
192,176,7484,2,0,P|120:96|-8:56,1,224.999992847443,4|0,0:0|0:0,0:0:0:0:
0,56,7852,1,0,0:0:0:0:
256,56,8036,6,0,P|160:64|96:104,1,149.999995231629,8|4,0:0|0:0,0:0:0:0:
32,160,8312,2,0,P|80:136|120:104,2,74.9999976158143
328,96,8588,5,0,0:0:0:0:
392,128,8680,1,0,0:0:0:0:
456,160,8772,1,8,0:0:0:0:
392,200,8864,1,0,0:0:0:0:
328,240,8956,6,0,P|448:312|424:360,1,224.999992847443
328,240,9324,2,0,P|208:168|232:120,1,224.999992847443
195,142,9692,2,0,L|248:112,1,37.4999988079071,4|0,0:0|0:0,0:0:0:0:
160,160,9784,2,0,L|160:208,1,37.4999988079071
128,144,9876,2,0,L|75:114,1,37.4999988079071
40,144,9968,2,0,L|93:114,1,37.4999988079071
16,160,10060,2,0,L|16:208,1,37.4999988079071
72,125,10152,2,0,L|40:144,2,37.4999988079071,0|0|8,0:0|0:0|0:0,0:0:0:0:
176,64,10336,5,0,0:0:0:0:
256,32,10428,1,4,0:0:0:0:
336,64,10705,1,0,0:0:0:0:
176,64,10797,1,0,0:0:0:0:
336,64,10981,1,8,0:0:0:0:
480,64,11165,6,0,L|456:112,3,37.4999988079071,4|0|0|0,0:0|0:0|0:0|0:0,0:0:0:0:
440,104,11349,2,0,L|416:152,3,37.4999988079071
392,152,11533,1,0,0:0:0:0:
344,248,11625,1,0,0:0:0:0:
240,272,11717,1,8,0:0:0:0:
272,176,11809,2,0,L|168:176,1,74.9999976158143,0|4,0:0|0:0,0:0:0:0:
40,176,12085,6,0,L|136:176,1,74.9999976158143
272,176,12269,1,0,0:0:0:0:
115,176,12453,1,8,0:0:0:0:
384,184,12637,5,4,0:0:0:0:
416,184,12729,1,0,0:0:0:0:
384,184,12821,1,0,0:0:0:0:
352,184,12913,1,0,0:0:0:0:
384,184,13005,1,0,0:0:0:0:
416,184,13097,2,0,L|336:184,2,74.9999976158143,0|8|0,0:0|0:0|0:0,0:0:0:0:
336,288,13373,6,0,P|232:336|120:272,1,224.999992847443,4|0,0:0|0:0,0:0:0:0:
240,184,13741,1,0,0:0:0:0:
138,295,13833,6,0,P|90:191|154:79,1,224.999992847443,0|4,0:0|0:0,0:0:0:0:
232,64,14293,1,0,0:0:0:0:
352,232,14478,2,0,P|400:160|400:80,1,149.999995231629,0|8,0:0|0:0,0:0:0:0:
160,232,14846,2,0,P|112:160|112:80,1,149.999995231629,4|0,0:0|0:0,0:0:0:0:
32,152,15122,5,0,0:0:0:0:
88,240,15214,1,0,0:0:0:0:
144,328,15306,1,0,0:0:0:0:
248,328,15398,2,0,L|408:328,1,149.999995231629,8|4,0:0|0:0,0:0:0:0:
144,328,15766,5,0,0:0:0:0:
368,328,15950,1,0,0:0:0:0:
144,328,16134,1,0,0:0:0:0:
256,192,16318,12,12,17422,0:0:0:0:
256,264,17606,5,8,0:0:0:0:
128,96,17790,6,0,P|80:200|96:272,1,149.999995231629,4|0,0:0|0:0,0:0:0:0:
88,288,18066,1,0,0:0:0:0:
128,336,18159,1,8,0:0:0:0:
184,336,18251,1,0,0:0:0:0:
200,336,18343,1,8,0:0:0:0:
280,336,18435,1,0,0:0:0:0:
296,336,18527,6,0,L|400:336,1,74.9999976158143,4|0,0:0|0:0,0:0:0:0:
336,256,18711,2,0,L|424:256,1,74.9999976158143
368,168,18895,2,0,L|280:168,1,74.9999976158143,8|0,0:0|0:0,0:0:0:0:
328,88,19079,2,0,L|248:88,1,74.9999976158143,8|0,0:0|0:0,0:0:0:0:
478,88,19263,6,0,L|286:88,1,149.999995231629,4|0,0:0|0:0,0:0:0:0:
216,88,19539,1,0,0:0:0:0:
40,88,19631,1,8,0:0:0:0:
80,88,19723,1,0,0:0:0:0:
120,88,19815,1,8,0:0:0:0:
80,88,19907,1,0,0:0:0:0:
40,88,19999,1,4,0:0:0:0:
248,176,20091,6,0,L|160:176,3,74.9999976158143,0|8|0|8,0:0|0:0|0:0|0:0,0:0:0:0:
488,176,20551,1,4,0:0:0:0:
104,264,20735,6,0,P|200:320|288:320,1,149.999995231629,4|0,0:0|0:0,0:0:0:0:
208,256,21011,6,0,L|240:336,1,74.9999976158143,0|8,0:0|0:0,0:0:0:0:
358,246,21287,2,0,P|305:298|235:325,1,149.999995231629,4|4,0:0|0:0,0:0:0:0:
104,264,21655,6,0,L|48:328,1,74.9999976158143
457,63,21840,2,0,L|408:120,1,74.9999976158143,8|0,0:0|0:0,0:0:0:0:
104,264,22024,2,0,L|48:328,2,74.9999976158143,0|0|4,0:0|0:0|0:0,0:0:0:0:
440,192,22484,5,0,0:0:0:0:
304,192,22576,1,8,0:0:0:0:
176,192,22760,2,4,L|16:192,1,149.999995231629
248,192,23036,5,0,0:0:0:0:
176,192,23128,1,0,0:0:0:0:
104,192,23220,1,0,0:0:0:0:
320,192,23312,2,0,L|472:192,1,149.999995231629,8|4,0:0|0:0,0:0:0:0:
304,48,23680,6,0,B|240:104|240:104|176:104,1,149.999995231629
40,104,23956,1,0,0:0:0:0:
176,104,24048,1,8,0:0:0:0:
40,104,24140,1,0,0:0:0:0:
176,104,24232,2,0,P|217:144|249:144,2,74.9999976158143,4|0|4,0:0|0:0|0:0,0:0:0:0:
448,104,24600,6,0,P|400:88|384:128,2,74.9999976158143,0|0|8,0:0|0:0|0:0,0:0:0:0:
320,160,24876,1,0,0:0:0:0:
368,248,24968,1,0,0:0:0:0:
272,288,25060,1,0,0:0:0:0:
48,216,25152,6,0,P|136:264|224:183,1,224.999992847443,4|0,0:0|0:0,0:0:0:0:
48,208,25520,2,0,P|136:160|192:176,1,149.999995231629,8|4,0:0|0:0,0:0:0:0:
320,224,25889,1,4,0:0:0:0:
368,136,25981,1,0,0:0:0:0:
272,96,26073,1,0,0:0:0:0:
416,264,26165,1,0,0:0:0:0:
208,184,26257,6,0,P|128:120|104:40,1,149.999995231629,8|0,0:0|0:0,0:0:0:0:
304,200,26625,2,0,P|384:264|408:344,1,149.999995231629,4|0,0:0|0:0,0:0:0:0:
232,320,26901,6,0,P|208:240|208:216,1,74.9999976158143,0|8,0:0|0:0,0:0:0:0:
392,334,27085,2,0,P|416:254|416:230,1,74.9999976158143,0|4,0:0|0:0,0:0:0:0:
48,336,27269,2,0,P|24:256|24:232,1,74.9999976158143,0|4,0:0|0:0,0:0:0:0:
256,256,27453,5,0,0:0:0:0:
464,336,27545,2,0,P|480:304|488:280,2,37.4999988079071
328,256,27729,2,0,L|272:256,1,37.4999988079071,8|0,0:0|0:0,0:0:0:0:
232,256,27821,1,0,0:0:0:0:
136,256,27913,2,0,L|88:256,1,37.4999988079071
40,256,28005,1,0,0:0:0:0:
376,56,28097,6,0,P|384:80|416:88,2,37.4999988079071,4|0|0,0:0|0:0|0:0,0:0:0:0:
296,56,28235,6,0,P|304:80|336:88,2,37.4999988079071
216,56,28373,6,0,P|224:80|256:88,2,37.4999988079071,0|0|8,0:0|0:0|0:0,0:0:0:0:
144,104,28511,1,0,0:0:0:0:
152,104,28557,1,0,0:0:0:0:
64,104,28603,1,0,0:0:0:0:
72,104,28649,1,4,0:0:0:0:
368,104,28695,1,0,0:0:0:0:
360,104,28741,1,0,0:0:0:0:
448,104,28787,1,0,0:0:0:0:
440,104,28833,1,4,0:0:0:0:
464,160,28879,6,0,L|408:160,14,37.4999988079071,0|0|0|0|0|0|0|8|0|0|0|0|0|0|0,0:0|0:0|0:0|0:0|0:0|0:0|0:0|0:0|0:0|0:0|0:0|0:0|0:0|0:0|0:0,0:0:0:0:
8,168,29570,5,4,0:0:0:0:
208,240,29754,2,0,L|368:240,2,149.999995231629,0|8|4,0:0|0:0|0:0,0:0:0:0:
432,312,30306,1,4,0:0:0:0:
112,128,30490,2,0,L|264:128,2,149.999995231629,0|8|0,0:0|0:0|0:0,0:0:0:0:
456,136,31042,1,4,0:0:0:0:
32,144,31318,6,0,L|144:144,1,74.9999976158143,0|8,0:0|0:0,0:0:0:0:
496,136,31594,1,4,0:0:0:0:
224,192,31778,5,4,0:0:0:0:
48,192,31870,1,0,0:0:0:0:
224,192,32054,1,0,0:0:0:0:
80,192,32146,1,8,0:0:0:0:
224,192,32330,1,0,0:0:0:0:
472,320,32514,6,0,L|384:320,1,74.9999976158143,4|0,0:0|0:0,0:0:0:0:
232,256,32698,2,0,L|336:256,1,74.9999976158143,2|0,0:0|0:0,0:0:0:0:
464,184,32882,2,0,L|376:184,2,74.9999976158143,8|0|6,0:0|0:0|0:0,0:0:0:0:
40,320,33251,6,0,L|128:320,1,74.9999976158143,4|0,0:0|0:0,0:0:0:0:
280,256,33435,2,0,L|176:256,1,74.9999976158143,2|0,0:0|0:0,0:0:0:0:
48,184,33619,2,0,L|136:184,2,74.9999976158143,8|0|6,0:0|0:0|0:0,0:0:0:0:
296,320,33895,1,0,0:0:0:0:
368,256,33987,5,4,0:0:0:0:
296,320,34079,1,0,0:0:0:0:
224,320,34171,1,0,0:0:0:0:
144,256,34263,1,0,0:0:0:0:
458,255,34355,5,4,0:0:0:0:
328,320,34447,1,0,0:0:0:0:
198,320,34539,1,0,0:0:0:0:
53,255,34631,1,0,0:0:0:0:
368,160,34723,5,4,0:0:0:0:
416,160,34769,1,0,0:0:0:0:
448,160,34815,1,0,0:0:0:0:
464,160,34861,1,0,0:0:0:0:
448,160,34907,1,4,0:0:0:0:
416,160,34953,1,0,0:0:0:0:
368,160,34999,1,0,0:0:0:0:
320,160,35045,1,0,0:0:0:0:
264,160,35091,1,4,0:0:0:0:
192,160,35137,1,0,0:0:0:0:
112,160,35183,1,4,0:0:0:0:
32,160,35229,1,0,0:0:0:0:
128,160,35275,1,4,0:0:0:0:
224,160,35321,1,0,0:0:0:0:
320,160,35367,1,4,0:0:0:0:
416,160,35413,1,0,0:0:0:0:
512,160,35459,6,0,P|344:240|280:256,1,225.000001430512,4|2,0:0|0:0,0:0:0:0:
0,224,35735,1,0,0:0:0:0:
0,224,35827,2,0,P|168:144|232:128,1,225.000001430512,8|6,0:0|0:0,0:0:0:0:
400,208,36103,5,0,0:0:0:0:
120,312,36195,2,0,L|88:168,1,112.500000715256,4|0,0:0|0:0,0:0:0:0:
296,240,36379,2,0,P|184:296|136:288,1,112.500000715256,2|0,0:0|0:0,0:0:0:0:
72,296,36563,2,0,L|40:152,1,112.500000715256,8|0,0:0|0:0,0:0:0:0:
360,256,36747,2,0,P|248:312|200:304,1,112.500000715256,2|0,0:0|0:0,0:0:0:0:
304,24,36932,6,0,P|448:128|472:336,1,337.500002145767,4|0,0:0|0:0,0:0:0:0:
208,360,37300,2,0,P|64:256|32:120,1,225.000001430512,8|6,0:0|0:0,0:0:0:0:
440,160,37576,1,0,0:0:0:0:
440,160,37668,6,0,L|320:160,1,112.500000715256,4|0,0:0|0:0,0:0:0:0:
72,160,37852,2,0,L|192:160,1,112.500000715256,2|0,0:0|0:0,0:0:0:0:
376,160,38036,6,0,L|488:160,1,112.500000715256,8|0,0:0|0:0,0:0:0:0:
136,160,38220,2,0,L|23:160,1,112.500000715256,6|0,0:0|0:0,0:0:0:0:
320,264,38404,5,4,0:0:0:0:
448,264,38496,1,0,0:0:0:0:
72,264,38588,2,0,L|208:264,1,112.500000715256,2|0,0:0|0:0,0:0:0:0:
296,192,38772,2,0,L|168:192,1,112.500000715256,8|0,0:0|0:0,0:0:0:0:
464,192,38956,1,6,0:0:0:0:
464,192,39048,1,0,0:0:0:0:
72,96,39140,6,0,L|40:208,1,112.500000715256,4|0,0:0|0:0,0:0:0:0:
192,144,39324,2,0,L|224:32,1,112.500000715256,2|0,0:0|0:0,0:0:0:0:
0,168,39508,2,0,L|32:296,1,112.500000715256,8|0,0:0|0:0,0:0:0:0:
184,208,39692,2,0,L|152:80,1,112.500000715256,2|0,0:0|0:0,0:0:0:0:
392,120,39876,5,4,0:0:0:0:
464,120,39968,1,0,0:0:0:0:
488,120,40060,1,2,0:0:0:0:
464,120,40152,1,0,0:0:0:0:
392,120,40244,1,8,0:0:0:0:
256,120,40336,1,0,0:0:0:0:
512,120,40428,5,6,0:0:0:0:
256,120,40520,1,0,0:0:0:0:
344,208,40613,6,0,L|472:208,1,112.500000715256,4|0,0:0|0:0,0:0:0:0:
144,208,40797,1,2,0:0:0:0:
144,208,40889,1,0,0:0:0:0:
392,280,40981,2,0,B|512:280|512:280|512:288,1,112.500000715256,8|0,0:0|0:0,0:0:0:0:
88,280,41165,1,2,0:0:0:0:
88,280,41257,1,0,0:0:0:0:
312,40,41349,6,0,B|448:96|448:96|448:296,1,337.500002145767,4|0,0:0|0:0,0:0:0:0:
64,176,41717,2,0,B|64:96|64:96|200:32,1,225.000001430512,8|6,0:0|0:0,0:0:0:0:
488,192,41993,1,0,0:0:0:0:
136,328,42085,6,0,L|16:328,1,112.500000715256,4|0,0:0|0:0,0:0:0:0:
128,256,42269,2,0,L|248:256,1,112.500000715256,2|0,0:0|0:0,0:0:0:0:
346,183,42453,6,0,L|226:183,1,112.500000715256,8|0,0:0|0:0,0:0:0:0:
346,111,42637,2,0,L|466:111,1,112.500000715256,2|0,0:0|0:0,0:0:0:0:
256,88,42821,6,0,P|208:192|176:344,1,225.000001430512,4|2,0:0|0:0,0:0:0:0:
416,256,43097,1,0,0:0:0:0:
168,96,43189,2,0,P|216:200|248:352,1,225.000001430512,8|6,0:0|0:0,0:0:0:0:
64,192,43465,1,0,0:0:0:0:
272,192,43557,5,4,0:0:0:0:
416,192,43649,1,0,0:0:0:0:
344,192,43741,1,2,0:0:0:0:
488,192,43833,1,0,0:0:0:0:
344,40,43925,2,0,L|232:40,1,112.500000715256,8|0,0:0|0:0,0:0:0:0:
360,112,44109,2,0,L|232:112,1,112.500000715256,6|0,0:0|0:0,0:0:0:0:
40,336,44293,6,0,L|176:336,1,112.500000715256,4|0,0:0|0:0,0:0:0:0:
344,336,44478,2,0,L|224:336,1,112.500000715256,2|0,0:0|0:0,0:0:0:0:
32,264,44662,6,0,L|168:264,1,112.500000715256,8|0,0:0|0:0,0:0:0:0:
352,264,44847,2,0,L|232:264,1,112.500000715256,6|0,0:0|0:0,0:0:0:0:
24,192,45030,6,0,L|160:192,1,112.500000715256,4|0,0:0|0:0,0:0:0:0:
360,192,45215,2,0,L|240:192,1,112.500000715256,10|0,0:0|0:0,0:0:0:0:
392,112,45398,6,0,L|528:112,1,112.500000715256,8|0,0:0|0:0,0:0:0:0:
360,32,45582,2,0,L|240:32,1,112.500000715256,14|0,0:0|0:0,0:0:0:0:
32,128,45766,5,4,0:0:0:0:
80,128,45812,1,0,0:0:0:0:
128,128,45858,1,0,0:0:0:0:
176,128,45904,1,0,0:0:0:0:
224,128,45950,1,0,0:0:0:0:
272,128,45996,1,0,0:0:0:0:
320,128,46042,1,0,0:0:0:0:
368,128,46088,1,0,0:0:0:0:
472,48,46134,5,4,0:0:0:0:
424,48,46180,1,0,0:0:0:0:
376,48,46226,1,0,0:0:0:0:
328,48,46272,1,0,0:0:0:0:
280,48,46318,1,0,0:0:0:0:
232,48,46364,1,0,0:0:0:0:
184,48,46410,1,0,0:0:0:0:
136,48,46456,1,0,0:0:0:0:
56,48,46502,5,4,0:0:0:0:
56,48,46548,1,0,0:0:0:0:
56,48,46594,1,0,0:0:0:0:
56,48,46640,1,0,0:0:0:0:
512,216,46686,5,8,0:0:0:0:
512,216,46778,1,8,0:0:0:0:
0,224,46870,1,8,0:0:0:0:
0,224,47054,1,12,0:0:0:0:
368,328,47238,6,0,L|488:328,3,112.500000715256,4|0|10|0,0:0|0:0|0:0|0:0,0:0:0:0:
144,328,47606,2,0,L|24:328,3,112.500000715256,4|0|10|0,0:0|0:0|0:0|0:0,0:0:0:0:
512,192,47974,5,4,0:0:0:0:
360,192,48066,1,0,0:0:0:0:
256,192,48159,1,10,0:0:0:0:
360,192,48251,1,0,0:0:0:0:
512,192,48343,1,4,0:0:0:0:
104,192,48435,6,0,L|240:192,1,112.500000715256,0|10,0:0|0:0,0:0:0:0:
376,192,48619,1,0,0:0:0:0:
144,56,48711,6,0,L|24:56,3,112.500000715256,4|0|10|0,0:0|0:0|0:0|0:0,0:0:0:0:
368,56,49079,2,0,L|488:56,3,112.500000715256,4|0|10|0,0:0|0:0|0:0|0:0,0:0:0:0:
0,192,49447,5,4,0:0:0:0:
152,192,49539,1,0,0:0:0:0:
256,192,49632,1,10,0:0:0:0:
152,192,49724,1,0,0:0:0:0:
0,192,49816,1,4,0:0:0:0:
408,192,49908,6,0,L|272:192,1,112.500000715256,0|14,0:0|0:0,0:0:0:0:
136,192,50092,1,0,0:0:0:0:
360,88,50183,5,4,0:0:0:0:
432,136,50275,1,0,0:0:0:0:
432,224,50367,1,10,0:0:0:0:
304,351,50459,1,0,0:0:0:0:
488,136,50551,1,4,0:0:0:0:
488,224,50643,1,0,0:0:0:0:
248,352,50735,1,10,0:0:0:0:
