osu file format v14

[General]
AudioFilename: SAWASDEE FUCKERS.mp3
AudioLeadIn: 0
PreviewTime: 35275
Countdown: 0
SampleSet: None
StackLeniency: 0.7
Mode: 2
LetterboxInBreaks: 1
WidescreenStoryboard: 1

[Editor]
Bookmarks: 6011,17790,20735,29570,32514,33987,59017,67852,73741,79631,85520,97300,105398,107238,108711
DistanceSpacing: 1.4
BeatDivisor: 4
GridSize: 16
TimelineZoom: 2.5

[Metadata]
Title:Sawasdee
TitleUnicode:สวัสดี
Artist:encX
ArtistUnicode:encX
Creator:ZeroEightOne
Version:Cup
Source:
Tags:
BeatmapID:687085
BeatmapSetID:307044

[Difficulty]
HPDrainRate:3
CircleSize:3
OverallDifficulty:3
ApproachRate:5
SliderMultiplier:0.999999904632568
SliderTickRate:1

[Events]
//Background and Video events
0,0,"lake-bridge-thailand.jpg",0,0
//Break Periods
//Storyboard Layer 0 (Background)
//Storyboard Layer 1 (Fail)
//Storyboard Layer 2 (Pass)
//Storyboard Layer 3 (Foreground)
//Storyboard Sound Samples

[TimingPoints]
3067,368.098159509202,4,3,2,50,1,0
17790,-100,4,3,1,50,0,0
17882,-100,4,3,2,50,0,0
20735,-100,4,3,1,75,0,0
35459,-66.6666666666667,4,3,1,100,0,1
59017,-100,4,2,1,100,0,0
59109,-100,4,3,1,50,0,0
61962,-100,4,3,1,100,0,0
62054,-100,4,3,2,75,0,0
64907,-100,4,3,1,100,0,0
64999,-100,4,3,2,50,0,0
65643,-100,4,3,1,100,0,0
65735,-100,4,3,2,50,0,0
66379,-100,4,3,1,100,0,0
67852,-100,4,3,1,100,0,0
67944,-100,4,3,2,50,0,0
70244,-100,4,3,1,100,0,0
70797,-100,4,3,2,100,0,0
73097,-100,4,3,2,5,0,0
73603,-100,4,3,2,25,0,0
73649,-100,4,3,2,50,0,0
73695,-100,4,3,2,75,0,0
73741,-100,4,3,1,100,0,0
73833,-100,4,3,2,60,0,0
84048,-100,4,3,1,100,0,0
85520,-66.6666666666667,4,3,1,100,0,1
97300,-100,4,3,1,100,0,0
107238,-100,4,3,1,5,0,0
107330,-100,4,3,1,100,0,0

[HitObjects]
64,192,3066,5,4,0:0:0:0:
256,192,3803,1,4,0:0:0:0:
448,192,4539,1,4,0:0:0:0:
256,192,5275,1,4,0:0:0:0:
352,192,5643,1,8,0:0:0:0:
448,64,6011,6,0,P|384:96|352:96,2,99.9999904632568,4|0|4,0:0|0:0|0:0,0:0:0:0:
256,64,7116,5,0,0:0:0:0:
256,64,7300,1,8,0:0:0:0:
160,64,7484,2,0,B|160:160|160:160|64:224|64:224|64:320,1,299.999971389771,4|0,0:0|0:0,0:0:0:0:
144,320,8772,1,8,0:0:0:0:
224,320,8956,6,0,L|336:320,2,99.9999904632568,4|0|4,0:0|0:0|0:0,0:0:0:0:
456,192,10428,2,0,L|56:192,1,399.999961853027,4|4,0:0|0:0,0:0:0:0:
144,272,12269,1,0,0:0:0:0:
256,304,12637,5,4,0:0:0:0:
368,272,13005,1,0,0:0:0:0:
256,304,13373,6,0,L|256:192,1,99.9999904632568,4|0,0:0|0:0,0:0:0:0:
256,304,14109,1,0,0:0:0:0:
144,272,14477,5,4,0:0:0:0:
336,304,14846,6,0,L|282:204,1,99.9999904632568,4|0,0:0|0:0,0:0:0:0:
176,304,15582,2,0,L|230:204,1,99.9999904632568,4|0,0:0|0:0,0:0:0:0:
256,192,16318,12,4,17790,0:0:0:0:
128,192,18066,6,0,L|80:192,1,24.9999976158142
128,192,18343,1,8,0:0:0:0:
128,192,18527,1,4,0:0:0:0:
336,192,18895,6,0,L|400:192,1,49.9999952316284,0|8,0:0|0:0,0:0:0:0:
480,208,19263,2,0,P|432:288|189:198,1,399.999961853027,4|4,0:0|0:0,0:0:0:0:
256,192,21103,5,8,0:0:0:0:
384,192,21471,1,4,0:0:0:0:
512,192,21840,1,8,0:0:0:0:
384,192,22208,1,4,0:0:0:0:
256,192,22576,2,0,L|144:192,2,99.9999904632568,8|4|8,0:0|0:0|0:0,0:0:0:0:
256,192,23496,1,0,0:0:0:0:
384,192,23680,6,0,L|496:192,1,99.9999904632568,4|8,0:0|0:0,0:0:0:0:
384,192,24416,2,0,L|464:272,1,99.9999904632568,4|8,0:0|0:0,0:0:0:0:
256,192,25152,6,0,L|144:192,1,99.9999904632568,4|8,0:0|0:0,0:0:0:0:
256,192,25889,2,0,L|176:272,1,99.9999904632568,4|8,0:0|0:0,0:0:0:0:
112,304,26441,1,0,0:0:0:0:
32,256,26625,2,0,P|32:160|288:96,1,399.999961853027,4|4,0:0|0:0,0:0:0:0:
352,160,28465,1,8,0:0:0:0:
256,192,28833,12,4,29570,0:0:0:0:
224,80,29938,6,0,L|288:80,2,49.9999952316284,8|4|4,0:0|0:0|0:0,0:0:0:0:
96,80,30674,6,0,L|32:80,2,49.9999952316284,8|4|4,0:0|0:0|0:0,0:0:0:0:
304,80,31410,1,8,0:0:0:0:
400,80,31594,1,4,0:0:0:0:
304,80,31778,1,4,0:0:0:0:
400,80,31962,5,0,0:0:0:0:
496,80,32146,1,8,0:0:0:0:
496,80,32330,1,0,0:0:0:0:
368,192,32514,6,0,L|432:192,3,49.9999952316284,4|2|8|2,0:0|0:0|0:0|0:0,0:0:0:0:
448,272,33251,6,0,L|384:272,3,49.9999952316284,4|2|8|2,0:0|0:0|0:0|0:0,0:0:0:0:
288,272,33987,6,0,L|304:240,6,24.9999976158142,4|0|0|0|4|0|0,0:0|0:0|0:0|0:0|0:0|0:0|0:0,0:0:0:0:
224,288,34631,6,0,L|240:256,5,24.9999976158142,4|0|0|0|4|0,0:0|0:0|0:0|0:0|0:0|0:0,0:0:0:0:
160,304,35183,1,4,0:0:0:0:
112,304,35275,1,4,0:0:0:0:
64,304,35367,1,4,0:0:0:0:
16,304,35459,6,0,P|32:208|96:160,2,149.999991416931,4|8|4,0:0|0:0|0:0,0:0:0:0:
160,304,36563,6,0,L|256:304,2,74.9999957084654,8|4|4,0:0|0:0|0:0,0:0:0:0:
336,304,37300,1,8,0:0:0:0:
352,304,37484,1,4,0:0:0:0:
464,304,37668,5,4,0:0:0:0:
432,304,37852,1,0,0:0:0:0:
464,304,38036,1,8,0:0:0:0:
432,304,38220,1,0,0:0:0:0:
384,192,38404,6,0,L|384:32,2,149.999991416931,4|8|4,0:0|0:0|0:0,0:0:0:0:
256,192,39324,2,0,L|160:192,2,74.9999957084654,0|8|0,0:0|0:0|0:0,0:0:0:0:
181,192,39876,2,0,P|144:226|188:117,1,449.999974250792,4|8,0:0|0:0,0:0:0:0:
256,160,41165,1,0,0:0:0:0:
331,192,41349,6,0,P|368:226|324:117,1,449.999974250792,4|8,0:0|0:0,0:0:0:0:
256,160,42637,1,0,0:0:0:0:
144,240,42821,6,0,L|16:240,1,112.499993562698,4|0,0:0|0:0,0:0:0:0:
32,240,43189,1,8,0:0:0:0:
89,190,43373,1,0,0:0:0:0:
144,144,43557,6,0,L|16:144,1,112.499993562698,4|0,0:0|0:0,0:0:0:0:
32,144,43925,1,8,0:0:0:0:
