osu file format v13

[General]
AudioFilename: encX - One Day.mp3
AudioLeadIn: 0
PreviewTime: 39623
Countdown: 0
SampleSet: Soft
StackLeniency: 0.7
Mode: 0
LetterboxInBreaks: 0
WidescreenStoryboard: 0

[Editor]
DistanceSpacing: 1
BeatDivisor: 4
GridSize: 4
TimelineZoom: 1

[Metadata]
Title:One Day
TitleUnicode:One Day
Artist:encX
ArtistUnicode:encX
Creator:Betsuto
Version:Another
Source:Drum n' Bass
Tags:thapster rhythmix fl studio neurofunk hardcore
BeatmapID:434350
BeatmapSetID:180825

[Difficulty]
HPDrainRate:7
CircleSize:4
OverallDifficulty:8
ApproachRate:9
SliderMultiplier:1.8
SliderTickRate:1

[Events]
//Background and Video events
0,0,"OneD.jpg",0,0
//Break Periods
2,62395,70066
//Storyboard Layer 0 (Background)
//Storyboard Layer 1 (Fail)
//Storyboard Layer 2 (Pass)
//Storyboard Layer 3 (Foreground)
//Storyboard Sound Samples
//Background Colour Transformations
3,100,163,162,255

[TimingPoints]
5725,352.941176470588,4,2,1,70,1,0
5725,-133.333333333333,4,2,1,70,0,0
16313,-100,4,2,1,70,0,0
39607,-100,4,2,1,70,0,1
62195,-100,4,2,1,70,0,0
73136,-200,4,2,1,70,0,0
73666,-200,4,2,1,30,0,0
83372,-133.333333333333,4,2,1,40,0,0
84430,-133.333333333333,4,2,1,70,0,0
84783,-100,4,2,1,70,0,1
107372,-100,4,2,1,70,0,0

[Colours]
Combo1 : 255,192,0
Combo2 : 0,202,0
Combo3 : 18,124,255
Combo4 : 242,24,57

[HitObjects]
272,336,5725,6,0,L|292:200,1,135.000005149842,0|2,1:0|0:1,0:0:0:0:
396,168,6254,2,0,P|412:124|408:32,1,135.000005149842,0|2,1:0|0:1,0:0:0:0:
168,144,7313,6,0,L|96:140,1,67.5000025749208,0|2,1:0|0:1,0:0:0:0:
120,224,7666,2,0,P|104:284|120:356,1,135.000005149842,0|0,1:0|0:0,0:0:0:0:
208,288,8195,2,0,L|272:264,1,67.5000025749208,2|2,0:1|0:1,0:0:0:0:
352,220,8548,6,0,P|364:144|344:84,1,135.000005149842,0|2,1:0|0:1,0:0:0:0:
272,264,9077,2,0,P|328:308|400:300,1,135.000005149842,0|2,1:0|0:1,0:0:0:0:
316,128,10136,6,0,L|332:60,2,67.5000025749208,0|2|0,1:0|0:1|1:0,0:0:0:0:
144,208,11019,2,0,L|168:280,1,67.5000025749208,2|2,0:1|0:1,0:0:0:0:
256,304,11372,6,0,P|304:308|376:260,1,135.000005149842,0|2,1:0|0:1,0:0:0:0:
380,172,11901,2,0,L|388:32,1,135.000005149842,0|2,1:0|0:1,0:0:0:0:
184,156,12960,6,0,P|156:180|144:216,1,67.5000025749208,0|2,1:0|0:1,0:0:0:0:
260,180,13313,2,0,P|252:108|196:76,1,135.000005149842,0|0,1:0|0:0,0:0:0:0:
112,80,13842,2,0,P|76:64|56:40,1,67.5000025749208,2|2,0:1|0:1,0:0:0:0:
48,152,14195,6,0,L|72:288,1,135.000005149842,0|8,3:0|0:0,0:0:0:0:
144,352,14724,2,0,P|192:356|284:316,1,135.000005149842,0|8,3:0|0:0,0:0:0:0:
296,232,15254,2,0,L|372:244,1,67.5000025749208
432,304,15607,6,0,L|428:348,4,33.7500012874604,6|2|2|2|0,1:0|0:1|0:1|0:1|0:0,0:0:0:0:
448,204,16136,1,0,1:0:0:0:
372,136,16313,1,2,0:1:0:0:
352,128,16401,1,2,0:1:0:0:
332,120,16489,1,2,0:1:0:0:
240,148,16666,1,2,0:1:0:0:
220,140,16754,1,2,0:1:0:0:
200,132,16842,1,8,0:0:0:0:
180,136,16930,1,8,0:0:0:0:
160,144,17019,6,0,P|136:184|132:228,1,90,4|0,1:2|0:0,0:0:0:0:
176,312,17372,1,8,0:0:0:0:
260,268,17548,2,0,P|308:264|356:280,1,90
428,340,17901,1,8,0:0:0:0:
428,236,18077,2,0,L|444:140,1,90,0|0,1:0|0:0,0:0:0:0:
464,52,18430,5,0,1:0:0:0:
348,76,18607,1,0,1:0:0:0:
324,72,18695,1,0,1:0:0:0:
304,68,18783,1,8,0:0:0:0:
184,48,18960,2,0,L|96:68,1,90,0|0,1:0|0:0,0:0:0:0:
40,232,19313,6,0,L|128:212,1,90,0|8,1:0|0:0,0:0:0:0:
148,188,19577,2,0,P|184:168|236:168,1,90
260,180,19842,6,0,L|352:196,1,90,0|0,1:0|0:0,0:0:0:0:
460,168,20195,1,8,0:0:0:0:
364,352,20372,2,0,L|428:280,1,90,0|0,1:0|0:0,0:0:0:0:
376,80,20724,1,8,0:0:0:0:
272,32,20901,2,0,L|184:48,1,90,0|0,1:0|0:0,0:0:0:0:
44,232,21254,5,0,1:0:0:0:
196,164,21430,1,0,1:0:0:0:
228,172,21519,1,0,1:0:0:0:
260,180,21607,1,8,0:0:0:0:
384,284,21783,2,0,L|472:268,1,90,0|0,1:0|0:0,0:0:0:0:
320,336,22136,6,0,P|276:340|232:328,1,90,0|8,1:0|0:0,0:0:0:0:
208,308,22401,2,0,L|120:288,1,90,0|0,1:0|0:0,0:0:0:0:
100,264,22666,6,0,P|88:220|96:176,1,90,0|0,1:0|0:0,0:0:0:0:
160,76,23019,1,8,0:0:0:0:
260,180,23195,2,0,L|352:168,1,90,0|0,1:0|0:0,0:0:0:0:
428,88,23548,1,8,0:0:0:0:
484,192,23724,2,0,P|484:240|468:280,1,90,0|0,1:0|0:0,0:0:0:0:
360,340,24077,5,0,1:0:0:0:
256,280,24254,1,0,1:0:0:0:
228,292,24342,1,0,1:0:0:0:
200,304,24430,1,8,0:0:0:0:
100,352,24607,2,0,L|16:316,1,90,0|0,1:0|0:0,0:0:0:0:
16,180,24960,6,0,P|32:132|68:104,1,90,0|8,1:0|0:0,0:0:0:0:
92,104,25224,2,0,L|164:44,1,90,0|0,1:0|0:0,0:0:0:0:
188,60,25489,6,0,P|232:44|284:48,1,90,0|0,1:0|0:0,0:0:0:0:
364,112,25842,1,8,0:0:0:0:
272,176,26019,2,0,P|264:224|272:264,1,90,0|0,1:0|0:0,0:0:0:0:
376,328,26372,1,8,0:0:0:0:
472,260,26548,2,0,P|480:212|472:172,1,90,0|0,1:0|0:0,0:0:0:0:
364,112,26901,5,0,1:0:0:0:
336,96,26989,1,0,0:0:0:0:
304,88,27077,1,0,1:0:0:0:
272,92,27166,1,0,1:0:0:0:
244,108,27254,2,0,L|208:136,3,45,8|0|0|0,0:0|0:0|1:0|0:0,0:0:0:0:
164,200,27607,2,0,L|116:184,3,45,0|0|0|0,0:0|0:0|1:0|0:0,0:0:0:0:
60,136,27960,2,0,L|24:164,2,45,8|0|0,0:0|1:0|0:0,0:0:0:0:
152,76,28313,6,0,P|164:168|152:260,1,180,4|8,1:2|0:0,0:0:0:0:
68,344,28842,2,0,L|160:336,1,90,0|0,1:0|0:0,0:0:0:0:
256,268,29195,1,8,0:0:0:0:
352,344,29372,2,0,L|376:256,1,90,0|0,1:0|0:0,0:0:0:0:
304,64,29724,5,0,1:0:0:0:
400,184,29901,1,0,1:0:0:0:
408,152,29989,1,0,1:0:0:0:
416,120,30077,1,8,0:0:0:0:
440,288,30254,2,0,P|472:328|508:344,1,90,0|0,1:0|0:0,0:0:0:0:
352,344,30607,6,0,L|264:328,1,90,0|8,1:0|0:0,0:0:0:0:
232,332,30872,2,0,P|184:332|148:308,1,90,0|0,1:0|0:0,0:0:0:0:
124,296,31136,6,0,P|104:256|100:208,1,90,0|0,1:0|0:0,0:0:0:0:
160,40,31489,1,8,0:0:0:0:
256,180,31666,1,0,0:0:0:0:
212,112,32019,6,0,P|176:128|144:128,2,67.5,2|2|2,0:1|0:1|0:1,0:0:0:0:
300,112,32416,2,0,P|336:128|368:128,2,67.5,2|2|2,0:1|0:1|0:1,0:0:0:0:
256,180,32813,2,0,L|256:224,1,45,2|8,0:1|0:0,0:0:0:0:
340,336,33077,6,0,P|388:344|432:332,1,90,0|0,1:0|0:0,0:0:0:0:
256,264,33430,2,0,L|160:264,1,90,0|8,1:0|0:0,0:0:0:0:
136,256,33695,2,0,P|92:248|44:260,1,90,0|0,1:0|0:0,0:0:0:0:
32,284,33960,6,0,L|76:104,1,180,0|8,1:0|0:0,0:0:0:0:
208,96,34489,2,0,L|196:52,1,45,0|0,1:0|0:0,0:0:0:0:
208,96,34842,1,8,0:0:0:0:
312,52,35019,2,0,P|360:48|408:72,1,90,0|0,1:0|0:0,0:0:0:0:
472,152,35372,5,0,1:0:0:0:
372,240,35548,1,0,1:0:0:0:
340,232,35636,1,0,1:0:0:0:
308,224,35724,1,8,0:0:0:0:
200,304,35901,2,0,L|120:344,1,90,0|0,1:0|0:0,0:0:0:0:
220,224,36254,6,0,P|216:176|192:144,1,90,0|8,1:0|0:0,0:0:0:0:
160,132,36519,2,0,L|120:48,1,90,0|0,1:0|0:0,0:0:0:0:
96,36,36783,5,0,1:0:0:0:
188,112,36960,1,2,0:0:0:0:
126,180,37136,5,8,0:0:0:0:
244,200,37313,1,2,1:2:0:0:
223,285,37489,5,0,0:0:0:0:
336,244,37666,1,10,0:0:0:0:
363,331,37842,5,0,1:0:0:0:
439,239,38019,1,2,0:0:0:0:
432,108,38195,5,0,1:0:0:0:
324,164,38372,1,2,1:2:0:0:
312,136,38460,1,0,1:0:0:0:
300,108,38548,1,8,0:0:0:0:
200,184,38724,2,0,L|112:216,1,90,2|0,1:2|0:0,0:0:0:0:
112,352,39077,5,2,1:2:0:0:
224,284,39254,1,0,0:0:0:0:
252,264,39342,2,0,P|300:256|344:272,1,90,0|0,1:0|0:0,0:0:0:0:
364,296,39607,6,0,L|464:292,1,90,6|2,1:2|0:3,0:0:0:0:
504,168,39960,1,8,0:0:0:0:
388,116,40136,2,0,P|340:108|300:116,1,90,2|0,1:2|0:0,0:0:0:0:
444,52,40489,2,0,P|348:28|252:44,1,180,10|2,0:0|0:3,0:0:0:0:
268,38,41195,5,0,1:0:0:0:
316,128,41372,2,0,L|360:208,1,90,10|0,0:0|1:0,0:0:0:0:
212,128,41724,2,0,L|168:208,1,90,2|0,0:0|0:0,0:0:0:0:
168,40,42077,2,0,L|76:44,1,90,10|8,0:0|0:0,0:0:0:0:
96,260,42430,6,0,P|132:288|192:292,2,90,2|2|8,1:2|0:3|0:0,0:0:0:0:
264,284,42960,2,0,L|364:288,2,90,2|0|8,1:2|0:0|0:0,0:0:0:0:
264,284,43666,2,0,P|248:224|260:152,1,135,2|0,1:3|0:0,0:0:0:0:
280,124,44019,5,2,1:2:0:0:
280,124,44195,2,0,P|292:80|284:36,1,90,10|0,0:0|1:0,0:0:0:0:
184,268,44548,2,0,L|360:212,1,180,2|8,0:0|0:0,0:0:0:0:
400,100,45077,1,8,0:0:0:0:
200,84,45254,6,0,P|152:80|108:96,1,90,2|2,1:2|0:3,0:0:0:0:
48,172,45607,1,8,0:0:0:0:
184,268,45783,2,0,P|184:212|168:180,2,90,2|2|8,1:2|0:0|0:0,0:0:0:0:
168,280,46489,2,0,L|144:320,3,45,2|0|0|0,0:3|0:0|0:0|0:0,0:0:0:0:
116,328,46842,5,0,1:0:0:0:
260,264,47019,2,0,P|304:260|348:276,1,90,10|2,0:0|0:3,0:0:0:0:
448,352,47372,2,0,L|436:260,1,90,2|0,0:0|0:0,0:0:0:0:
368,172,47724,1,8,0:0:0:0:
416,72,47901,1,8,0:0:0:0:
260,176,48077,5,0,1:0:0:0:
184,88,48254,1,2,0:3:0:0:
152,196,48430,2,0,L|80:252,1,90,10|2,0:0|1:2,0:0:0:0:
152,196,48960,1,8,0:0:0:0:
192,296,49136,2,0,P|232:324|276:324,1,90,2|2,0:0|0:3,0:0:0:0:
368,284,49489,6,0,L|460:280,1,90,2|0,0:0|1:0,0:0:0:0:
492,168,49842,2,0,P|492:116|476:80,1,90,8|2,0:0|1:3,0:0:0:0:
304,216,50195,2,0,P|280:308|340:372,1,180,2|8,0:0|0:0,0:0:0:0:
408,220,50724,1,8,0:0:0:0:
264,124,50901,6,0,L|72:104,1,180,6|8,1:2|0:0,0:0:0:0:
160,224,51430,2,0,P|128:260|120:308,1,90,2|0,1:2|0:0,0:0:0:0:
256,216,51783,2,0,P|324:192|352:96,1,180,10|2,0:0|0:3,0:0:0:0:
352,96,52489,6,0,L|280:40,1,90,2|8,1:2|0:0,0:0:0:0:
200,72,52842,2,0,L|187:162,1,90,2|0,1:3|0:0,0:0:0:0:
256,216,53195,2,0,L|340:181,1,90,2|8,0:0|0:0,0:0:0:0:
352,96,53548,1,10,0:0:0:0:
412,236,53724,6,0,P|424:276|416:324,2,90,2|2|8,1:2|0:3|0:0,0:0:0:0:
252,292,54254,2,0,L|348:284,2,90,2|0|8,1:2|0:0|0:0,0:0:0:0:
156,336,54783,1,0,0:0:0:0:
160,232,54960,2,0,L|128:144,1,90,2|0,1:3|0:0,0:0:0:0:
52,60,55313,5,2,1:2:0:0:
84,64,55489,1,10,0:0:0:0:
116,76,55666,1,2,1:2:0:0:
148,80,55842,1,2,0:0:0:0:
180,92,56019,1,2,0:0:0:0:
212,96,56195,2,2,P|256:88|292:60,1,90,10|10,0:0|0:0,0:0:0:0:
292,164,56548,6,0,L|276:344,1,180,2|8,1:2|0:0,0:0:0:0:
380,308,57077,1,2,1:2:0:0:
448,240,57254,2,0,P|456:192|452:152,1,90,2|8,0:0|0:0,0:0:0:0:
452,152,57783,6,0,L|460:56,1,90,2|0,0:3|0:0,0:0:0:0:
348,112,58136,2,0,L|355:22,1,90,0|8,1:0|0:0,0:0:0:0:
248,40,58489,1,0,1:0:0:0:
268,136,58666,6,0,L|296:188,2,60,2|2|2,0:0|0:0|0:0,0:0:0:0:
216,208,59019,2,0,P|248:256|292:268,1,90,2|2,0:0|0:0,0:0:0:0:
176,124,59372,6,0,P|132:112|84:124,1,90,2|2,1:2|0:3,0:0:0:0:
32,212,59724,1,8,0:0:0:0:
88,304,59901,2,0,L|196:316,1,90,2|0,1:2|0:0,0:0:0:0:
280,352,60254,1,8,0:0:0:0:
364,260,60430,2,0,P|368:216|352:168,1,90,2|2,0:0|0:3,0:0:0:0:
256,100,60783,6,0,L|256:8,2,90,2|0|8,0:0|1:0|0:0,0:0:0:0:
256,200,61313,1,0,1:0:0:0:
176,264,61489,2,0,P|168:316|180:360,1,90,2|0,0:0|0:0,0:0:0:0:
336,348,61842,2,0,P|344:304|335:260,1,90,8|8,0:0|0:0,0:0:0:0:
256,100,62195,1,4,1:0:0:0:
256,192,70666,12,0,72960,0:0:0:0:
168,324,73136,6,2,L|160:296,1,22.5,2|2,0:1|0:1,0:0:0:0:
160,268,73313,2,2,L|152:240,1,22.5,2|2,0:1|0:1,0:1:0:0:
152,212,73489,1,0,1:0:0:0:
100,144,73666,6,0,P|144:128|192:136,1,90,2|2,0:0|0:0,0:0:0:0:
256,200,74372,2,0,P|260:248|256:296,1,90,2|2,0:0|0:0,0:0:0:0:
68,320,75077,2,0,P|65:275|68:230,1,90,2|2,0:0|0:0,0:0:0:0:
100,144,75783,2,0,P|102:99|99:54,1,90,2|2,0:0|0:0,0:0:0:0:
176,108,76313,5,0,0:0:0:0:
204,24,76489,2,0,P|252:20|296:24,1,90,2|2,0:0|0:0,0:0:0:0:
376,56,77195,2,0,P|424:60|468:56,1,90,2|2,0:0|0:0,0:0:0:0:
424,144,77901,2,0,P|420:196|428:240,1,90,2|2,0:0|0:0,0:0:0:0:
480,324,78607,2,0,P|436:316|388:320,1,90,2|2,0:0|0:0,0:0:0:0:
316,352,79136,5,0,0:0:0:0:
304,272,79313,2,0,L|300:176,1,90,2|2,0:0|0:0,0:0:0:0:
204,84,80019,2,0,L|208:180,1,90,2|2,0:0|0:0,0:0:0:0:
144,320,80724,2,0,L|140:224,1,90,2|2,0:0|0:0,0:0:0:0:
44,56,81430,2,0,L|48:152,1,90,2|2,0:0|0:0,0:0:0:0:
64,224,81960,5,0,0:0:0:0:
140,230,82136,2,0,P|188:240|232:232,1,90,2|2,0:0|0:0,0:0:0:0:
276,136,82842,2,0,P|228:126|184:134,1,90,2|2,0:0|0:0,0:0:0:0:
304,256,83372,6,0,L|304:208,2,45.0000017166138,2|2|2,0:0|0:0|0:0,0:0:0:0:
376,168,83724,2,0,L|376:120,2,45.0000017166138,2|2|2,0:0|0:0|0:0,0:0:0:0:
276,136,84077,2,0,L|276:88,2,45.0000017166138,2|2|2,0:0|0:0|0:0,0:0:0:0:
192,80,84430,1,2,0:1:0:0:
176,76,84519,1,2,0:1:0:0:
160,72,84607,1,2,0:1:0:0:
144,68,84695,1,2,0:1:0:0:
128,64,84783,6,0,L|28:68,1,90,6|2,1:2|0:3,0:0:0:0:
24,200,85136,1,8,0:0:0:0:
124,268,85313,2,0,P|172:276|212:268,1,90,2|0,1:2|0:0,0:0:0:0:
68,332,85666,2,0,P|164:356|260:340,1,180,10|2,0:0|0:3,0:0:0:0:
244,346,86372,5,0,1:0:0:0:
196,256,86548,2,0,L|152:176,1,90,10|0,0:0|1:0,0:0:0:0:
343,177,86901,2,0,L|300:256,1,90,2|0,0:0|0:0,0:0:0:0:
344,344,87254,2,0,L|436:340,1,90,10|8,0:0|0:0,0:0:0:0:
416,124,87607,6,0,P|380:96|320:92,2,90,2|2|8,1:2|0:3|0:0,0:0:0:0:
248,100,88136,2,0,L|148:96,2,90,2|0|8,1:2|0:0|0:0,0:0:0:0:
248,100,88842,2,0,P|264:160|252:232,1,135,2|0,1:3|0:0,0:0:0:0:
232,260,89195,5,2,1:2:0:0:
232,260,89372,2,0,P|220:304|228:348,1,90,10|0,0:0|1:0,0:0:0:0:
328,116,89724,2,0,L|152:172,1,180,2|8,0:0|0:0,0:0:0:0:
112,284,90254,1,8,0:0:0:0:
312,300,90430,6,0,P|360:304|404:288,1,90,2|2,1:2|0:3,0:0:0:0:
464,212,90783,1,8,0:0:0:0:
328,116,90960,2,0,P|328:172|344:204,2,90,2|2|8,1:2|0:0|0:0,0:0:0:0:
464,212,91666,1,2,0:3:0:0:
396,56,92019,5,0,1:0:0:0:
252,120,92195,2,0,P|208:124|164:108,1,90,10|2,0:0|0:3,0:0:0:0:
64,32,92548,2,0,L|76:124,1,90,2|0,0:0|0:0,0:0:0:0:
144,212,92901,1,8,0:0:0:0:
96,312,93077,1,8,0:0:0:0:
328,296,93254,5,0,1:0:0:0:
252,208,93430,1,2,0:3:0:0:
360,188,93607,2,0,L|432:132,1,90,10|2,0:0|1:2,0:0:0:0:
360,188,94136,1,8,0:0:0:0:
320,88,94313,2,0,P|280:60|236:60,1,90,2|2,0:0|0:3,0:0:0:0:
144,100,94666,6,0,L|52:104,1,90,2|0,0:0|1:0,0:0:0:0:
20,216,95019,2,0,P|20:268|36:304,1,90,8|2,0:0|1:3,0:0:0:0:
208,168,95372,2,0,P|232:76|172:12,1,180,2|8,0:0|0:0,0:0:0:0:
104,164,95901,1,8,0:0:0:0:
248,260,96077,6,0,L|440:280,1,180,6|8,1:2|0:0,0:0:0:0:
352,160,96607,2,0,P|384:124|392:76,1,90,2|0,1:2|0:0,0:0:0:0:
256,168,96960,2,0,P|188:192|160:288,1,180,10|2,0:0|0:3,0:0:0:0:
160,288,97666,6,0,L|232:344,1,90,2|8,1:2|0:0,0:0:0:0:
364,348,98019,2,0,L|292:292,1,90,2|0,1:2|0:0,0:0:0:0:
256,168,98372,2,0,L|328:224,1,90,2|8,0:0|0:0,0:0:0:0:
160,288,98724,1,10,0:0:0:0:
100,148,98901,6,0,P|88:108|96:60,2,90,2|2|8,1:2|0:3|0:0,0:0:0:0:
260,92,99430,2,0,L|164:100,2,90,2|0|8,1:2|0:0|0:0,0:0:0:0:
356,48,99960,1,0,0:0:0:0:
460,76,100136,2,0,L|492:164,1,90,2|0,1:3|0:0,0:0:0:0:
460,324,100489,5,2,1:2:0:0:
452,240,100666,1,10,0:0:0:0:
388,300,100842,1,2,1:2:0:0:
376,216,101019,1,2,0:0:0:0:
316,272,101195,1,2,0:0:0:0:
300,192,101372,2,2,P|260:212|236:256,1,90,10|10,0:0|0:0,0:0:0:0:
136,340,101724,6,0,L|152:160,1,180,2|8,1:2|0:0,0:0:0:0:
68,92,102254,1,2,1:2:0:0:
32,188,102430,2,0,P|24:236|28:276,1,90,2|8,0:0|0:0,0:0:0:0:
28,276,102960,5,2,0:3:0:0:
244,248,103313,1,0,1:0:0:0:
204,352,103489,1,8,0:0:0:0:
304,344,103666,1,0,1:0:0:0:
244,248,103842,6,0,L|216:196,2,60,2|2|2,0:0|0:0|0:0,0:0:0:0:
296,184,104195,2,0,P|340:176|388:192,1,90,2|2,0:0|0:0,0:0:0:0:
336,260,104548,6,0,P|380:272|428:260,1,90,2|0,1:2|0:0,0:0:0:0:
480,172,104901,1,8,0:0:0:0:
424,80,105077,2,0,L|316:68,1,90,2|0,1:2|0:0,0:0:0:0:
232,32,105430,1,8,0:0:0:0:
148,124,105607,2,0,P|144:168|160:216,1,90,2|0,0:0|0:0,0:0:0:0:
256,284,105960,6,0,L|256:376,2,90,2|0|8,0:0|1:0|0:0,0:0:0:0:
256,184,106489,1,0,1:0:0:0:
336,120,106666,2,0,P|344:68|332:24,1,90,2|0,0:0|0:0,0:0:0:0:
176,36,107019,2,0,P|168:80|177:124,1,90,8|8,0:0|0:0,0:0:0:0:
256,284,107372,5,4,1:2:0:0:
336,224,107548,2,0,L|428:232,1,90,2|8,0:0|0:0,0:0:0:0:
436,340,107901,2,0,L|344:332,1,90,2|0,0:0|1:0,0:0:0:0:
212,232,108254,2,0,L|304:240,1,90,2|8,0:0|0:0,0:0:0:0:
252,356,108607,5,2,0:0:0:0:
252,356,108695,1,2,0:0:0:0:
252,356,108783,1,0,1:0:0:0:
152,312,108960,2,0,L|64:280,1,90,2|8,0:0|0:0,0:0:0:0:
212,232,109313,2,0,L|180:132,1,90,2|0,0:0|1:0,0:0:0:0:
308,260,109666,2,0,L|356:180,1,90,2|8,0:0|0:0,0:0:0:0:
416,76,110019,6,0,L|416:32,2,45,2|2|0,0:0|0:0|1:0,0:0:0:0:
476,140,110372,2,0,L|476:232,1,90,2|8,0:0|0:0,0:0:0:0:
308,260,110724,2,0,L|308:164,1,90,2|0,0:0|1:0,0:0:0:0:
460,256,111077,2,0,L|460:348,1,90,2|8,0:0|0:0,0:0:0:0:
296,348,111430,5,2,0:0:0:0:
296,348,111519,1,2,0:0:0:0:
296,348,111607,1,0,1:0:0:0:
196,336,111783,2,0,P|164:300|152:260,1,90,2|8,0:0|0:0,0:0:0:0:
184,164,112136,1,2,0:0:0:0:
256,64,112313,5,2,1:2:0:0:
264,68,112489,1,2,0:0:0:0:
256,72,112666,1,10,0:0:0:0:
248,68,112842,1,10,0:0:0:0:
256,60,113019,5,0,1:0:0:0:
356,80,113195,2,0,L|412:152,1,90,2|8,0:0|0:0,0:0:0:0:
344,248,113548,2,0,L|288:176,1,90,2|0,0:0|1:0,0:0:0:0:
444,156,113901,2,0,L|500:228,1,90,2|8,0:0|0:0,0:0:0:0:
432,316,114254,5,2,0:0:0:0:
432,316,114342,1,2,0:0:0:0:
432,316,114430,1,0,1:0:0:0:
296,328,114607,2,0,L|196:336,1,90,2|8,0:0|0:0,0:0:0:0:
124,244,114960,2,0,L|220:244,1,90,2|0,0:0|1:0,0:0:0:0:
296,160,115313,2,0,L|196:152,1,90,2|8,0:0|0:0,0:0:0:0:
92,104,115666,6,0,L|76:60,2,45,2|2|0,0:0|0:0|1:0,0:0:0:0:
40,192,116019,2,0,L|56:284,1,90,2|8,0:0|0:0,0:0:0:0:
188,312,116372,2,0,L|172:220,1,90,2|0,0:0|1:0,0:0:0:0:
28,296,116724,2,0,L|44:388,1,90,2|8,0:0|0:0,0:0:0:0:
188,312,117077,5,2,0:0:0:0:
188,312,117166,1,2,0:0:0:0:
188,312,117254,2,0,P|232:292|280:296,1,90,2|2,1:2|0:0,0:0:0:0:
356,352,117607,1,2,0:3:0:0:
356,236,117783,1,2,0:0:0:0:
368,208,117872,1,2,0:3:0:0:
380,180,117960,1,2,0:0:0:0:
392,152,118048,1,2,0:0:0:0:
404,124,118136,1,2,0:0:0:0:
312,56,118313,2,0,B|256:24|196:84|136:48,1,180,2|4,0:3|1:0,0:0:0:0:
256,192,118754,12,0,124313,0:0:0:0:
