osu file format v12

[General]
AudioFilename: Hatsune Miku - Silent Night.mp3
AudioLeadIn: 0
PreviewTime: 50448
Countdown: 0
SampleSet: Soft
StackLeniency: 0.7
Mode: 0
LetterboxInBreaks: 0
WidescreenStoryboard: 1

[Editor]
Bookmarks: 7412
DistanceSpacing: 1.1
BeatDivisor: 4
GridSize: 4

[Metadata]
Title:SilentNight
TitleUnicode:SilentNight
Artist:enameruP
ArtistUnicode:エナメルP
Creator:Gabe
Version:Normal
Source:
Tags:Hatsune Miku enamerup Vocaloid Christmas Holy Silent Night 初音ミク enameru-P
BeatmapID:332913
BeatmapSetID:132374

[Difficulty]
HPDrainRate:3
CircleSize:4
OverallDifficulty:3
ApproachRate:4
SliderMultiplier:1.3
SliderTickRate:1

[Events]
//Background and Video events
0,0,"BG.jpg",0,0
//Break Periods
//Storyboard Layer 0 (Background)
//Storyboard Layer 1 (Fail)
//Storyboard Layer 2 (Pass)
//Storyboard Layer 3 (Foreground)
//Storyboard Sound Samples
//Background Colour Transformations
3,100,163,162,255

[TimingPoints]
198,600,3,2,1,40,1,0
36198,-100,3,2,1,40,0,1
36273,-100,3,2,1,40,0,0
63798,-100,3,2,1,30,0,0
64398,-100,3,2,1,20,0,0
64998,-100,3,2,1,40,0,0
79398,-100,3,2,1,40,0,1
79473,-100,3,2,1,40,0,0
91998,-100,3,2,1,30,0,1
92073,-100,3,2,1,40,0,0

[Colours]
Combo1 : 238,87,87
Combo2 : 19,104,174
Combo3 : 40,137,255
Combo4 : 237,14,48

[HitObjects]
52,16,7398,2,0,B|-16:80|103:201|39:261,1,260,2|0,2:3|0:0,0:0:0:0:
140,360,9198,2,0,B|204:291|325:411|385:347,1,260,2|0,0:0|0:0,0:0:0:0:
468,228,10998,6,0,B|428:210|393:224|375:246|375:246|304:184,1,195,2|0,0:3|0:0,0:0:0:0:
256,132,12198,1,0,0:0:0:0:
120,88,12798,2,0,P|54:192|120:296,1,260,2|0,0:0|0:0,0:0:0:0:
256,252,14598,6,0,L|400:252,1,130,2|0,3:0|0:0,0:0:0:0:
512,192,15798,1,0,0:0:0:0:
386,132,16398,2,0,L|256:132,1,130,2|0,0:0|0:0,0:0:0:0:
184,132,17298,2,0,P|152:108|143:85,2,65
212,68,18198,6,0,P|172:20|86:40,1,130,2|0,3:0|0:0,0:0:0:0:
0,116,19398,1,0,0:0:0:0:
140,88,19998,2,0,L|140:220,1,130,2|0,0:0|0:0,0:0:0:0:
124,288,20898,1,0,0:0:0:0:
192,268,21198,2,0,P|224:272|252:288,1,65
296,344,21798,6,0,P|412:312|420:184,1,260,2|0,3:0|0:0,0:0:0:0:
344,72,23598,2,0,B|256:116|256:116|168:72,1,195,2|0,0:0|0:0,0:0:0:0:
108,36,24798,1,0,0:0:0:0:
12,140,25398,6,0,P|60:192|116:184,1,130,2|0,3:0|0:0,0:0:0:0:
180,156,26298,1,0,0:0:0:0:
224,212,26598,2,0,B|256:224|288:212,1,65
352,180,27198,2,0,P|354:241|305:282,2,130,2|0|0,0:0|0:0|0:0,0:0:0:0:
256,68,28998,6,0,P|188:72|148:28,1,130,2|0,3:0|0:0,0:0:0:0:
8,52,30198,1,0,0:0:0:0:
84,168,30798,2,0,P|88:236|44:276,2,130,2|0|0,0:0|0:0|0:0,0:0:0:0:
8,48,32598,6,0,B|64:12|132:48|132:48|204:88|252:48,1,260,2|0,3:0|0:0,0:0:0:0:
324,32,34098,1,0,0:0:0:0:
392,52,34398,2,0,B|424:96|388:136|388:136|412:172|388:208|388:208|424:248|392:292,1,260,2|0,0:0|0:0,0:0:0:0:
268,352,36198,6,0,P|168:352|72:364,1,195,2|0,3:0|0:0,0:0:0:0:
12,328,37398,1,2,0:0:0:0:
76,200,37998,2,0,P|72:108|80:72,1,130,2|0,0:0|0:0,0:0:0:0:
140,32,38898,2,0,L|212:36,1,65
296,144,39798,22,0,B|356:96|460:208|384:308|332:316|288:280|296:356,1,325,2|0,3:0|0:0,0:0:0:0:
216,354,41598,2,0,B|224:280|180:316|128:308|52:208|156:96|216:144,1,325,2|0,3:0|0:0,0:0:0:0:
276,184,43398,38,0,P|340:184|400:152,2,130,2|0|0,3:0|0:0|0:0,0:0:0:0:
192,68,45198,2,0,P|102:60|80:147,1,195,2|0,0:0|0:0,0:0:0:0:
143,117,46398,1,0,0:0:0:0:
256,192,46998,12,0,49998,0:0:0:0:
464,336,50598,6,0,B|396:264|524:164|456:92,1,260,2|0,3:0|0:0,0:0:0:0:
328,28,52398,2,0,P|256:116|184:28,1,260,2|0,0:0|0:0,0:0:0:0:
56,92,54198,6,0,B|-12:164|116:264|48:336,1,260,2|0,3:0|0:0,0:0:0:0:
184,380,55998,2,0,B|209:338|201:298|201:298|212:256,1,130,2|0,0:0|0:0,0:0:0:0:
256,200,56898,2,0,L|256:120,2,65
300,256,57798,6,0,B|311:298|311:298|303:338|328:380,1,130,2|0,3:0|0:0,0:0:0:0:
452,308,58998,1,0,0:0:0:0:
408,172,59598,2,0,L|408:40,1,130,2|0,0:0|0:0,0:0:0:0:
344,8,60498,1,0,0:0:0:0:
280,40,60798,2,0,P|241:48|207:36,1,65
152,16,61398,6,0,P|120:68|128:140,1,130,2|0,3:0|0:0,0:0:0:0:
256,192,62598,1,0,0:0:0:0:
386,248,63198,2,0,P|392:312|360:368,2,130,2|0|0,0:0|0:0|0:0,0:0:0:0:
256,192,64998,6,0,L|124:192,1,130,2|0,3:0|0:0,0:0:0:0:
56,192,65898,1,0,0:0:0:0:
92,132,66198,2,0,L|92:40,1,65
140,12,66798,2,0,B|164:36|164:72|164:72|216:24|292:60,1,195,2|0,0:0|0:0,0:0:0:0:
344,92,67998,1,0,0:0:0:0:
448,188,68598,6,0,B|424:256|492:296|492:296|464:356,1,195,2|0,3:0|0:0,0:0:0:0:
404,316,69798,2,0,P|374:259|372:192,2,130,0|2|0,0:0|0:0|0:0,0:0:0:0:
448,188,71598,1,0,0:0:0:0:
340,96,72198,6,0,P|255:178|172:96,1,260,2|0,3:0|0:0,0:0:0:0:
44,32,73998,2,0,B|12:92|44:156|44:156|44:240,1,195,2|0,0:0|0:0,0:0:0:0:
56,292,75198,2,0,P|72:320|108:336,1,65
168,360,75798,6,0,P|228:368|284:328,1,130,2|0,3:0|0:0,0:0:0:0:
196,216,76998,2,0,L|196:84,2,130,0|2|0,0:0|0:0|0:0,0:0:0:0:
168,360,78798,1,0,0:0:0:0:
320,352,79398,6,0,P|436:316|444:192,1,260,2|2,3:0|0:0,0:0:0:0:
304,152,81198,2,0,P|276:208|300:268,1,130,2|0,0:0|0:0,0:0:0:0:
352,212,82098,1,0,0:0:0:0:
352,212,82398,1,0,0:0:0:0:
368,68,82998,6,0,B|284:80|256:24|256:24|228:80|144:68,1,260,2|0,3:0|0:0,0:0:0:0:
4,36,84798,2,0,L|4:180,2,130,2|0|0,0:0|0:0|0:0,0:0:0:0:
80,152,86598,6,0,P|68:216|8:248,1,130,2|0,3:0|0:0,0:0:0:0:
64,380,87798,1,0,0:0:0:0:
193,322,88398,2,0,B|248:248|144:144|197:71,1,260,2|0,0:0|0:0,0:0:0:0:
312,160,90198,6,0,L|339:218,2,65,2|2|2,0:0|0:0|0:0,0:0:0:0:
333,92,91098,2,0,L|305:33,2,65,0|2|0,0:0|0:0|0:0,0:0:0:0:
399,119,91998,1,6,0:0:0:0:
