osu file format v12

[General]
AudioFilename: Hatsune Miku - Silent Night.mp3
AudioLeadIn: 0
PreviewTime: 50448
Countdown: 0
SampleSet: Soft
StackLeniency: 0.7
Mode: 0
LetterboxInBreaks: 0
WidescreenStoryboard: 1

[Editor]
Bookmarks: 7412
DistanceSpacing: 0.9
BeatDivisor: 4
GridSize: 4

[Metadata]
Title:SilentNight
TitleUnicode:SilentNight
Artist:enameruP
ArtistUnicode:エナメルP
Creator:Gabe
Version:Hard
Source:
Tags:Hatsune Miku enamerup Vocaloid Christmas Holy Silent Night 初音ミク enameru-P
BeatmapID:332912
BeatmapSetID:132374

[Difficulty]
HPDrainRate:6
CircleSize:5
OverallDifficulty:6
ApproachRate:7
SliderMultiplier:1.6
SliderTickRate:1

[Events]
//Background and Video events
0,0,"BG.jpg",0,0
//Break Periods
//Storyboard Layer 0 (Background)
//Storyboard Layer 1 (Fail)
//Storyboard Layer 2 (Pass)
//Storyboard Layer 3 (Foreground)
//Storyboard Sound Samples
//Background Colour Transformations
3,100,163,162,255

[TimingPoints]
198,600,3,2,1,40,1,0
36198,-100,3,2,1,40,0,1
36273,-100,3,2,1,40,0,0
79398,-100,3,2,1,40,0,1
79473,-100,3,2,1,40,0,0
91998,-100,3,2,1,30,0,1
92073,-100,3,2,1,40,0,0

[Colours]
Combo1 : 238,87,87
Combo2 : 19,104,174
Combo3 : 40,137,255
Combo4 : 237,14,48

[HitObjects]
88,40,7398,6,0,B|24:100|136:212|76:268,1,240,2|0,2:3|0:0,0:0:0:0:
8,290,8598,2,0,P|55:336|139:304,1,160,0|2,0:0|0:0,0:0:0:0:
160,240,9498,1,0,0:0:0:0:
216,192,9798,1,0,0:0:0:0:
256,252,10098,1,0,0:0:0:0:
296,192,10398,1,0,0:0:0:0:
352,240,10698,1,0,0:0:0:0:
404,292,10998,6,0,B|452:240|452:240|460:152,1,160,2|0,2:3|0:0,0:0:0:0:
464,80,11898,1,0,0:0:0:0:
396,108,12198,2,0,L|388:187,1,80
320,88,12798,2,0,P|256:129|192:88,1,160,2|0,0:0|0:0,0:0:0:0:
256,55,13698,1,0,0:0:0:0:
192,21,13998,2,0,P|148:33|128:65,1,80
152,132,14598,6,0,L|128:324,1,160,2|0,2:3|0:0,0:0:0:0:
256,368,15798,1,0,0:0:0:0:
379,290,16398,2,0,L|360:132,1,160,2|0,0:0|0:0,0:0:0:0:
344,64,17298,1,0,0:0:0:0:
292,16,17598,1,0,0:0:0:0:
220,16,17898,1,0,0:0:0:0:
168,64,18198,6,0,P|144:140|24:88,1,240,2|0,0:3|0:0,0:0:0:0:
98,84,19398,1,0,0:0:0:0:
240,76,19998,2,0,B|244:144|196:188|196:188|196:316,1,240,2|0,0:0|0:0,0:0:0:0:
128,332,21198,2,0,L|128:252,1,80
264,216,21798,6,0,P|336:280|460:228,1,240,2|0,2:3|0:0,0:0:0:0:
480,164,22998,2,0,P|437:162|400:188,1,80
457,232,23598,2,0,L|420:72,1,160,2|0,0:0|0:0,0:0:0:0:
404,8,24498,1,0,0:0:0:0:
344,48,24798,2,0,P|308:72|268:72,1,80
208,40,25398,6,0,B|152:28|120:68|120:68|56:76,1,160,2|0,2:3|0:0,0:0:0:0:
32,144,26298,1,0,0:0:0:0:
32,144,26598,2,0,L|116:136,1,80
180,108,27198,2,0,B|200:176|136:208|136:208|76:236|96:308,1,240,2|0,0:0|0:0,0:0:0:0:
164,276,28398,1,0,0:0:0:0:
348,276,28998,6,0,B|332:220|414:192|414:192|332:164|348:108,1,240,2|0,2:3|0:0,0:0:0:0:
420,100,30198,2,0,P|400:60|364:40,1,80
300,52,30798,2,0,P|236:68|172:8,1,160
108,44,31698,1,0,0:0:0:0:
48,84,31998,2,0,L|28:176,1,80
68,224,32598,6,0,P|104:296|176:304,1,160,2|0,0:3|0:0,0:0:0:0:
224,248,33498,1,0,0:0:0:0:
256,184,33798,1,0,0:0:0:0:
444,224,34398,2,0,P|408:296|336:304,1,160,2|0,0:0|0:0,0:0:0:0:
288,248,35298,1,0,0:0:0:0:
256,184,35598,2,0,L|256:104,1,80
192,72,36198,6,0,P|256:31|320:72,1,160,2|0,0:3|0:3,0:3:0:0:
368,124,37098,2,0,P|397:147|441:151,1,80
424,80,37698,1,0,0:0:0:0:
424,80,37998,2,0,L|372:236,1,160,2|0,0:0|0:0,0:0:0:0:
348,300,38898,1,0,0:0:0:0:
292,252,39198,2,0,P|256:236|220:252,1,80
160,288,39798,6,0,P|88:324|24:288,2,160,2|0|0,0:3|0:0|0:0,0:0:0:0:
352,96,41598,2,0,P|424:60|488:96,1,160,2|0,0:0|0:0,0:0:0:0:
420,224,42798,1,0,0:0:0:0:
420,224,43398,6,0,L|340:216,1,80,2|0,0:3|0:0,0:0:0:0:
360,284,43998,2,0,L|280:276,1,80
300,344,44598,2,0,L|220:336,1,80
208,264,45198,2,0,L|48:248,1,160,2|0,0:0|0:0,0:0:0:0:
28,180,46098,1,0,0:0:0:0:
100,184,46398,2,0,L|188:192,1,80
256,200,46998,6,0,B|228:136|284:104|256:44,1,160,2|0,0:3|0:0,0:0:0:0:
348,152,48198,2,0,B|320:216|376:248|348:308,1,160,0|2,0:0|0:0,0:0:0:0:
164,308,49398,2,0,B|136:248|192:216|164:152,1,160
100,116,50298,1,0,0:0:0:0:
100,188,50598,6,0,B|135:247|194:220|227:277,1,160,2|0,0:3|0:0,0:0:0:0:
296,296,51498,1,0,0:0:0:0:
356,256,51798,2,0,L|380:176,1,80
480,96,52398,2,0,L|436:252,1,160,2|0,0:0|0:0,0:0:0:0:
400,112,53598,1,0,0:0:0:0:
400,112,54198,6,0,P|332:160|260:144,1,160,2|0,0:3|0:0,0:0:0:0:
212,92,55098,1,0,0:0:0:0:
148,124,55398,2,0,L|128:204,1,80
168,312,55998,2,0,L|212:136,1,160,2|0,0:0|0:0,0:0:0:0:
112,268,57198,1,0,0:0:0:0:
264,220,57798,6,0,P|324:172|400:204,1,160,2|0,0:3|0:0,0:0:0:0:
424,264,58698,1,0,0:0:0:0:
424,264,58998,2,0,P|439:300|471:323,1,80
500,256,59598,2,0,L|492:96,1,160,2|0,0:0|0:0,0:0:0:0:
488,24,60498,1,0,0:0:0:0:
416,36,60798,2,0,L|328:64,1,80
280,24,61398,6,0,P|318:72|276:160,1,160,2|0,0:3|0:0,0:0:0:0:
208,152,62298,1,0,0:0:0:0:
248,92,62598,2,0,P|304:85|358:163,2,160,0|2|0,0:0|0:0|0:0,0:0:0:0:
208,152,64098,1,0,0:0:0:0:
136,144,64398,1,0,0:0:0:0:
92,200,64698,1,0,0:0:0:0:
116,268,64998,6,0,P|176:340|252:324,1,160,2|0,0:3|0:0,0:0:0:0:
300,364,65898,1,0,0:0:0:0:
328,296,66198,2,0,L|328:188,1,80
392,176,66798,2,0,P|324:216|265:175,1,160,2|0,0:0|0:0,0:0:0:0:
328,140,67698,1,0,0:0:0:0:
392,104,67998,6,0,B|436:104|460:148|460:148|516:88,2,160,0|2|0,0:0|0:3|0:0,0:0:0:0:
328,140,69498,1,0,0:0:0:0:
264,108,69798,2,0,L|180:100,1,80
172,28,70398,2,0,B|184:96|184:96|164:144|192:184,1,160,2|0,0:0|0:0,0:0:0:0:
256,216,71298,1,0,0:0:0:0:
220,280,71598,2,0,L|220:368,1,80
292,360,72198,6,0,L|292:280,1,80,2|0,3:0|0:0,0:0:0:0:
256,216,72798,2,0,B|200:188|160:236|160:236|112:208,1,160
84,144,73698,1,0,0:0:0:0:
156,152,73998,2,0,P|217:138|313:176,1,160,2|0,0:0|0:0,0:0:0:0:
332,236,74898,1,0,0:0:0:0:
364,300,75198,2,0,P|392:324|436:328,1,80
500,384,75798,6,0,L|424:244,1,160,2|0,0:3|0:0,0:0:0:0:
388,180,76698,1,0,0:0:0:0:
380,108,76998,2,0,P|424:112|452:144,1,80
388,180,77598,2,0,P|320:152|316:72,1,160,2|0,0:0|0:0,0:0:0:0:
256,204,78798,1,0,0:0:0:0:
197,73,79398,6,0,P|193:149|124:180,1,160,2|0,3:0|0:0,0:0:0:0:
12,272,80598,1,0,0:0:0:0:
148,324,81198,2,0,B|204:364|256:315|256:315|308:364|364:324,1,240,2|0,0:0|0:0,0:0:0:0:
294,262,82398,2,0,P|256:250|218:262,1,80
148,252,82998,6,0,P|136:212|148:172,1,80,2|0,0:3|0:0,0:0:0:0:
196,128,83598,2,0,P|205:89|193:51,1,80
132,88,84198,1,0,0:0:0:0:
256,164,84798,2,0,P|278:103|256:10,2,160,2|0|0,0:0|0:0|0:0,0:0:0:0:
195,199,86298,1,0,0:0:0:0:
129,213,86598,6,0,P|149:249|189:265,1,80,2|0,0:3|0:0,0:0:0:0:
252,256,87198,2,0,P|287:275|309:316,1,80
236,328,87798,1,0,0:0:0:0:
236,328,88398,2,0,B|220:376|176:380|144:376|104:356|104:320|88:272|140:264|140:288|152:224|136:200|104:184|84:192,1,320,2|0,0:0|0:0,0:0:0:0:
176,80,90198,5,2,0:0:0:0:
256,143,90498,1,2,0:0:0:0:
336,80,90798,1,2,0:0:0:0:
432,192,91098,1,0,0:0:0:0:
420,48,91398,1,2,0:0:0:0:
344,168,91698,1,0,0:0:0:0:
480,120,91998,1,6,0:0:0:0:
