osu file format v14

[General]
AudioFilename: shake it.mp3
AudioLeadIn: 2000
PreviewTime: 61
Countdown: 0
SampleSet: Soft
StackLeniency: 0.7
Mode: 0
LetterboxInBreaks: 1
WidescreenStoryboard: 0

[Editor]
Bookmarks: 92830
DistanceSpacing: 1
BeatDivisor: 4
GridSize: 4
TimelineZoom: 1.3

[Metadata]
Title:shake it!
TitleUnicode:shake it!
Artist:emon
ArtistUnicode:emon
Creator:kosiga
Version:Normal
Source:
Tags:vocaloid hatsune miku kagamine rin ren emonloid4
BeatmapID:520019
BeatmapSetID:215819

[Difficulty]
HPDrainRate:4
CircleSize:3
OverallDifficulty:4
ApproachRate:5
SliderMultiplier:1.2
SliderTickRate:1

[Events]
//Background and Video events
0,0,"bg.jpg",0,0
Video,0,"shakeit.avi"
//Break Periods
2,105030,118169
//Storyboard Layer 0 (Background)
//Storyboard Layer 1 (Fail)
//Storyboard Layer 2 (Pass)
//Storyboard Layer 3 (Foreground)
//Storyboard Sound Samples

[TimingPoints]
-400,461.538461538462,4,2,1,40,1,0
14253,-100,4,2,1,50,0,0
16215,-100,4,2,1,60,0,1
16330,-100,4,2,1,70,0,0
29600,-100,4,2,1,60,0,0
60523,-100,4,2,1,70,0,0
75292,-100,4,2,1,80,0,1
89830,-100,4,2,1,70,0,0
90061,-100,4,2,1,80,0,1
104830,-100,4,2,1,20,0,0
119253,-100,4,2,1,50,0,0
149023,-100,4,2,1,60,0,0
163907,-100,4,2,1,70,0,1
164253,-100,4,2,1,80,0,1
164830,-100,4,2,1,90,0,1
165061,-100,4,2,1,80,0,1
178561,-100,4,2,1,70,0,0
178676,-100,4,2,1,80,0,1
193215,-100,4,2,1,70,0,0
193446,-100,4,2,1,80,0,1
213753,-100,4,2,1,50,0,0
217907,-100,4,2,1,45,0,0
218369,-100,4,2,1,40,0,0
218830,-100,4,2,1,35,0,0
219292,-100,4,2,1,30,0,0
219753,-100,4,2,1,25,0,0
220215,-100,4,2,1,20,0,0
220676,-100,4,2,1,15,0,0
221138,-100,4,2,1,10,0,0
221600,-100,4,2,1,5,0,0

[Colours]
Combo1 : 17,12,243
Combo2 : 5,240,5
Combo3 : 255,0,255
Combo4 : 255,255,0

[HitObjects]
464,328,292,6,0,P|380:304|296:336,1,180
176,332,1446,6,0,P|164:272|180:212,1,120,2|2,0:0|0:0,0:0:0:0:
296,192,2369,2,0,P|304:100|264:24,2,180,2|2|0,0:0|0:0|0:0,0:0:0:0:
180,224,4215,2,0,P|120:212|64:232,1,120,2|0,0:0|0:0,0:0:0:0:
128,336,5138,6,0,P|188:348|244:328,1,120,2|2,0:0|0:0,0:0:0:0:
320,236,6061,2,0,P|408:220|480:272,2,180,2|2|0,0:0|0:0|0:0,0:0:0:0:
224,308,7907,2,0,P|160:312|108:296,1,120,2|0,0:0|0:0,0:0:0:0:
176,196,8830,6,0,P|184:136|172:76,1,120,2|2,0:0|0:0,0:0:0:0:
56,52,9753,2,0,P|28:132|48:224,2,180,2|2|0,0:0|0:0|0:0,0:0:0:0:
176,68,11600,1,2,0:0:0:0:
296,52,12061,1,0,0:0:0:0:
412,84,12523,6,0,P|420:144|412:204,1,120,2|0,0:0|0:0,0:0:0:0:
299,262,13446,2,0,P|292:203|300:144,1,120,2|0,0:0|0:0,0:0:0:0:
232,44,14369,5,2,1:3:0:0:
112,60,14830,1,2,1:3:0:0:
44,160,15292,2,0,L|40:284,1,120,8|0,3:0|1:0,0:0:0:0:
76,328,15984,1,0,1:0:0:0:
132,304,16215,6,0,P|192:304|252:320,1,120,4|8,0:0|0:0,0:0:0:0:
364,356,17138,2,0,P|424:356|484:340,1,120,2|8,0:0|0:0,0:0:0:0:
500,284,17830,2,0,P|512:196|492:108,1,180,2|8,0:0|0:0,0:0:0:0:
396,36,18984,5,2,0:0:0:0:
344,144,19446,2,0,P|232:172|116:132,1,240,8|8,0:0|0:0,0:0:0:0:
180,32,20830,2,0,P|240:28|296:48,1,120,0|10,0:0|0:0,0:0:0:0:
316,104,21523,2,0,P|312:196|324:284,1,180,2|8,0:0|0:0,0:0:0:0:
420,356,22676,6,0,L|480:360,1,60,0|10,0:0|0:0,0:0:0:0:
512,292,23138,2,0,L|452:288,1,60,2|10,0:0|0:0,0:0:0:0:
416,240,23600,6,0,P|424:180|416:120,1,120,0|8,0:0|0:0,0:0:0:0:
316,56,24523,1,0,0:0:0:0:
212,116,24984,2,0,B|176:192|212:232|248:272|212:348,1,240,8|8,0:0|0:0,0:0:0:0:
92,340,26369,2,0,P|76:284|88:224,1,120,2|8,0:0|0:0,0:0:0:0:
176,140,27292,6,0,L|296:136,1,120,0|8,0:0|0:0,0:0:0:0:
232,32,28215,2,0,L|112:36,1,120,0|8,0:0|0:0,0:0:0:0:
44,136,29138,1,0,0:0:0:0:
60,256,29600,5,8,1:2:0:0:
60,256,29830,1,0,0:0:0:0:
112,288,30061,2,0,L|172:292,1,60,8|8,1:2|1:2,0:0:0:0:
224,260,30523,2,0,L|284:256,1,60,0|0,1:0|1:0,0:0:0:0:
340,280,30984,6,0,P|400:296|452:276,1,120,4|8,1:2|1:0,0:0:0:0:
392,172,31907,2,0,P|332:156|280:176,1,120,0|8,0:0|1:0,0:0:0:0:
232,288,32830,1,0,0:0:0:0:
120,332,33292,1,8,1:0:0:0:
28,256,33753,2,0,P|8:164|32:80,1,180,2|2,0:0|0:0,0:0:0:0:
212,68,35138,6,0,P|220:124|204:184,1,120,8|0,1:0|0:0,0:0:0:0:
116,268,36061,1,8,1:0:0:0:
224,324,36523,2,0,L|344:332,1,120,0|8,0:0|1:0,0:0:0:0:
436,256,37446,2,0,P|444:196|432:136,2,120,2|8|0,0:0|1:0|1:0,0:0:0:0:
348,340,38830,5,8,1:0:0:0:
252,268,39292,2,0,P|192:264|140:292,1,120,0|8,0:0|1:0,0:0:0:0:
36,352,40215,2,0,P|20:296|32:236,1,120,0|8,0:0|1:0,0:0:0:0:
100,136,41138,1,2,0:0:0:0:
220,120,41600,1,8,1:0:0:0:
352,320,42523,6,0,P|412:336|464:312,2,120,8|0|8,1:0|0:0|1:0,0:0:0:0:
292,216,43907,2,0,L|284:96,1,120,0|8,0:0|1:0,0:0:0:0:
180,36,44830,2,0,L|120:32,2,60,0|2|2,0:0|0:0|0:0,0:0:0:0:
300,44,45753,5,4,0:0:0:0:
396,116,46215,2,0,P|404:176|392:236,1,120,8|0,1:0|0:0,0:0:0:0:
300,312,47138,1,8,1:0:0:0:
208,232,47600,2,0,P|152:220|96:244,1,120,0|8,0:0|1:0,0:0:0:0:
164,344,48523,2,0,P|256:356|332:312,1,180,2|2,0:0|0:0,0:0:0:0:
364,140,49907,6,0,P|356:80|380:24,1,120,8|0,1:0|0:0,0:0:0:0:
476,96,50830,2,0,P|484:156|460:212,1,120,8|2,1:0|0:0,0:0:0:0:
368,284,51753,1,8,1:0:0:0:
252,316,52215,1,2,0:0:0:0:
144,264,52676,2,0,L|136:144,1,120,8|2,1:0|1:2,0:0:0:0:
36,76,53600,6,0,P|16:132|24:192,1,120,8|0,1:0|0:0,0:0:0:0:
124,256,54523,2,0,P|184:248|240:264,1,120,8|0,1:0|0:0,0:0:0:0:
336,336,55446,2,0,P|396:344|452:328,1,120,8|2,1:0|0:0,0:0:0:0:
488,212,56369,1,8,1:0:0:0:
316,44,57292,6,0,P|256:36|200:52,1,120,8|0,1:0|0:0,0:0:0:0:
132,152,58215,1,8,1:0:0:0:
200,252,58676,1,2,0:0:0:0:
108,332,59138,6,0,P|80:340|48:336,1,60,8|0,1:0|1:3,0:0:0:0:
72,264,59600,2,0,P|100:256|132:260,1,60,0|0,1:3|1:3,0:0:0:0:
172,304,60061,2,0,P|224:332|284:332,1,120,8|4,1:0|0:0,0:0:0:0:
396,288,60984,5,8,0:0:0:0:
468,192,61446,1,0,0:0:0:0:
436,76,61907,1,8,0:0:0:0:
340,148,62369,2,0,P|284:156|220:140,1,120,2|10,0:0|0:0,0:0:0:0:
288,40,63292,2,0,P|347:32|405:46,1,120,2|8,0:0|0:0,0:0:0:0:
452,156,64215,5,0,0:0:0:0:
424,272,64676,1,8,0:0:0:0:
320,332,65138,1,0,0:0:0:0:
200,324,65600,1,8,0:0:0:0:
92,272,66061,2,0,P|80:212|96:156,1,120,2|10,0:0|0:0,0:0:0:0:
216,140,66984,2,0,P|228:80|212:24,2,120,2|8|0,0:0|1:2|0:0,0:0:0:0:
108,88,68369,5,8,0:0:0:0:
52,196,68830,1,0,0:0:0:0:
104,304,69292,1,8,0:0:0:0:
204,236,69753,2,0,P|260:228|320:248,1,120,2|10,0:0|0:0,0:0:0:0:
252,348,70676,2,0,P|196:356|136:336,1,120,2|8,0:0|0:0,0:0:0:0:
64,240,71600,5,2,0:0:0:0:
72,120,72061,1,8,0:0:0:0:
160,36,72523,1,2,0:0:0:0:
280,20,72984,1,8,0:0:0:0:
396,56,73446,2,0,P|466:210|347:331,1,360,2|0,0:0|0:0,0:0:0:0:
300,220,75292,6,0,L|296:100,1,120,4|4,0:0|0:0,0:0:0:0:
184,148,76215,2,0,L|180:268,1,120,4|8,0:0|0:0,0:0:0:0:
176,328,76907,2,0,P|92:352|20:304,1,180,2|8,0:0|0:0,0:0:0:0:
32,184,78061,1,2,0:0:0:0:
124,104,78523,1,8,0:0:0:0:
216,180,78984,6,0,P|276:196|328:176,1,120,2|8,0:0|0:0,0:0:0:0:
376,64,79907,2,0,P|436:48|488:68,1,120,2|8,0:0|0:0,0:0:0:0:
500,128,80600,2,0,P|500:208|472:304,1,180,2|8,0:0|0:0,0:0:0:0:
356,268,81753,2,0,P|348:208|364:152,1,120,2|8,0:0|1:2,0:0:0:0:
396,100,82446,1,0,1:0:0:0:
364,48,82676,6,0,P|308:32|248:44,1,120,2|8,0:0|0:0,0:0:0:0:
172,136,83600,1,2,0:0:0:0:
256,224,84061,2,0,P|264:284|248:340,2,120,8|2|8,0:0|0:0|0:0,0:0:0:0:
172,136,85446,2,0,L|52:132,1,120,2|8,0:0|0:0,0:0:0:0:
0,240,86369,5,2,0:0:0:0:
120,252,86830,1,4,0:0:0:0:
192,348,87292,5,2,0:0:0:0:
72,360,87753,1,4,0:0:0:0:
28,248,88215,6,0,L|36:128,1,120,2|10,0:0|0:0,0:0:0:0:
156,108,89138,2,0,L|148:228,1,120,2|10,0:0|0:0,0:0:0:0:
236,312,90061,5,4,0:0:0:0:
344,260,90523,2,0,P|356:200|348:140,1,120,4|4,0:0|0:0,0:0:0:0:
264,56,91446,1,8,0:0:0:0:
164,124,91907,2,0,P|104:124|44:108,2,120,2|8|0,0:0|0:0|0:0,0:0:0:0:
264,56,93292,6,0,P|324:56|384:72,1,120,8|2,0:0|0:0,0:0:0:0:
464,160,94215,1,8,0:0:0:0:
356,216,94676,1,0,0:0:0:0:
444,300,95138,1,8,0:0:0:0:
332,348,95600,2,0,P|272:356|220:332,1,120,2|8,0:0|0:0,0:0:0:0:
188,280,96292,2,0,P|128:272|76:296,2,120,2|8|8,0:0|0:0|0:0,0:0:0:0:
248,280,97446,6,0,P|272:224|264:164,1,120,2|8,0:0|0:0,0:0:0:0:
168,92,98369,2,0,P|144:148|152:208,1,120,0|8,0:0|0:0,0:0:0:0:
200,240,99061,2,0,P|288:236|368:280,1,180,2|8,0:0|0:0,0:0:0:0:
264,340,100215,1,2,0:0:0:0:
144,348,100676,1,8,0:0:0:0:
40,288,101138,6,0,P|40:224|44:168,1,120,2|4,0:0|0:0,0:0:0:0:
152,112,102061,2,0,P|156:171|155:231,1,120,2|4,0:0|0:0,0:0:0:0:
240,320,102984,5,2,0:0:0:0:
360,308,103446,1,10,0:0:0:0:
444,220,103907,1,2,0:0:0:0:
464,100,104369,2,0,P|408:76|344:72,1,120,10|0,0:0|0:0,0:0:0:0:
164,320,119369,6,0,L|104:324,1,60,0|0,1:0|1:0,0:0:0:0:
8,252,120061,1,0,1:0:0:0:
112,192,120523,2,0,L|236:184,1,120,0|0,1:0|1:0,0:0:0:0:
316,272,121446,1,0,1:0:0:0:
424,220,121907,2,0,P|428:164|428:100,1,120,0|0,1:0|1:0,0:0:0:0:
316,60,122830,2,0,L|256:64,2,60,0|0|0,1:0|1:0|1:0,0:0:0:0:
436,56,123753,5,0,1:0:0:0:
468,172,124215,1,0,1:0:0:0:
396,268,124676,2,0,P|332:268|276:276,1,120,0|0,1:0|1:0,0:0:0:0:
180,348,125600,2,0,P|116:348|60:340,1,120,0|0,1:0|1:0,0:0:0:0:
28,224,126523,1,0,1:0:0:0:
28,224,126753,2,0,L|24:164,1,60,0|0,1:0|1:0,0:0:0:0:
88,64,127446,5,0,1:0:0:0:
180,140,127907,2,0,L|184:260,1,120,0|0,1:0|1:0,0:0:0:0:
280,332,128830,2,0,P|340:336|400:332,2,120,0|0|0,1:0|1:0|1:0,0:0:0:0:
172,280,130215,2,0,P|140:277|112:280,2,60,0|0|0,1:0|1:0|1:0,0:0:0:0:
272,216,131138,6,0,L|280:96,1,120,0|0,1:0|1:0,0:0:0:0:
400,88,132061,2,0,L|392:208,1,120,0|0,1:0|1:0,0:0:0:0:
340,316,132984,1,0,1:0:0:0:
460,312,133446,1,0,1:0:0:0:
444,192,133907,1,0,1:0:0:0:
444,192,134138,2,0,L|440:128,1,60,0|0,1:0|1:0,0:0:0:0:
344,60,134830,5,0,1:0:0:0:
228,92,135292,1,0,1:0:0:0:
112,64,135753,1,0,1:0:0:0:
36,156,136215,2,0,P|32:216|36:276,1,120,0|0,1:0|1:0,0:0:0:0:
128,352,137138,1,0,1:0:0:0:
248,344,137600,2,0,L|308:340,2,60,0|0|0,1:0|1:0|1:0,0:0:0:0:
128,328,138523,5,0,1:0:0:0:
88,216,138984,2,0,P|88:160|92:96,1,120,0|0,1:0|1:0,0:0:0:0:
196,36,139907,2,0,P|256:32|316:44,1,120,0|0,1:0|1:0,0:0:0:0:
396,132,140830,1,0,1:0:0:0:
296,200,141292,1,0,1:0:0:0:
296,200,141523,2,0,L|292:260,1,60,0|0,1:0|1:0,0:0:0:0:
216,352,142215,6,0,P|156:348|96:352,1,120,0|0,1:0|1:0,0:0:0:0:
20,260,143138,1,0,1:0:0:0:
124,200,143600,2,0,P|184:204|244:200,1,120,0|0,1:0|1:0,0:0:0:0:
320,108,144523,2,0,P|380:104|440:108,1,120,0|0,1:0|1:0,0:0:0:0:
488,144,145215,6,0,L|492:208,1,60,0|0,1:0|1:0,0:0:0:0:
432,308,145907,1,0,1:0:0:0:
316,340,146369,1,0,1:0:0:0:
200,308,146830,1,0,1:0:0:0:
168,192,147292,2,0,L|176:72,3,120,0|0|0|0,1:0|1:0|1:0|1:0,0:0:0:0:
288,116,149138,6,0,P|296:176|284:236,1,120,4|8,0:0|0:0,0:0:0:0:
60,320,150523,1,8,0:0:0:0:
52,80,151446,1,8,0:0:0:0:
232,56,152138,1,8,0:0:0:0:
232,56,152369,2,0,P|288:48|348:64,1,120,8|0,0:0|0:0,0:0:0:0:
444,140,153292,5,8,0:0:0:0:
312,340,154215,1,8,0:0:0:0:
84,264,155138,2,0,P|84:204|120:156,1,120,8|0,0:0|0:0,0:0:0:0:
176,140,155830,1,8,0:0:0:0:
224,176,156061,2,0,P|284:188|336:164,1,120,8|0,0:0|0:0,0:0:0:0:
396,60,156984,5,8,0:0:0:0:
156,44,157907,1,8,0:0:0:0:
52,260,158830,1,8,0:0:0:0:
224,320,159523,1,8,0:0:0:0:
224,320,159753,2,0,P|256:320|284:328,1,60,8|0,0:0|0:0,0:0:0:0:
340,348,160215,6,0,P|400:352|448:320,1,120,0|8,0:0|0:0,0:0:0:0:
484,204,161138,2,0,L|480:144,1,60,0|8,0:0|0:0,0:0:0:0:
408,120,161600,2,0,L|412:180,1,60,8|0,0:0|0:0,0:0:0:0:
376,228,162061,6,0,P|320:240|260:220,1,120,0|8,0:0|0:0,0:0:0:0:
209,109,162984,2,0,P|267:97|324:116,1,120,0|8,0:0|0:0,0:0:0:0:
376,228,163907,5,4,0:0:0:0:
276,296,164369,1,4,0:0:0:0:
160,260,164830,2,0,P|144:204|156:144,1,120,4|8,0:0|0:0,0:0:0:0:
264,92,165753,2,0,P|324:100|384:88,1,120,2|8,0:0|0:0,0:0:0:0:
440,72,166446,2,0,P|468:152|448:244,1,180,2|8,0:0|0:0,0:0:0:0:
356,320,167600,5,2,0:0:0:0:
240,352,168061,2,0,P|180:360|120:344,1,120,8|0,0:0|0:0,0:0:0:0:
48,252,168984,1,8,0:0:0:0:
136,168,169446,2,0,P|196:160|256:176,1,120,2|8,0:0|0:0,0:0:0:0:
280,228,170138,2,0,P|340:236|400:220,1,120,2|8,0:0|0:0,0:0:0:0:
448,188,170830,2,0,L|460:124,1,60,0|8,1:0|1:2,0:0:0:0:
436,72,171292,6,0,P|378:57|319:65,1,120,4|8,0:0|0:0,0:0:0:0:
256,168,172215,1,2,0:0:0:0:
140,140,172676,2,0,P|132:80|148:24,2,120,8|0|8,0:0|0:0|0:0,0:0:0:0:
248,192,174061,2,0,L|372:196,1,120,2|8,0:0|0:0,0:0:0:0:
448,104,174984,5,2,0:0:0:0:
328,88,175446,1,4,0:0:0:0:
372,200,175907,5,2,0:0:0:0:
492,184,176369,1,4,0:0:0:0:
448,296,176830,6,0,P|392:312|336:292,1,120,2|0,0:0|0:0,0:0:0:0:
276,188,177753,2,0,P|220:172|164:192,1,120,2|0,0:0|1:0,0:0:0:0:
132,244,178446,6,0,P|132:272|124:304,1,60,0|4,1:0|0:0,0:0:0:0:
12,256,179138,1,4,0:0:0:0:
92,164,179600,2,0,P|108:108|100:48,1,120,4|8,0:0|0:0,0:0:0:0:
44,24,180292,2,0,P|16:109|29:197,1,180,2|8,0:0|0:0,0:0:0:0:
92,300,181446,1,2,0:0:0:0:
204,344,181907,1,8,0:0:0:0:
324,356,182369,6,0,P|388:360|440:336,1,120,2|8,0:0|0:0,0:0:0:0:
364,240,183292,2,0,P|300:236|248:260,1,120,2|8,0:0|0:0,0:0:0:0:
216,308,183984,2,0,P|128:320|56:272,1,180,2|8,0:0|0:0,0:0:0:0:
8,160,185138,2,0,L|0:40,1,120,2|8,0:0|1:2,0:0:0:0:
56,20,185830,1,0,1:2:0:0:
108,52,186061,6,0,P|168:56|228:52,1,120,2|8,0:0|0:0,0:0:0:0:
348,44,186984,1,2,0:0:0:0:
444,116,187446,2,0,P|452:176|444:236,2,120,8|2|8,0:0|0:0|0:0,0:0:0:0:
336,64,188830,1,2,0:0:0:0:
256,156,189292,1,8,0:0:0:0:
336,244,189753,6,0,P|396:244|456:248,1,120,2|4,0:0|0:0,0:0:0:0:
392,352,190676,2,0,P|332:352|272:348,1,120,2|4,0:0|0:0,0:0:0:0:
168,288,191600,5,2,0:0:0:0:
276,236,192061,1,10,0:0:0:0:
180,164,192523,1,2,0:0:0:0:
288,112,192984,1,10,0:0:0:0:
192,40,193446,6,0,P|132:32|76:48,2,120,4|4|4,0:0|0:0|0:0,0:0:0:0:
288,112,194830,1,8,0:0:0:0:
200,196,195292,2,0,P|192:256|204:316,1,120,2|8,0:0|0:0,0:0:0:0:
256,344,195984,2,0,P|340:356|412:300,1,180,2|8,0:0|0:0,0:0:0:0:
452,188,197138,5,2,0:0:0:0:
408,76,197600,2,0,P|348:68|292:88,1,120,8|0,0:0|0:0,0:0:0:0:
232,192,198523,1,8,0:0:0:0:
176,300,198984,2,0,P|116:308|60:288,1,120,2|8,0:0|0:0,0:0:0:0:
32,236,199676,2,0,L|24:112,2,120,2|8|8,0:0|0:0|0:0,0:0:0:0:
52,296,200830,6,0,P|109:316|168:308,1,120,2|8,0:0|0:0,0:0:0:0:
244,216,201753,1,2,0:0:0:0:
364,240,202215,2,0,P|380:296|376:360,2,120,8|2|8,0:0|0:0|0:0,0:0:0:0:
304,136,203600,1,2,0:0:0:0:
188,104,204061,1,8,0:0:0:0:
72,136,204523,6,0,P|56:196|56:256,1,120,2|4,0:0|0:0,0:0:0:0:
155,325,205446,2,0,P|171:267|172:208,1,120,2|4,0:0|0:0,0:0:0:0:
88,120,206369,5,2,0:0:0:0:
196,68,206830,1,10,0:0:0:0:
316,64,207292,1,2,0:0:0:0:
424,116,207753,2,0,P|448:128|480:132,2,60,8|0|0,1:2|1:2|0:0,0:0:0:0:
328,44,208676,5,4,0:0:0:0:
232,116,209138,1,0,0:0:0:0:
284,224,209600,1,4,0:0:0:0:
192,300,210061,6,0,P|132:304|76:284,1,120,2|10,0:0|0:0,0:0:0:0:
144,184,210984,2,0,P|204:180|260:200,1,120,2|10,0:0|1:2,0:0:0:0:
292,252,211676,6,0,P|288:288|292:316,1,60,0|0,1:2|0:0,0:0:0:0:
408,344,212369,1,4,0:0:0:0:
492,256,212830,2,0,P|496:220|492:192,1,60,0|0,0:0|1:0,0:0:0:0:
440,168,213292,2,0,P|436:132|440:104,1,60,4|0,1:2|0:0,0:0:0:0:
468,56,213753,5,2,0:0:0:0:
352,28,214215,1,2,0:0:0:0:
232,40,214676,1,2,0:0:0:0:
128,100,215138,2,0,P|112:160|128:216,1,120,2|0,0:0|0:0,0:0:0:0:
256,192,215830,12,0,222061,0:0:0:0:
