osu file format v14

[General]
AudioFilename: shake it.mp3
AudioLeadIn: 2000
PreviewTime: 61
Countdown: 0
SampleSet: Soft
StackLeniency: 0.7
Mode: 0
LetterboxInBreaks: 1
WidescreenStoryboard: 0

[Editor]
Bookmarks: 92830
DistanceSpacing: 0.8
BeatDivisor: 4
GridSize: 4
TimelineZoom: 1.3

[Metadata]
Title:shake it!
TitleUnicode:shake it!
Artist:emon
ArtistUnicode:emon
Creator:kosiga
Version:Hard
Source:
Tags:vocaloid hatsune miku kagamine rin ren emonloid4
BeatmapID:506779
BeatmapSetID:215819

[Difficulty]
HPDrainRate:6
CircleSize:4
OverallDifficulty:7
ApproachRate:7.5
SliderMultiplier:1.6
SliderTickRate:1

[Events]
//Background and Video events
0,0,"bg.jpg",0,0
Video,0,"shakeit.avi"
//Break Periods
2,105030,118544
//Storyboard Layer 0 (Background)
//Storyboard Layer 1 (Fail)
//Storyboard Layer 2 (Pass)
//Storyboard Layer 3 (Foreground)
//Storyboard Sound Samples

[TimingPoints]
-400,461.538461538462,4,2,1,40,1,0
14253,-100,4,2,1,50,0,0
16215,-100,4,2,1,60,0,1
16330,-100,4,2,1,70,0,0
29600,-100,4,2,1,60,0,0
60523,-100,4,2,1,70,0,0
75292,-100,4,2,1,80,0,1
89830,-100,4,2,1,70,0,0
90061,-100,4,2,1,80,0,1
104830,-100,4,2,1,20,0,0
119253,-100,4,2,1,50,0,0
149138,-125,4,2,1,60,0,0
163907,-100,4,2,1,70,0,1
164253,-100,4,2,1,80,0,1
164830,-100,4,2,1,90,0,1
165061,-100,4,2,1,80,0,1
176830,-100,4,2,1,70,0,1
178561,-100,4,2,1,70,0,0
178676,-100,4,2,1,80,0,1
193215,-100,4,2,1,70,0,0
193446,-100,4,2,1,80,0,1
213753,-100,4,2,1,70,0,0
215600,-125,4,2,1,50,0,0
217100,-125,4,2,1,70,0,0
217330,-125,4,2,1,50,0,0
217907,-125,4,2,1,45,0,0
218369,-125,4,2,1,40,0,0
218830,-125,4,2,1,35,0,0
219292,-125,4,2,1,30,0,0
219753,-125,4,2,1,25,0,0
220215,-125,4,2,1,20,0,0
220676,-125,4,2,1,15,0,0
221138,-125,4,2,1,10,0,0
221600,-125,4,2,1,5,0,0

[Colours]
Combo1 : 17,12,243
Combo2 : 5,240,5
Combo3 : 255,0,255
Combo4 : 255,255,0

[HitObjects]
440,146,292,5,0,0:0:0:0:
419,69,523,1,0,0:0:0:0:
342,48,753,1,0,0:0:0:0:
284,104,984,1,0,0:0:0:0:
305,181,1215,1,0,0:0:0:0:
384,204,1446,6,0,P|392:284|352:356,1,160,2|2,0:0|0:0,0:0:0:0:
196,324,2369,2,0,P|188:244|228:172,1,160,2|0,0:0|0:0,0:0:0:0:
300,204,3061,2,0,P|380:212|440:164,1,160,2|2,0:0|0:0,0:0:0:0:
496,108,3753,1,0,0:0:0:0:
432,60,3984,1,2,0:0:0:0:
356,84,4215,2,0,P|276:92|216:44,1,160,0|0,0:0|0:0,0:0:0:0:
136,60,4907,5,2,0:0:0:0:
136,60,5138,2,0,P|112:136|124:216,1,160,2|2,0:0|0:0,0:0:0:0:
255,302,6061,2,0,P|279:226|268:148,1,160,2|0,0:0|0:0,0:0:0:0:
188,140,6753,2,0,P|164:216|175:294,1,160,2|2,0:0|0:0,0:0:0:0:
240,344,7446,1,0,0:0:0:0:
320,344,7676,1,2,0:0:0:0:
384,296,7907,2,0,P|395:217|371:141,1,160
296,172,8600,5,2,0:0:0:0:
296,172,8830,2,0,P|224:200|152:168,1,160,2|2,0:0|0:0,0:0:0:0:
268,56,9753,2,0,P|340:28|412:60,1,160,2|0,0:0|0:0,0:0:0:0:
448,132,10446,2,0,P|444:208|448:292,1,160,2|2,0:0|0:0,0:0:0:0:
380,336,11138,1,0,0:0:0:0:
308,300,11369,1,2,0:0:0:0:
236,336,11600,2,0,L|156:340,1,80,0|2,0:0|0:0,0:0:0:0:
88,296,12061,1,0,0:0:0:0:
128,228,12292,5,2,0:0:0:0:
128,228,12523,2,0,P|208:232|288:224,1,160,0|2,0:0|0:0,0:0:0:0:
212,132,13215,1,2,0:0:0:0:
212,132,13446,2,0,P|132:136|52:128,1,160,0|2,0:0|0:0,0:0:0:0:
128,36,14138,1,2,0:0:0:0:
324,68,14369,5,2,1:3:0:0:
384,140,14830,1,2,1:3:0:0:
360,232,15292,1,8,3:0:0:0:
334,212,15407,1,0,1:0:0:0:
302,204,15523,1,0,1:0:0:0:
270,207,15638,1,0,1:0:0:0:
244,225,15753,1,0,1:0:0:0:
228,253,15869,1,0,1:0:0:0:
226,284,15984,6,0,L|146:280,1,80,0|4,1:0|0:0,0:0:0:0:
84,204,16446,1,0,0:0:0:0:
160,144,16676,1,8,0:0:0:0:
120,56,16907,2,0,P|80:52|40:56,1,80,2|2,0:0|0:0,0:0:0:0:
0,144,17369,1,2,0:0:0:0:
124,180,17600,1,8,0:0:0:0:
124,180,17830,2,0,P|164:184|204:180,1,80,2|0,0:0|0:0,0:0:0:0:
268,88,18292,1,0,0:0:0:0:
380,108,18523,2,0,L|392:188,1,80,8|0,0:0|0:0,0:0:0:0:
468,248,18984,5,2,0:0:0:0:
492,244,19100,1,2,0:0:0:0:
408,324,19330,1,2,0:0:0:0:
292,304,19561,1,2,0:0:0:0:
276,284,19676,2,0,P|280:196|288:124,1,160,2|0,0:0|0:0,0:0:0:0:
240,40,20369,2,0,P|200:40|160:32,1,80,8|0,0:0|0:0,0:0:0:0:
64,120,20830,2,0,P|104:120|144:128,1,80
180,248,21292,1,10,0:0:0:0:
368,308,21523,2,0,L|288:312,1,80,2|0,0:0|0:0,0:0:0:0:
196,344,21984,5,0,0:0:0:0:
76,332,22215,1,8,0:0:0:0:
80,316,22330,1,2,0:0:0:0:
84,300,22446,1,2,0:0:0:0:
272,216,22676,1,0,0:0:0:0:
392,228,22907,1,10,0:0:0:0:
180,248,23138,1,2,0:0:0:0:
180,248,23369,2,0,B|60:232|60:232|44:192,1,160,10|0,0:0|0:0,0:0:0:0:
32,100,24061,5,8,0:0:0:0:
128,120,24292,1,0,0:0:0:0:
220,88,24523,1,0,0:0:0:0:
304,136,24753,2,0,L|344:136|384:140,1,80,0|8,0:0|0:0,0:0:0:0:
444,64,25215,2,0,P|428:140|432:224,1,160
316,280,25907,1,8,0:0:0:0:
296,264,26023,2,0,P|240:256|176:264,1,120,0|2,0:0|0:0,0:0:0:0:
360,340,26600,2,0,P|400:344|440:340,1,80,2|8,0:0|0:0,0:0:0:0:
484,244,27061,1,2,0:0:0:0:
392,176,27292,6,0,P|316:180|232:164,1,160,0|8,0:0|0:0,0:0:0:0:
152,216,27984,1,0,0:0:0:0:
60,184,28215,2,0,L|20:108,1,80
140,120,28676,2,0,L|143:40,1,80,8|0,0:0|0:0,0:0:0:0:
252,76,29138,2,0,P|328:56|400:88,1,160,0|8,0:0|1:2,0:0:0:0:
399,87,29830,1,0,1:0:0:0:
360,176,30061,1,8,1:2:0:0:
392,268,30292,1,8,1:2:0:0:
332,344,30523,1,0,1:0:0:0:
304,320,30638,1,0,1:0:0:0:
268,312,30753,1,0,1:0:0:0:
232,320,30869,1,0,1:0:0:0:
208,348,30984,6,0,P|208:308|200:268,1,80,4|0,1:2|0:0,0:0:0:0:
144,188,31446,2,0,P|144:148|152:108,1,80,8|0,1:0|0:0,0:0:0:0:
284,32,31907,2,0,P|296:112|288:192,1,160,0|8,0:0|1:0,0:0:0:0:
216,256,32600,1,0,0:0:0:0:
120,252,32830,2,0,P|76:248|36:248,1,80
72,340,33292,1,8,1:0:0:0:
168,344,33523,1,0,0:0:0:0:
168,344,33753,2,0,P|212:348|252:348,1,80,2|0,0:0|0:0,0:0:0:0:
288,320,34100,2,0,P|348:320|408:324,1,120,2|2,0:0|0:0,0:0:0:0:
460,140,34907,5,0,0:0:0:0:
460,140,35138,2,0,P|416:140|380:136,1,80,8|0,1:0|0:0,0:0:0:0:
296,88,35600,2,0,P|236:80|176:84,1,120
140,116,36061,2,0,L|108:41,1,80,8|0,1:0|0:0,0:0:0:0:
36,108,36523,1,0,0:0:0:0:
76,196,36753,2,0,P|76:236|68:280,1,80,0|8,0:0|1:0,0:0:0:0:
184,340,37215,2,0,P|184:300|192:256,1,80
240,168,37676,2,0,L|232:124,2,40,2|0|8,0:0|0:0|1:0,0:0:0:0:
360,168,38138,1,2,1:2:0:0:
328,260,38369,6,0,P|252:272|168:260,1,160,0|8,1:0|1:0,0:0:0:0:
96,196,39061,1,0,0:0:0:0:
152,116,39292,2,0,P|192:112|232:120,1,80,2|0,0:0|0:0,0:0:0:0:
264,156,39638,2,0,P|324:164|384:156,1,120,2|0,0:0|0:0,0:0:0:0:
432,72,40215,1,0,0:0:0:0:
324,92,40446,2,0,P|320:132|324:172,1,80,0|8,0:0|1:0,0:0:0:0:
416,204,40907,1,2,0:0:0:0:
432,300,41138,1,0,0:0:0:0:
336,284,41369,1,2,0:0:0:0:
336,284,41484,2,0,P|272:280|216:284,1,120,0|0,0:0|0:0,0:0:0:0:
60,172,42292,5,0,0:0:0:0:
60,172,42523,2,0,P|100:172|140:168,1,80,8|0,1:0|0:0,0:0:0:0:
228,128,42984,1,0,0:0:0:0:
171,47,43215,2,0,P|152:44|133:36,2,40,0|0|8,0:0|0:0|1:0,0:0:0:0:
288,52,43676,1,0,0:0:0:0:
368,108,43907,2,0,P|372:148|380:188,1,80
472,288,44369,2,0,P|476:248|484:208,1,80,8|0,1:0|0:0,0:0:0:0:
460,116,44830,5,0,0:0:0:0:
376,284,45061,1,2,0:0:0:0:
376,284,45292,2,0,P|300:268|224:292,1,160,2|4,0:0|0:0,0:0:0:0:
144,348,45984,6,0,L|120:268,1,80,0|8,0:0|1:0,0:0:0:0:
40,216,46446,1,0,0:0:0:0:
128,176,46676,2,0,P|204:184|284:156,1,160,0|8,0:0|1:0,0:0:0:0:
244,68,47369,1,0,0:0:0:0:
332,24,47600,2,0,P|372:24|412:28,1,80
468,152,48061,2,0,P|428:152|388:148,1,80,8|0,1:0|0:0,0:0:0:0:
276,236,48523,1,2,0:0:0:0:
296,256,48638,2,0,P|336:256|376:260,1,80,0|2,0:0|0:0,0:0:0:0:
375,259,48984,2,0,L|388:340,1,80,8|2,1:0|0:0,0:0:0:0:
184,284,49676,5,0,0:0:0:0:
184,284,49907,2,0,L|196:203,1,80,8|0,1:0|0:0,0:0:0:0:
268,140,50369,2,0,P|328:144|388:136,1,120
387,136,50830,1,8,1:0:0:0:
324,56,51061,1,0,0:0:0:0:
228,56,51292,2,0,P|188:56|148:60,1,80,2|0,0:0|0:0,0:0:0:0:
48,188,51753,2,0,P|88:188|128:184,1,80,8|0,1:0|0:0,0:0:0:0:
316,216,52215,2,0,P|320:276|320:336,1,120,2|0,0:0|0:0,0:0:0:0:
340,344,52676,1,8,1:0:0:0:
232,280,52907,1,0,1:0:0:0:
412,252,53138,1,2,1:2:0:0:
412,252,53369,6,0,P|404:176|416:92,1,160
415,93,54061,2,0,P|360:100|296:96,1,120
256,68,54523,2,0,P|216:68|176:76,1,80,8|0,1:0|0:0,0:0:0:0:
168,172,54984,1,0,0:0:0:0:
72,160,55215,1,0,0:0:0:0:
32,248,55446,2,0,P|32:288|36:328,1,80,8|0,1:0|0:0,0:0:0:0:
240,296,55907,2,0,P|243:256|243:216,1,80,2|0,0:0|0:0,0:0:0:0:
212,180,56253,2,0,P|152:180|96:160,1,120,2|2,0:0|0:0,0:0:0:0:
256,56,57061,5,0,0:0:0:0:
256,56,57292,2,0,P|296:56|336:60,1,80,8|0,1:0|0:0,0:0:0:0:
416,116,57753,1,0,0:0:0:0:
448,208,57984,2,0,L|456:248,2,40,0|0|8,0:0|0:0|1:0,0:0:0:0:
332,172,58446,1,0,0:0:0:0:
256,264,58676,5,2,0:0:0:0:
56,164,59138,1,8,1:0:0:0:
188,100,59369,5,0,1:3:0:0:
216,128,59484,1,0,1:3:0:0:
228,164,59599,1,0,1:3:0:0:
216,200,59715,1,0,1:3:0:0:
188,228,59830,1,0,1:3:0:0:
120,320,60061,1,8,1:0:0:0:
296,300,60292,1,0,1:0:0:0:
296,300,60407,1,0,1:0:0:0:
296,300,60523,6,0,L|308:220,1,80,4|0,0:0|0:0,0:0:0:0:
404,204,60984,2,0,L|416:124,1,80,8|0,0:0|0:0,0:0:0:0:
492,64,61446,1,0,0:0:0:0:
400,36,61676,1,0,0:0:0:0:
324,96,61907,1,8,0:0:0:0:
236,56,62138,1,0,0:0:0:0:
160,116,62369,6,0,P|152:156|148:196,1,80,2|2,0:0|0:0,0:0:0:0:
272,312,62830,2,0,P|280:272|284:232,1,80,10|2,0:0|0:0,0:0:0:0:
416,124,63292,2,0,P|412:184|416:244,1,120,2|2,0:0|0:0,0:0:0:0:
440,260,63753,1,8,0:0:0:0:
352,304,63984,2,0,L|272:312,1,80,8|0,0:0|0:0,0:0:0:0:
292,216,64446,5,0,0:0:0:0:
200,244,64676,1,8,0:0:0:0:
168,336,64907,1,0,0:0:0:0:
76,304,65138,2,0,P|76:264|84:224,1,80
220,80,65600,2,0,P|227:119|227:159,1,80,8|0,0:0|0:0,0:0:0:0:
180,244,66061,5,2,0:0:0:0:
324,268,66292,1,2,0:0:0:0:
224,304,66523,1,10,0:0:0:0:
368,328,66754,1,2,0:0:0:0:
432,256,66984,2,0,P|440:196|440:136,1,120,2|2,0:0|0:0,0:0:0:0:
460,116,67446,1,8,1:2:0:0:
364,52,67676,1,8,1:2:0:0:
248,44,67907,6,0,P|208:44|168:48,1,80,0|0,0:0|0:0,0:0:0:0:
80,176,68369,2,0,P|120:176|160:172,1,80,8|0,0:0|0:0,0:0:0:0:
248,132,68830,1,0,0:0:0:0:
304,212,69061,1,0,0:0:0:0:
223,268,69292,2,0,P|184:267|144:271,1,80,8|0,0:0|0:0,0:0:0:0:
300,328,69753,5,2,0:0:0:0:
396,312,69984,1,2,0:0:0:0:
412,216,70215,2,0,L|408:136,1,80,10|2,0:0|0:0,0:0:0:0:
320,92,70676,2,0,P|260:96|200:88,1,120,2|2,0:0|0:0,0:0:0:0:
180,68,71138,1,8,0:0:0:0:
124,148,71369,2,0,L|120:228,1,80,8|0,0:0|0:0,0:0:0:0:
32,308,71830,5,2,0:0:0:0:
0,216,72061,1,8,0:0:0:0:
152,232,72292,1,2,0:0:0:0:
184,324,72523,2,0,P|264:336|336:308,1,160,2|8,0:0|0:0,0:0:0:0:
384,224,73215,1,0,0:0:0:0:
480,236,73446,1,0,0:0:0:0:
420,312,73907,5,8,0:0:0:0:
324,300,74138,1,0,1:0:0:0:
268,224,74369,2,0,L|276:144,1,80,0|0,1:0|1:0,0:0:0:0:
168,172,74830,2,0,L|164:92,1,80,0|0,1:0|1:0,0:0:0:0:
308,48,75292,6,0,P|364:36|424:56,1,120,4|0,0:0|0:0,0:0:0:0:
360,120,75753,2,0,P|304:132|244:112,1,120,4|0,0:0|0:0,0:0:0:0:
232,40,76215,1,4,0:0:0:0:
136,56,76446,1,0,0:0:0:0:
104,148,76676,1,8,0:0:0:0:
136,240,76907,6,0,P|144:280|144:320,1,80,2|0,0:0|0:0,0:0:0:0:
4,260,77369,2,0,P|4:220|12:180,1,80,2|8,0:0|0:0,0:0:0:0:
104,148,77830,1,0,0:0:0:0:
200,164,78061,2,0,P|240:168|280:164,1,80,2|8,0:0|0:0,0:0:0:0:
412,120,78523,1,8,0:0:0:0:
264,68,78753,1,0,0:0:0:0:
412,120,78984,6,0,P|416:80|408:40,1,80,2|0,0:0|0:0,0:0:0:0:
280,164,79446,2,0,P|272:203|276:242,1,80,8|0,0:0|0:0,0:0:0:0:
372,224,79907,1,2,0:0:0:0:
388,320,80138,1,0,0:0:0:0:
248,324,80369,1,8,0:0:0:0:
248,324,80600,6,0,P|172:316|88:332,1,160,2|2,0:0|0:0,0:0:0:0:
90,331,81292,2,0,L|76:252,1,80,8|0,0:0|0:0,0:0:0:0:
200,176,81753,1,2,0:0:0:0:
188,272,81984,1,8,0:0:0:0:
396,300,82446,1,8,0:0:0:0:
384,204,82676,6,0,P|376:144|392:84,1,120,2|0,0:0|0:0,0:0:0:0:
432,60,83138,2,0,P|392:52|352:52,1,80,8|0,0:0|0:0,0:0:0:0:
272,108,83600,1,2,0:0:0:0:
180,76,83830,1,0,0:0:0:0:
92,120,84061,6,0,L|84:200,1,80,8|0,0:0|0:0,0:0:0:0:
180,184,84523,1,2,0:0:0:0:
196,280,84753,1,0,0:0:0:0:
288,248,84984,2,0,P|328:244|368:248,1,80,8|0,0:0|0:0,0:0:0:0:
268,344,85446,2,0,P|228:348|188:344,1,80,2|0,0:0|0:0,0:0:0:0:
104,296,85907,1,8,0:0:0:0:
72,164,86138,5,2,0:0:0:0:
72,164,86369,2,0,P|148:144|216:180,1,160,0|4,0:0|0:0,0:0:0:0:
272,316,87061,1,2,0:0:0:0:
272,316,87292,2,0,P|348:336|416:300,1,160,0|4,0:0|0:0,0:0:0:0:
456,156,87984,2,0,L|468:76,1,80,0|2,0:0|0:0,0:0:0:0:
280,36,88676,5,10,0:0:0:0:
364,208,89138,1,2,0:0:0:0:
184,280,89600,1,10,0:0:0:0:
88,268,89830,1,8,1:2:0:0:
88,268,90061,6,0,P|84:204|104:152,1,120,4|0,0:0|0:0,0:0:0:0:
176,140,90523,2,0,P|236:140|280:100,1,120,4|0,0:0|0:0,0:0:0:0:
336,56,90984,2,0,P|396:56|436:96,1,120,4|0,0:0|0:0,0:0:0:0:
420,168,91446,1,8,0:0:0:0:
448,260,91676,1,0,0:0:0:0:
372,320,91907,6,0,L|292:324,1,80,2|0,0:0|0:0,0:0:0:0:
192,264,92369,2,0,P|176:300|176:340,1,80,8|2,0:0|0:0,0:0:0:0:
328,248,92830,2,0,P|328:208|312:171,1,80,0|8,0:0|0:0,0:0:0:0:
224,128,93292,1,8,0:0:0:0:
156,248,93523,1,0,0:0:0:0:
156,248,93753,6,0,L|76:240,1,80,2|0,0:0|0:0,0:0:0:0:
32,152,94215,1,8,0:0:0:0:
248,224,94446,2,0,L|328:216,1,80,2|0,0:0|0:0,0:0:0:0:
392,100,94907,1,8,0:0:0:0:
392,100,95138,1,8,0:0:0:0:
488,200,95369,6,0,P|492:240|488:280,1,80,0|2,0:0|0:0,0:0:0:0:
384,260,95830,1,0,0:0:0:0:
340,356,96061,1,8,0:0:0:0:
232,320,96292,2,0,P|212:240|232:164,1,160,2|8,0:0|0:0,0:0:0:0:
230,166,97215,1,8,0:0:0:0:
148,228,97446,6,0,P|108:232|68:224,1,80,2|0,0:0|0:0,0:0:0:0:
112,88,97907,2,0,P|172:80|228:96,1,120,8|0,0:0|0:0,0:0:0:0:
256,84,98369,1,0,0:0:0:0:
316,160,98600,2,0,P|356:160|400:168,1,80,2|8,0:0|0:0,0:0:0:0:
452,88,99061,2,0,P|436:164|444:248,1,160,2|2,0:0|0:0,0:0:0:0:
380,320,99753,6,0,P|340:320|296:312,1,80,8|0,0:0|0:0,0:0:0:0:
260,224,100215,1,2,0:0:0:0:
360,184,100446,2,0,P|364:144|360:104,1,80,0|8,0:0|0:0,0:0:0:0:
168,56,100907,5,2,0:0:0:0:
168,56,101138,2,0,P|120:112|144:188,1,160,0|4,0:0|0:0,0:0:0:0:
316,248,101830,1,2,0:0:0:0:
316,248,102061,2,0,P|388:224|444:276,1,160,0|4,0:0|0:0,0:0:0:0:
276,344,102753,2,0,P|236:344|196:332,1,80,0|2,0:0|0:0,0:0:0:0:
84,176,103446,5,10,0:0:0:0:
240,64,103907,1,2,0:0:0:0:
412,148,104369,2,0,B|432:202|405:252|425:307,1,160,10|0,0:0|0:0,0:0:0:0:
256,276,119369,5,0,1:0:0:0:
176,340,119600,2,0,L|96:344,1,80,0|0,1:0|0:0,0:0:0:0:
56,268,120061,2,0,L|136:264,1,80,0|0,1:0|0:0,0:0:0:0:
196,208,120523,1,0,1:0:0:0:
276,192,120753,1,0,0:0:0:0:
340,244,120984,1,0,1:0:0:0:
420,228,121215,6,0,L|440:148,1,80,0|0,0:0|1:0,0:0:0:0:
332,72,121676,2,0,L|351:149,1,80,0|0,0:0|1:0,0:0:0:0:
276,192,122138,1,0,0:0:0:0:
204,152,122369,1,0,1:0:0:0:
236,76,122600,1,0,0:0:0:0:
104,56,122830,5,0,1:0:0:0:
108,64,123061,5,0,1:0:0:0:
112,72,123292,6,0,L|108:152,1,80,0|0,1:0|0:0,0:0:0:0:
80,228,123753,1,0,1:0:0:0:
160,244,123984,1,0,0:0:0:0:
240,228,124215,2,0,L|320:224,1,80,0|0,1:0|0:0,0:0:0:0:
380,280,124676,1,0,1:0:0:0:
308,320,124907,2,0,L|228:324,2,80,0|0|0,0:0|1:0|0:0,0:0:0:0:
452,320,125600,5,0,1:0:0:0:
456,212,125830,1,0,0:0:0:0:
456,212,126061,2,0,L|460:128,1,80,0|0,1:0|0:0,0:0:0:0:
328,88,126523,1,0,1:0:0:0:
320,184,126753,1,0,1:0:0:0:
308,280,126984,6,0,L|224:272,1,80,0|0,1:0|0:0,0:0:0:0:
172,332,127446,2,0,L|88:340,1,80,0|0,1:0|0:0,0:0:0:0:
32,284,127907,1,0,1:0:0:0:
16,204,128138,1,0,0:0:0:0:
96,188,128369,1,0,1:0:0:0:
80,108,128600,1,0,0:0:0:0:
148,64,128830,6,0,L|228:72,1,80,0|0,1:0|0:0,0:0:0:0:
284,132,129292,1,0,1:0:0:0:
364,148,129523,2,0,B|388:128|388:128|392:76,1,80,0|0,0:0|1:0,0:0:0:0:
228,72,129984,2,0,B|204:92|204:92|200:144,1,80,0|0,0:0|1:0,0:0:0:0:
204,272,130446,1,0,1:0:0:0:
204,272,130676,6,0,L|124:280,1,80,0|0,1:0|0:0,0:0:0:0:
52,184,131138,2,0,L|132:192,1,80,0|0,1:0|0:0,0:0:0:0:
212,176,131600,1,0,1:0:0:0:
288,204,131830,1,0,0:0:0:0:
364,172,132061,1,0,1:0:0:0:
436,212,132292,2,0,L|440:292,1,80,0|0,0:0|1:0,0:0:0:0:
336,336,132753,5,0,0:0:0:0:
352,256,132984,1,0,1:0:0:0:
440,276,133215,1,0,0:0:0:0:
424,356,133446,1,0,1:0:0:0:
248,356,133676,1,0,0:0:0:0:
144,328,133907,1,0,1:0:0:0:
40,356,134138,1,0,1:0:0:0:
40,356,134369,6,0,L|44:276,1,80,0|0,1:0|0:0,0:0:0:0:
76,200,134830,1,0,1:0:0:0:
156,184,135061,1,0,0:0:0:0:
228,224,135292,2,0,B|276:236|276:236|304:224,1,80,0|0,1:0|0:0,0:0:0:0:
456,80,135753,5,0,1:0:0:0:
456,80,135984,2,0,B|408:68|408:68|380:80,1,80,0|0,0:0|1:0,0:0:0:0:
328,151,136446,1,0,0:0:0:0:
380,224,136676,1,0,1:0:0:0:
328,296,136907,1,0,0:0:0:0:
400,348,137138,2,0,L|480:356,2,80,0|0|0,1:0|0:0|1:0,0:0:0:0:
240,308,137830,1,0,1:0:0:0:
240,308,138061,6,0,L|160:311,1,80,0|0,1:0|0:0,0:0:0:0:
84,280,138523,1,0,1:0:0:0:
144,224,138753,1,0,0:0:0:0:
224,240,138984,1,0,1:0:0:0:
288,188,139215,2,0,B|308:160|308:160|304:112,1,80,0|0,0:0|1:0,0:0:0:0:
240,64,139676,1,0,0:0:0:0:
168,104,139907,6,0,L|88:100,1,80,0|0,1:0|0:0,0:0:0:0:
52,176,140369,2,0,B|72:204|72:204|68:252,1,80,0|0,1:0|0:0,0:0:0:0:
116,328,140830,1,0,1:0:0:0:
208,340,141061,2,0,L|288:336,1,80,0|0,0:0|1:0,0:0:0:0:
336,240,141523,1,0,1:0:0:0:
228,228,141753,5,0,1:0:0:0:
176,324,141984,1,0,0:0:0:0:
80,260,142215,2,0,L|92:180,1,80,0|0,1:0|0:0,0:0:0:0:
148,104,142676,1,0,1:0:0:0:
240,132,142907,1,0,0:0:0:0:
328,96,143138,1,0,1:0:0:0:
416,132,143369,2,0,L|424:216,1,80,0|0,0:0|1:0,0:0:0:0:
432,308,143830,5,0,0:0:0:0:
336,248,144061,1,0,1:0:0:0:
420,172,144292,1,0,0:0:0:0:
336,96,144523,1,0,1:0:0:0:
240,172,144753,2,0,L|160:176,1,80,0|0,0:0|1:0,0:0:0:0:
60,108,145215,1,0,1:0:0:0:
192,72,145446,5,0,1:0:0:0:
144,200,145676,1,0,0:0:0:0:
12,164,145907,1,0,1:0:0:0:
156,132,146138,1,0,0:0:0:0:
288,168,146369,5,0,1:0:0:0:
420,100,146600,1,0,0:0:0:0:
288,64,146831,1,0,1:0:0:0:
360,188,147061,1,0,0:0:0:0:
492,152,147292,5,0,1:0:0:0:
508,180,147407,1,0,1:0:0:0:
512,212,147523,1,0,1:0:0:0:
508,244,147638,1,0,1:0:0:0:
492,272,147753,2,0,L|452:280,3,40,0|0|0|0,1:0|1:0|1:0|1:0,0:0:0:0:
420,272,148215,5,0,1:0:0:0:
388,264,148330,1,0,1:0:0:0:
356,268,148446,1,0,1:0:0:0:
328,284,148561,1,0,1:0:0:0:
308,308,148676,2,0,L|288:304,6,20
276,296,149138,6,0,P|280:232|268:168,1,128,4|8,0:0|0:0,0:0:0:0:
152,240,150061,2,0,P|92:264|32:252,1,128,0|8,0:0|0:0,0:0:0:0:
200,144,150984,2,0,P|261:131|320:155,1,128,0|8,0:0|0:0,0:0:0:0:
376,244,151907,1,0,0:0:0:0:
436,276,152138,1,8,0:0:0:0:
434,208,152369,2,0,P|434:140|442:76,1,128,8|0,0:0|0:0,0:0:0:0:
348,32,153292,5,8,0:0:0:0:
284,112,153753,2,0,P|220:120|164:92,1,128,0|8,0:0|0:0,0:0:0:0:
80,32,154676,1,0,0:0:0:0:
4,100,155138,1,8,0:0:0:0:
88,160,155600,1,0,0:0:0:0:
28,208,155830,1,8,0:0:0:0:
104,295,156061,2,0,P|102:264|97:232,1,64,8|0,0:0|0:0,0:0:0:0:
156,188,156523,6,0,P|220:176|276:200,1,128,0|8,0:0|0:0,0:0:0:0:
320,324,157446,2,0,P|381:335|438:307,1,128,0|8,0:0|0:0,0:0:0:0:
464,208,158369,1,0,0:0:0:0:
436,108,158830,1,8,0:0:0:0:
340,68,159292,1,0,0:0:0:0:
280,96,159523,1,8,0:0:0:0:
280,96,159753,2,0,P|248:100|216:92,1,64,8|0,0:0|0:0,0:0:0:0:
176,40,160215,6,0,P|112:36|68:80,1,128,0|8,0:0|0:0,0:0:0:0:
84,144,160907,2,0,P|92:176|92:208,1,64
44,252,161369,1,8,0:0:0:0:
84,304,161600,2,0,P|116:300|148:308,1,64,8|0,0:0|0:0,0:0:0:0:
200,348,162061,6,0,P|264:364|320:340,3,128,0|8|0|8,0:0|0:0|0:0|0:0,0:0:0:0:
384,80,163907,5,4,0:0:0:0:
436,256,164369,2,0,P|380:264|324:236,1,120,4|0,0:0|0:0,0:0:0:0:
292,172,164830,2,0,P|252:168|212:180,1,80,4|0,0:0|0:0,0:0:0:0:
172,268,165292,1,8,0:0:0:0:
76,248,165523,1,0,0:0:0:0:
20,168,165753,6,0,P|20:128|28:88,1,80,2|0,0:0|0:0,0:0:0:0:
220,56,166215,2,0,P|227:95|227:135,1,80,8|2,0:0|0:0,0:0:0:0:
128,124,166676,1,0,0:0:0:0:
116,220,166907,1,8,0:0:0:0:
252,216,167138,2,0,P|292:216|332:224,1,80,8|0,0:0|0:0,0:0:0:0:
400,292,167600,5,2,0:0:0:0:
316,340,167830,1,0,0:0:0:0:
316,340,168061,2,0,P|236:344|160:316,1,160,8|0,0:0|0:0,0:0:0:0:
112,208,168753,1,8,0:0:0:0:
216,236,168984,1,8,0:0:0:0:
40,288,169215,1,0,0:0:0:0:
124,172,169446,6,0,P|127:212|122:252,1,80,2|0,0:0|0:0,0:0:0:0:
16,148,169907,2,0,P|13:108|18:68,1,80,8|2,0:0|0:0,0:0:0:0:
17,68,170600,1,8,0:0:0:0:
152,88,170830,1,0,1:0:0:0:
280,40,171061,1,8,1:2:0:0:
280,40,171292,6,0,P|292:100|288:160,1,120,4|0,0:0|0:0,0:0:0:0:
276,172,171753,2,0,P|316:172|356:180,1,80,8|0,0:0|0:0,0:0:0:0:
412,260,172215,1,2,0:0:0:0:
304,260,172446,1,0,0:0:0:0:
360,352,172676,1,8,0:0:0:0:
412,260,172907,6,0,P|420:184|408:100,1,160,2|2,0:0|0:0,0:0:0:0:
216,80,173600,2,0,P|212:120|216:160,1,80,8|0,0:0|0:0,0:0:0:0:
296,216,174061,1,2,0:0:0:0:
308,312,174292,1,0,0:0:0:0:
220,352,174523,1,8,0:0:0:0:
64,316,174753,5,2,0:0:0:0:
64,316,174984,2,0,P|48:240|84:168,1,160,0|4,0:0|0:0,0:0:0:0:
272,200,175676,1,2,0:0:0:0:
272,200,175907,2,0,P|344:224|412:184,1,160,0|4,0:0|0:0,0:0:0:0:
440,92,176600,6,0,L|444:48,2,40,2|0|4,0:0|0:0|1:0,0:0:0:0:
336,144,177061,1,0,1:0:0:0:
340,164,177176,1,0,1:0:0:0:
260,240,177407,1,0,1:0:0:0:
256,220,177522,1,0,1:0:0:0:
176,296,177753,1,0,1:0:0:0:
180,316,177869,2,0,P|120:308|60:320,1,120,0|0,1:0|1:0,0:0:0:0:
24,276,178330,1,0,1:0:0:0:
0,220,178446,1,0,1:0:0:0:
8,160,178561,1,0,1:0:0:0:
56,128,178676,6,0,P|112:112|168:132,1,120,4|0,0:0|0:0,0:0:0:0:
196,200,179138,2,0,P|236:244|296:244,1,120,4|0,0:0|0:0,0:0:0:0:
360,212,179600,2,0,P|392:160|388:104,1,120,4|0,0:0|0:0,0:0:0:0:
344,44,180061,1,8,0:0:0:0:
256,88,180292,6,0,P|184:92|96:76,1,160,2|2,0:0|0:0,0:0:0:0:
16,172,180984,2,0,P|56:172|96:180,1,80,8|2,0:0|0:0,0:0:0:0:
60,272,181446,1,0,0:0:0:0:
168,332,181676,1,8,0:0:0:0:
288,300,181907,1,8,0:0:0:0:
376,344,182138,1,0,0:0:0:0:
376,344,182369,6,0,L|456:352,1,80,2|0,0:0|0:0,0:0:0:0:
504,264,182830,2,0,P|508:224|504:184,1,80,8|0,0:0|0:0,0:0:0:0:
304,108,183292,2,0,P|300:147|304:187,1,80,2|0,0:0|0:0,0:0:0:0:
360,268,183753,1,8,0:0:0:0:
268,300,183984,6,0,L|184:304,1,80,2|0,0:0|0:0,0:0:0:0:
108,360,184446,1,2,0:0:0:0:
16,260,184676,1,8,0:0:0:0:
104,216,184907,2,0,L|120:136,1,80,2|0,0:0|0:0,0:0:0:0:
44,48,185369,5,8,0:0:0:0:
24,152,185600,1,0,1:0:0:0:
204,152,185830,1,8,1:2:0:0:
204,152,186061,6,0,P|264:152|324:168,1,120,2|0,0:0|0:0,0:0:0:0:
328,176,186523,2,0,P|336:140|336:96,1,80,8|0,0:0|0:0,0:0:0:0:
472,52,186984,2,0,P|464:88|464:132,1,80,2|0,0:0|0:0,0:0:0:0:
496,224,187446,1,8,0:0:0:0:
416,280,187676,6,0,P|340:292|264:264,1,160,2|2,0:0|0:0,0:0:0:0:
228,172,188369,1,8,0:0:0:0:
308,116,188600,1,0,0:0:0:0:
388,172,188830,2,0,P|392:212|388:252,1,80,2|0,0:0|0:0,0:0:0:0:
228,172,189292,2,0,P|224:132|228:92,1,80,8|2,0:0|0:0,0:0:0:0:
148,36,189753,6,0,P|72:52|48:124,1,160,0|4,0:0|0:0,0:0:0:0:
108,260,190446,2,0,P|148:260|188:268,1,80,2|0,0:0|0:0,0:0:0:0:
280,332,190907,2,0,P|320:332|360:324,1,80,2|4,0:0|0:0,0:0:0:0:
420,228,191369,1,0,0:0:0:0:
412,84,191600,5,2,0:0:0:0:
224,36,192061,1,10,0:0:0:0:
72,152,192523,1,2,0:0:0:0:
48,344,192984,1,10,0:0:0:0:
144,356,193215,1,8,1:2:0:0:
236,332,193446,6,0,P|292:324|356:332,1,120,4|0,0:0|0:0,0:0:0:0:
432,340,193907,2,0,P|424:280|448:224,1,120,4|0,0:0|0:0,0:0:0:0:
496,172,194369,2,0,P|504:108|480:60,1,120,4|0,0:0|0:0,0:0:0:0:
412,32,194830,2,0,L|332:28,1,80,8|0,0:0|0:0,0:0:0:0:
208,112,195292,5,2,0:0:0:0:
272,236,195523,1,0,0:0:0:0:
176,336,195753,2,0,P|136:340|96:328,1,80,8|2,0:0|0:0,0:0:0:0:
194,229,196215,2,0,P|233:225|272:236,1,80,0|8,0:0|0:0,0:0:0:0:
328,316,196676,1,8,0:0:0:0:
472,256,196907,1,0,0:0:0:0:
472,256,197138,6,0,L|480:172,1,80,2|0,0:0|0:0,0:0:0:0:
408,108,197600,1,8,0:0:0:0:
244,184,197830,2,0,P|204:184|164:176,1,80,2|0,0:0|0:0,0:0:0:0:
96,48,198292,1,8,0:0:0:0:
96,48,198523,1,8,0:0:0:0:
244,104,198753,6,0,P|248:148|244:184,1,80,0|2,0:0|0:0,0:0:0:0:
132,200,199215,1,0,0:0:0:0:
152,312,199446,1,8,0:0:0:0:
264,344,199676,2,0,P|340:352|416:320,1,160,2|8,0:0|0:0,0:0:0:0:
415,320,200600,1,8,0:0:0:0:
372,232,200830,6,0,P|368:188|372:152,1,80,2|0,0:0|0:0,0:0:0:0:
272,44,201292,2,0,P|272:104|256:164,1,120,8|0,0:0|0:0,0:0:0:0:
228,156,201753,1,0,0:0:0:0:
260,252,201984,2,0,P|300:252|340:268,1,80,2|8,0:0|0:0,0:0:0:0:
204,340,202446,6,0,P|124:352|60:312,1,160,2|2,0:0|0:0,0:0:0:0:
152,204,203138,2,0,P|160:168|156:124,1,80,8|0,0:0|0:0,0:0:0:0:
12,64,203600,2,0,P|3:102|7:142,1,80,2|0,0:0|0:0,0:0:0:0:
56,228,204061,1,8,0:0:0:0:
248,196,204292,5,2,0:0:0:0:
248,196,204523,2,0,P|328:184|384:232,1,160,0|4,0:0|0:0,0:0:0:0:
284,336,205215,1,2,0:0:0:0:
164,304,205446,1,0,0:0:0:0:
56,364,205676,2,0,L|40:284,1,80,2|4,0:0|0:0,0:0:0:0:
20,168,206138,1,0,0:0:0:0:
112,68,206369,5,2,0:0:0:0:
304,44,206830,1,10,0:0:0:0:
480,124,207292,1,2,1:2:0:0:
480,124,207523,1,0,1:0:0:0:
480,124,207753,2,0,P|484:144|480:168,1,40,8|0,1:2|1:0,0:0:0:0:
420,184,207984,2,0,P|416:164|420:140,1,40,2|0,1:2|0:0,0:0:0:0:
408,120,208215,6,0,P|332:96|272:140,1,160,0|4,0:0|0:0,0:0:0:0:
200,260,208907,2,0,P|160:264|120:252,1,80,2|0,0:0|0:0,0:0:0:0:
88,136,209369,1,2,0:0:0:0:
208,112,209600,2,0,P|248:108|288:120,1,80,4|0,0:0|0:0,0:0:0:0:
320,264,210061,5,2,0:0:0:0:
504,324,210523,1,10,0:0:0:0:
460,136,210984,1,2,0:0:0:0:
400,320,211446,1,10,1:2:0:0:
308,352,211676,1,0,1:2:0:0:
228,296,211907,6,0,P|216:212|248:144,1,160,0|4,0:0|0:0,0:0:0:0:
408,184,212600,1,2,0:0:0:0:
408,184,212830,2,0,P|416:104|368:44,1,160,0|4,0:0|0:0,0:0:0:0:
256,104,213523,1,0,0:0:0:0:
136,60,213753,5,2,0:0:0:0:
40,228,214215,1,2,0:0:0:0:
184,356,214676,1,2,0:0:0:0:
364,284,215138,2,0,B|384:230|357:180|377:125,1,160,2|0,0:0|0:0,0:0:0:0:
448,96,215830,6,0,P|452:128|448:160,1,64,2|0,0:0|0:0,0:0:0:0:
384,204,216292,2,0,P|320:216|260:196,1,128,2|2,0:0|0:0,0:0:0:0:
208,140,216984,1,0,0:0:0:0:
140,180,217215,1,2,0:0:0:0:
256,192,217330,12,0,222061,0:0:0:0:
