osu file format v6

[General]
AudioFilename: Similar to the love.mp3
AudioLeadIn: 0
PreviewTime: -1
Countdown: 1
SampleSet: Normal
StackLeniency: 0.7
Mode: 0
LetterboxInBreaks: 1

[Editor]
DistanceSpacing: 1
BeatDivisor: 4
GridSize: 8

[Metadata]
Title:Similar to the love
Artist:elva
Creator:freefish
Version:Normal
Source:
Tags:

[Difficulty]
HPDrainRate:4
CircleSize:5
OverallDifficulty:6
SliderMultiplier:1
SliderTickRate:1

[Events]
//Background and Video events
0,0,"Similar to the love.jpg"
//Break Periods
2,129524,153874
//Storyboard Layer 0 (Background)
//Storyboard Layer 1 (Fail)
//Storyboard Layer 2 (Pass)
//Storyboard Layer 3 (Foreground)
//Storyboard Sound Samples
//Background Colour Transformations
3,100,163,162,255

[TimingPoints]
26924,400,4,1,0,40,1,0
26926,-100,4,1,0,40,0,0

[HitObjects]
112,64,26924,1,0
184,64,27324,1,0
256,64,27724,1,0
328,64,28124,2,0,B|432:64,1,100
432,136,28924,6,0,B|320:136,2,100
440,208,30124,5,0
368,208,30524,1,0
296,208,30924,1,0
224,208,31324,2,0,B|120:208,1,100
96,80,32924,5,0
168,80,33324,1,0
240,80,33724,1,0
360,80,34524,1,0
408,80,34724,1,0
456,80,34924,1,0
456,168,35324,2,0,B|352:168,1,100
280,168,36124,1,0
128,168,36924,1,0
256,192,37524,12,0,39224
256,184,39724,5,0
344,184,40124,1,0
432,184,40524,1,0
424,264,40924,2,0,B|312:264,1,100
256,192,42924,5,0
176,192,43324,1,0
96,192,43724,1,0
104,264,44124,2,0,B|208:264,1,100
96,80,45724,5,0
96,80,46124,1,0
96,80,46524,1,0
192,80,47324,1,0
240,80,47524,1,0
288,80,47724,1,0
96,192,48124,5,0
256,168,48924,1,0
256,208,49124,1,0
424,192,49924,1,0
256,192,50424,12,0,51924
144,96,52524,6,0,B|32:96,2,100
224,96,53724,1,0
296,96,54124,1,0
304,168,55724,6,0,B|200:168,2,100
384,168,56924,1,0
456,168,57324,1,0
152,72,58124,6,0,B|104:168|168:264,1,200
168,264,59324,5,0
208,264,59524,1,0
256,264,59724,1,0
160,160,60324,2,0,B|224:88|296:160,1,150
288,152,61524,2,0,B|384:152|376:152,2,75
288,152,62524,1,0
256,192,62924,12,0,64524
112,96,65324,5,0
192,96,65724,1,0
272,96,66124,1,0
352,96,66524,2,0,B|456:96|440:192|440:208,2,150
104,192,68524,6,0,B|216:192,1,100
312,192,69324,1,0
256,88,69724,1,0
256,296,70124,1,0
104,88,71324,5,0
408,88,71724,1,0
256,296,72124,1,0
216,192,72924,5,0
256,192,73124,1,0
296,192,73324,1,0
360,192,74124,6,0,B|472:192|464:296,2,175
144,96,77324,5,0
384,96,77724,1,0
384,280,78124,1,0
184,280,78924,2,0,B|72:280,2,100
144,288,80524,5,0
384,288,80924,1,0
376,96,81324,1,0
144,96,81724,1,0
256,192,82124,1,0
384,192,82524,6,0,B|496:192,1,100
256,192,83724,5,0
112,192,84124,2,0,B|0:192,1,100
112,248,84924,2,0,B|8:248,2,100
112,312,86124,5,0
184,312,86524,1,0
240,256,86924,1,0
184,200,87324,1,0
112,200,87724,1,0
256,192,88124,12,0,90124
256,192,90524,5,0
296,192,90724,1,0
336,192,90924,1,0
296,264,91324,1,0
440,304,92124,5,0
256,64,92524,1,0
88,296,92924,1,0
256,240,93724,6,0,B|256:360,2,100
256,136,95324,1,0
128,64,96124,5,0
256,64,96524,1,0
384,64,96924,1,0
384,192,98124,2,0,L|336:280|272:192,1,200
128,192,99724,2,0,L|192:280|240:192,1,200
384,104,100924,5,0
336,104,101124,1,0
288,104,101324,1,0
240,104,101524,1,0
192,104,101724,1,0
144,104,101924,1,0
96,104,102124,1,0
400,312,102924,5,0
256,312,103324,1,0
112,312,103724,1,0
112,184,104524,2,0,B|160:136|208:192,1,100
200,184,105324,2,0,B|256:144|296:192,1,100
256,112,106124,5,0
144,272,106524,1,0
360,272,106924,1,0
360,112,107324,1,0
144,112,107724,1,0
256,272,108124,2,0,B|256:168,1,100
96,80,109324,5,0
168,80,109724,2,0,B|288:80,1,100
272,160,110524,1,0
200,160,110924,2,0,B|96:160,1,100
104,240,111724,5,0
176,240,112124,1,0
248,240,112524,1,0
320,240,112924,2,0,B|368:152|304:88,1,150
416,112,114124,5,0
416,152,114324,1,0
416,192,114524,1,0
416,232,114724,1,0
416,272,114924,1,0
128,96,116124,5,0
168,96,116324,1,0
208,96,116524,1,0
352,96,116924,1,0
352,96,117724,1,0
352,96,118124,6,0,B|352:200|240:192,1,150
320,200,119324,2,0,B|384:152|424:216,1,100
416,264,120124,2,0,B|368:296|320:264,1,100
256,240,120924,1,0
120,88,121724,5,0
384,96,122124,1,0
120,288,122524,1,0
320,280,123524,2,0,B|424:280|432:280,2,100
216,280,125124,2,0,L|128:184|224:96,1,250
288,96,126524,2,0,L|376:176|296:288|296:280,1,250
256,192,127924,12,0,129324
112,96,154924,5,0
192,96,155324,1,0
272,96,155724,1,0
352,96,156124,1,0
432,96,156524,1,0
384,168,158124,6,0,B|336:264|392:320,1,150
320,240,158924,1,0
248,312,159324,2,0,B|296:224|256:168,1,150
96,200,160924,5,0
176,136,161324,1,0
256,80,161724,1,0
344,136,162124,1,0
424,192,162524,1,0
416,264,162924,6,0,B|360:312|272:272,1,150
275,275,163724,2,0,B|176:312|80:264,1,200
80,208,164824,2,0,B|184:176|280:216,1,200
256,192,166024,12,0,167324
144,112,167724,5,0
368,104,168124,1,0
144,288,168524,1,0
368,288,168924,1,0
256,192,169324,1,0
256,160,170924,6,0,B|256:272,2,100
200,64,172124,1,0
312,64,172524,1,0
224,160,173324,6,0,B|184:128,2,50
288,160,174124,2,0,B|328:120,2,50
200,224,175324,5,0
240,224,175524,1,0
280,224,175724,1,0
392,224,176124,1,0
440,280,176524,1,0
384,328,177024,6,0,B|296:368|208:320,1,175
144,320,178124,5,0
144,272,178324,1,0
144,224,178524,1,0
144,176,178724,1,0
144,128,178924,1,0
80,88,180524,5,0
200,88,180924,1,0
200,200,181324,1,0
72,200,181724,1,0
136,240,182124,2,0,B|136:352,2,100
312,304,183724,5,0
440,304,184124,1,0
440,192,184524,1,0
320,192,184924,1,0
384,104,185324,1,0
312,152,186524,6,0,B|208:72|120:152,1,200
128,144,188524,1,0
128,144,188924,1,0
128,216,189324,2,0,B|232:216,3,100
112,304,191324,5,0
160,304,191524,1,0
208,304,191724,1,0
256,304,191924,1,0
304,304,192124,1,0
160,120,193324,5,0
352,120,193724,1,0
360,272,194124,1,0
160,272,194524,1,0
256,192,194924,1,0
256,192,196524,5,0
152,272,196924,1,0
360,272,197324,1,0
352,120,197724,1,0
256,192,198524,1,0
168,192,199324,6,0,B|64:192|64:192|56:192,1,100
168,192,200124,1,0
168,192,200924,1,0
168,192,201124,1,0
168,192,201324,1,0
240,192,201724,1,0
240,192,202124,2,0,B|352:192,1,100
472,192,203324,5,0
256,192,203724,12,0,204924
72,184,205324,5,0
136,112,205724,1,0
216,112,206124,2,0,B|288:128|288:192,1,100
352,176,206924,2,0,B|352:120|424:120,1,100
464,184,207724,1,0
464,184,208524,5,0
400,120,208924,1,0
328,112,209324,2,0,B|256:112|256:192,1,100
192,168,210124,2,0,B|192:104|112:104,1,100
80,176,210924,1,0
80,176,211724,5,0
256,304,212124,1,0
440,184,212524,1,0
256,64,212924,1,0
144,64,213324,6,0,L|144:184|224:184,1,200
288,128,214524,6,6,B|319:25|455:113|423:209|279:217|287:137,3,300
200,192,218524,6,0,L|248:280|296:192,2,200
368,224,220524,6,0,B|432:224|432:224|440:144|344:144|328:216|344:280|408:288,2,300
384,144,223324,1,0
144,104,224124,5,0
136,288,224524,1,0
360,288,224924,1,0
360,160,225724,2,0,L|360:56,2,100
360,160,226924,1,0
360,160,227724,1,0
360,160,228124,1,0
216,80,228924,5,0
264,80,229124,1,0
264,128,229324,1,0
216,128,229524,1,0
216,168,229724,1,0
264,168,229924,1,0
264,208,230124,1,0
320,160,230924,6,0,B|320:96|392:96,1,100
320,232,231724,2,0,B|320:296|240:296,1,100
272,192,232524,2,0,B|200:192|200:128,1,100
360,192,233324,2,0,B|416:192|416:264,1,100
360,304,234124,5,0
128,304,234524,1,0
128,88,234924,1,0
360,96,235324,1,0
256,192,235724,1,0
160,192,236124,6,0,B|40:192,1,100
256,192,237324,1,0
376,192,237724,2,0,B|480:192,1,100
376,256,238524,2,0,B|480:256,2,100
328,312,239724,5,0
248,312,240124,1,0
200,248,240524,1,0
248,176,240924,1,0
328,176,241324,1,0
400,64,242124,5,0
352,64,242324,1,0
304,64,242524,1,0
224,64,242924,1,0
176,64,243124,1,0
128,64,243324,1,0
120,272,244124,6,0,B|200:304|272:264,1,150
264,208,244924,2,0,B|176:176|104:216,1,150
117,209,245724,1,0
120,208,246124,1,0
120,296,246524,1,0
120,88,247324,5,0
256,88,248124,1,0
400,88,248924,1,0
96,192,249724,5,0
168,192,250124,2,0,L|272:192,1,100
256,192,250924,12,0,251724
176,192,252124,5,0
176,192,252324,1,0
176,192,252524,1,0
328,192,252924,1,0
328,192,253124,1,0
328,192,253324,1,0
264,88,253724,6,0,L|376:88|376:88|384:88,1,100
368,160,254524,6,0,L|368:264,1,100
264,256,255324,6,0,L|264:152,1,100
256,192,256124,12,0,257324
