osu file format v14

[General]
AudioFilename: dilemma.mp3
AudioLeadIn: 0
PreviewTime: 39040
Countdown: 0
SampleSet: Soft
StackLeniency: 0.4
Mode: 0
LetterboxInBreaks: 0
WidescreenStoryboard: 0

[Editor]
Bookmarks: 8781,19345,30363,35074,35157,35239,39123,60214,76038,86922,94496,99286
DistanceSpacing: 1
BeatDivisor: 4
GridSize: 32
TimelineZoom: 2.4

[Metadata]
Title:Dilemma
TitleUnicode:ジレンマ
Artist:ecosystem
ArtistUnicode:ecosystem
Creator:pkhg
Version:Hard
Source:銀魂´
Tags:atsuro battle gintama' gintama gintoki kagura shinpachi sunrise tv size 2012 enchousen
BeatmapID:920149
BeatmapSetID:418313

[Difficulty]
HPDrainRate:6
CircleSize:4
OverallDifficulty:6
ApproachRate:8
SliderMultiplier:1.4
SliderTickRate:1

[Events]
//Background and Video events
Video,-65,"dilemma.avi"
0,0,"gintama_up_by_gin_uzumaki-d8p5403.jpg",0,0
//Break Periods
//Storyboard Layer 0 (Background)
//Storyboard Layer 1 (Fail)
//Storyboard Layer 2 (Pass)
//Storyboard Layer 3 (Foreground)
//Storyboard Sound Samples

[TimingPoints]
1550,322.58064516129,7,2,1,60,1,0
3808,331.491712707182,7,2,1,60,1,0
7439,330.123796423659,4,2,1,60,1,0
8781,330.123796423659,4,2,1,60,1,0
21979,327.868852459016,4,2,1,60,1,0
27224,333.333333333333,4,2,1,60,1,0
28557,326.086956521739,4,2,1,60,1,0
29861,330.578512396694,4,2,1,60,1,0
36472,324.499729583559,4,2,1,60,1,0
37769,336.889387984279,4,2,1,60,1,0
39032,-100,4,2,1,5,0,0
39116,329.67032967033,4,2,1,60,1,0
57495,-100,4,2,1,5,0,0
57577,324.324324324324,4,2,1,60,1,0
58874,333.333333333333,4,2,1,60,1,0
60214,329.67032967033,4,2,1,60,1,1
70681,-100,4,2,1,60,0,0
70763,-100,4,2,1,60,0,1
76038,325.55615843733,4,2,1,60,1,1
77991,333.333333333333,4,2,1,60,1,1
78657,333.333333333333,4,2,1,60,1,1
81240,-100,4,2,1,60,0,0
81324,329.308452250274,4,2,1,60,1,1
81406,-100,4,2,1,60,0,0
94496,330.396475770925,7,2,1,60,1,0

[Colours]
Combo1 : 58,58,58
Combo2 : 216,216,216
Combo3 : 255,66,66

[HitObjects]
66,157,1550,6,0,L|143:153,1,70,2|2,0:0|0:0,0:0:0:0:
135,153,2033,1,0,0:0:0:0:
193,91,2195,2,0,L|270:95,1,70,2|2,0:0|0:0,0:0:0:0:
262,94,2679,1,0,0:0:0:0:
322,152,2840,2,0,L|399:148,1,70,2|2,0:0|0:0,0:0:0:0:
391,148,3324,1,0,0:0:0:0:
441,81,3485,2,0,L|437:4,1,70,8|0,0:0|0:0,0:0:0:0:
391,148,3808,6,0,L|397:257,1,105,4|8,0:0|0:0,0:0:0:0:
405,265,4139,2,0,L|326:275,1,70,0|8,0:0|0:0,0:0:0:0:
264,319,4470,2,0,L|156:314,1,105,2|8,0:1|0:0,0:0:0:0:
145,321,4802,2,0,L|150:247,1,70,0|8,0:0|0:0,0:0:0:0:
107,178,5133,6,0,L|100:64,1,105,2|8,0:1|0:0,0:0:0:0:
89,63,5465,2,0,L|161:53,1,70,0|8,0:0|0:0,0:0:0:0:
229,98,5796,2,0,L|298:102,1,70,4|0,0:0|0:0,0:0:0:0:
316,97,6045,1,8,0:0:0:0:
332,90,6128,6,0,L|341:220,1,105,4|8,0:0|0:0,0:0:0:0:
351,202,6459,2,0,L|356:271,1,70,0|8,0:0|0:0,0:0:0:0:
274,248,6791,2,0,P|231:236|174:272,1,105,2|8,0:1|0:0,0:0:0:0:
182,274,7122,2,0,L|113:267,1,70,0|8,0:0|0:0,0:0:0:0:
41,220,7439,5,4,0:0:0:0:
58,133,7604,1,0,0:0:0:0:
58,133,7686,1,0,0:0:0:0:
58,133,7769,2,0,L|73:90,3,35,8|0|0|0,0:0|1:0|1:0|1:0,0:0:0:0:
85,82,8099,2,0,L|119:53,3,35,8|0|0|0,0:0|1:0|1:0|1:0,0:0:0:0:
137,51,8429,1,8,1:2:0:0:
154,80,8511,1,8,1:2:0:0:
184,99,8594,1,8,1:2:0:0:
218,102,8676,1,8,1:2:0:0:
251,89,8781,6,0,P|302:46|380:64,2,140,4|8|2,0:0|0:0|0:1,0:0:0:0:
260,173,9606,1,2,0:1:0:0:
342,186,9771,2,0,P|339:152|326:119,1,70,8|0,0:0|0:0,0:0:0:0:
251,89,10101,5,2,0:1:0:0:
251,89,10266,1,2,0:1:0:0:
212,14,10431,2,0,L|202:157,1,140,8|2,0:0|0:1,0:0:0:0:
234,231,10926,1,2,0:1:0:0:
150,225,11091,2,0,L|78:233,1,70,8|0,0:0|0:0,0:0:0:0:
234,231,11421,6,0,L|306:223,1,70,2|2,0:1|0:1,0:0:0:0:
355,157,11752,2,0,L|346:300,1,140,8|2,0:0|0:1,0:0:0:0:
283,352,12247,1,2,0:1:0:0:
208,313,12412,2,0,P|179:308|129:312,1,70,8|0,0:0|0:0,0:0:0:0:
62,346,12742,5,2,0:1:0:0:
62,346,12907,1,2,0:1:0:0:
26,269,13072,2,0,L|35:128,1,140,8|2,0:0|0:1,0:0:0:0:
84,61,13567,1,2,0:1:0:0:
154,106,13732,2,0,L|227:96,1,70,8|0,0:0|0:0,0:0:0:0:
307,102,14062,5,4,0:0:0:0:
307,102,14228,1,2,0:1:0:0:
266,28,14393,2,0,L|259:172,1,140,8|2,0:0|0:1,0:0:0:0:
311,233,14888,1,2,0:1:0:0:
377,181,15053,2,0,L|449:171,1,70,8|0,0:0|0:0,0:0:0:0:
311,233,15383,6,0,L|241:223,1,70,2|2,0:1|0:1,0:0:0:0:
191,155,15713,2,0,B|175:191|191:223|191:223|207:255|191:291,1,140,8|2,0:0|0:1,0:0:0:0:
126,343,16208,1,2,0:1:0:0:
80,272,16373,2,0,L|77:199,1,70,8|0,0:0|0:0,0:0:0:0:
83,185,16621,1,8,0:0:0:0:
90,169,16703,6,0,L|93:96,2,70,4|2|8,0:0|0:1|0:0,0:0:0:0:
152,224,17199,1,0,0:0:0:0:
169,141,17364,2,0,L|196:73,2,70,2|2|8,0:1|0:1|0:0,0:0:0:0:
230,202,17859,1,0,0:0:0:0:
257,122,18024,6,0,L|306:68,2,70,2|2|12,0:1|0:1|0:0,0:0:0:0:
230,202,18519,1,0,0:0:0:0:
312,187,18684,2,0,L|350:182,3,35,0|0|0|0,1:0|1:0|1:0|1:0,0:0:0:0:
374,173,19014,2,0,L|432:180,2,35,2|2|4,0:1|0:1|0:3,0:0:0:0:
476,140,19344,6,0,L|482:67,2,70,4|0|8,0:0|0:0|0:0,0:0:0:0:
430,209,19840,2,0,P|366:227|312:187,1,140,2|2,0:1|0:1,0:0:0:0:
293,105,20335,1,8,0:0:0:0:
293,105,20665,6,0,L|286:30,2,70,2|2|8,0:1|0:1|0:0,0:0:0:0:
238,169,21160,2,0,L|228:315,1,140,2|2,0:1|0:1,0:0:0:0:
172,370,21655,1,8,0:0:0:0:
109,314,21820,1,0,0:0:0:0:
109,314,21979,6,0,L|102:226,1,70,2|2,0:1|0:1,0:0:0:0:
155,178,22306,2,0,L|162:90,1,70,8|2,0:0|0:1,0:0:0:0:
120,32,22634,1,0,0:0:0:0:
198,2,22798,2,0,L|272:12,1,70,2|8,0:1|0:0,0:0:0:0:
337,59,23126,1,0,0:0:0:0:
337,59,23290,6,0,L|411:49,2,70,2|2|8,0:1|0:1|0:0,0:0:0:0:
271,112,23782,2,0,L|263:266,1,140,2|2,0:1|0:1,0:0:0:0:
275,265,24192,1,2,0:1:0:0:
286,278,24274,2,0,L|364:270,1,70,12|0,0:0|0:0,0:0:0:0:
214,312,24601,6,0,L|144:304,1,70,4|2,0:0|0:1,0:0:0:0:
95,236,24929,1,8,0:0:0:0:
45,303,25093,2,0,L|57:159,1,140,2|2,0:1|0:1,0:0:0:0:
104,96,25585,2,0,L|98:25,1,70,8|0,0:0|0:0,0:0:0:0:
158,152,25913,6,0,L|164:223,2,70,2|2|8,0:1|0:1|0:0,0:0:0:0:
104,96,26405,2,0,P|147:73|226:113,1,140,2|2,0:1|0:1,0:0:0:0:
289,160,26897,2,0,L|361:150,1,70,8|0,0:0|0:0,0:0:0:0:
405,82,27224,6,0,L|396:231,1,140,2|8,0:1|0:0,0:0:0:0:
332,276,27724,1,2,0:1:0:0:
409,306,27890,2,0,L|482:301,1,70,0|2,0:0|0:1,0:0:0:0:
332,276,28224,2,0,L|262:271,1,70,8|0,0:0|0:0,0:0:0:0:
201,209,28557,6,0,L|131:213,1,70,2|2,0:1|0:1,0:0:0:0:
85,121,28883,2,0,L|154:125,1,70,8|2,0:0|0:1,0:0:0:0:
270,204,29209,2,0,L|200:208,1,70,0|2,0:0|3:2,0:0:0:0:
154,116,29535,2,0,L|223:120,1,70,8|0,0:0|0:0,0:0:0:0:
283,177,29861,6,0,L|426:163,1,140,4|8,0:0|0:0,0:0:0:0:
491,115,30356,2,0,L|431:245,1,140,2|2,0:1|0:1,0:0:0:0:
442,326,30852,2,0,L|358:209,1,140,8|2,0:0|0:1,0:0:0:0:
283,177,31348,5,2,0:1:0:0:
228,241,31513,2,0,L|157:236,1,70,8|2,0:0|0:1,0:0:0:0:
86,192,31844,2,0,L|15:197,2,70,0|2|8,0:0|0:1|0:0,0:0:0:0:
150,245,32340,1,0,0:0:0:0:
192,172,32505,6,0,L|210:320,1,140,2|8,0:1|0:0,0:0:0:0:
256,382,33001,1,2,0:1:0:0:
303,310,33166,2,0,L|320:172,1,140,0|8,0:0|0:0,0:0:0:0:
256,117,33662,1,0,0:0:0:0:
192,172,33827,5,2,0:1:0:0:
171,90,33993,2,0,L|191:12,1,70,2|8,3:2|0:0,0:0:0:0:
255,117,34323,2,0,L|325:75,1,70,2|0,3:2|0:0,0:0:0:0:
278,203,34654,1,2,3:1:0:0:
278,203,34819,2,0,L|356:223,1,70,10|0,0:3|0:0,0:0:0:0:
192,172,35150,6,0,L|114:192,2,70,4|2|8,0:0|0:1|0:0,0:0:0:0:
244,106,35646,2,0,L|235:260,1,140,2|2,0:1|0:1,0:0:0:0:
184,312,36141,1,8,0:0:0:0:
184,312,36307,1,0,0:0:0:0:
256,356,36472,6,0,L|329:346,1,70,2|2,0:1|0:1,0:0:0:0:
372,276,36796,1,8,0:0:0:0:
301,231,36958,1,0,0:0:0:0:
301,231,37120,2,0,P|297:195|296:159,1,70,0|2,0:0|0:1,0:0:0:0:
367,117,37445,2,0,P|370:151|371:186,1,70,12|0,0:0|0:0,0:0:0:0:
301,231,37769,6,0,L|291:86,2,140,4|8|2,0:0|0:0|0:1,0:0:0:0:
372,276,38611,1,0,0:0:0:0:
325,346,38779,2,0,L|217:359,1,105,10|0,0:3|0:0,0:0:0:0:
211,372,39116,6,0,L|223:218,2,140,4|8|2,0:0|0:0|0:1,0:0:0:0:
137,331,39940,1,2,0:1:0:0:
137,331,40105,2,0,L|143:252,1,70,8|0,0:0|0:0,0:0:0:0:
159,178,40434,6,0,L|153:99,1,70,2|2,0:1|0:1,0:0:0:0:
90,52,40764,2,0,L|234:71,1,140,8|2,0:0|0:1,0:0:0:0:
308,97,41258,1,2,0:1:0:0:
358,30,41423,2,0,L|427:44,1,70,8|0,0:0|0:0,0:0:0:0:
481,108,41753,5,2,0:1:0:0:
481,108,41918,1,2,0:1:0:0:
416,161,42083,2,0,B|401:207|401:207|419:299,1,140,8|2,0:0|0:1,0:0:0:0:
488,343,42577,1,2,0:1:0:0:
413,381,42742,2,0,L|341:375,1,70,8|0,0:0|0:0,0:0:0:0:
288,311,43072,6,0,L|216:317,1,70,2|2,0:1|0:1,0:0:0:0:
163,381,43401,2,0,P|159:313|153:241,1,140,8|2,0:0|0:1,0:0:0:0:
89,183,43896,1,2,0:1:0:0:
26,239,44061,2,0,L|17:310,1,70,8|0,0:0|0:0,0:0:0:0:
89,183,44390,6,0,L|80:113,1,70,4|2,0:0|0:1,0:0:0:0:
20,54,44720,2,0,L|165:81,1,140,8|2,0:0|0:1,0:0:0:0:
217,138,45214,1,2,0:1:0:0:
286,90,45379,2,0,L|294:18,1,70,8|0,0:0|0:0,0:0:0:0:
217,138,45709,6,0,L|225:210,1,70,2|2,0:1|0:1,0:0:0:0:
299,247,46039,2,0,L|291:319,1,70,8|0,0:0|0:0,0:0:0:0:
226,369,46368,1,2,0:1:0:0:
226,369,46533,1,2,0:1:0:0:
167,308,46698,2,0,L|97:300,1,70,8|0,0:0|0:0,0:0:0:0:
226,369,47028,6,0,L|295:361,1,70,2|2,0:1|0:1,0:0:0:0:
355,302,47357,2,0,B|371:266|355:234|355:234|339:202|355:166,1,140,8|2,0:0|0:1,0:0:0:0:
411,103,47852,1,2,0:1:0:0:
339,59,48017,2,0,L|269:68,1,70,8|0,0:0|0:0,0:0:0:0:
205,122,48346,6,0,L|135:113,1,70,2|2,0:1|0:1,0:0:0:0:
86,202,48676,2,0,L|156:193,1,70,12|0,0:0|0:0,0:0:0:0:
205,122,49006,1,2,0:1:0:0:
205,122,49170,1,2,0:1:0:0:
237,199,49335,2,0,L|228:269,1,70,8|2,0:0|0:1,0:0:0:0:
226,286,49583,1,2,0:1:0:0:
224,303,49665,6,0,P|295:297|374:292,2,140,4|8|2,0:0|0:0|0:1,0:0:0:0:
157,358,50489,1,2,0:1:0:0:
112,286,50654,2,0,L|106:213,1,70,8|0,0:0|0:0,0:0:0:0:
57,147,50984,5,2,0:1:0:0:
57,147,51148,1,2,0:1:0:0:
103,76,51313,2,0,P|147:51|228:88,1,140,8|2,0:0|0:1,0:0:0:0:
260,159,51808,1,2,0:1:0:0:
326,107,51973,2,0,L|397:100,1,70,8|0,0:0|0:0,0:0:0:0:
478,113,52302,5,2,0:1:0:0:
478,113,52467,1,2,0:1:0:0:
441,37,52632,2,0,L|432:187,1,140,8|2,0:0|0:1,0:0:0:0:
472,250,53126,1,2,0:1:0:0:
404,300,53291,2,0,L|334:304,1,70,8|0,0:0|0:0,0:0:0:0:
273,363,53621,6,0,L|203:359,1,70,2|2,0:1|0:1,0:0:0:0:
138,304,53951,2,0,L|124:160,1,140,8|2,0:0|0:1,0:0:0:0:
66,103,54445,1,2,0:1:0:0:
66,103,54528,1,0,0:0:0:0:
66,103,54610,2,0,L|73:27,1,70,12|0,0:0|0:0,0:0:0:0:
132,154,54940,6,0,L|139:230,1,70,4|2,0:0|0:1,0:0:0:0:
70,273,55269,2,0,L|222:289,1,140,8|2,0:0|0:1,0:0:0:0:
279,334,55764,1,2,0:1:0:0:
320,260,55929,2,0,L|315:187,1,70,8|0,0:0|0:0,0:0:0:0:
249,137,56258,6,0,L|253:67,1,70,2|2,0:1|0:1,0:0:0:0:
171,21,56588,1,8,0:0:0:0:
171,21,56753,2,0,L|175:90,1,70,0|2,0:0|0:1,0:0:0:0:
253,141,57083,1,2,0:1:0:0:
253,141,57247,2,0,L|248:210,1,70,8|0,0:0|0:0,0:0:0:0:
185,268,57577,6,0,L|189:337,1,70,2|2,0:1|0:1,0:0:0:0:
267,366,57901,2,0,L|258:227,1,140,8|2,0:0|0:1,0:0:0:0:
292,149,58387,1,2,0:1:0:0:
365,189,58549,2,0,L|440:182,1,70,8|0,0:0|0:0,0:0:0:0:
292,149,58874,6,0,L|222:142,1,70,2|2,3:2|0:1,0:0:0:0:
157,88,59207,2,0,L|87:95,1,70,8|0,0:0|0:0,0:0:0:0:
19,144,59540,1,2,0:1:0:0:
2,174,59624,1,2,0:1:0:0:
2,209,59707,1,2,0:1:0:0:
19,239,59790,1,2,0:1:0:0:
47,258,59874,2,0,L|100:253,3,35,8|0|0|0,0:0|1:0|1:0|1:0,0:0:0:0:
101,240,60214,6,0,L|176:248,1,70,4|2,0:0|0:1,0:0:0:0:
221,314,60543,2,0,L|212:175,1,140,8|2,0:0|0:1,0:0:0:0:
250,98,61038,1,0,0:0:0:0:
325,134,61203,2,0,L|396:126,1,70,8|0,0:0|0:0,0:0:0:0:
250,98,61532,6,0,L|180:90,1,70,2|2,0:1|0:1,0:0:0:0:
129,22,61862,2,0,P|121:92|114:175,1,140,8|2,0:0|0:1,0:0:0:0:
156,234,62356,1,0,0:0:0:0:
86,281,62521,2,0,P|50:277|16:273,1,70,8|0,0:0|0:0,0:0:0:0:
156,234,62851,6,0,L|191:230|226:226,1,70,4|2,0:0|0:1,0:0:0:0:
293,275,63181,1,8,0:0:0:0:
344,208,63345,2,0,B|360:172|344:140|344:140|328:108|344:72,1,140,0|2,0:0|0:1,0:0:0:0:
414,27,63840,2,0,L|487:39,1,70,8|0,0:0|0:0,0:0:0:0:
338,63,64170,6,0,L|268:74,1,70,2|2,0:1|0:1,0:0:0:0:
200,25,64499,1,8,0:0:0:0:
200,25,64664,2,0,L|187:183,1,140,0|2,0:0|0:1,0:0:0:0:
228,238,65159,2,0,L|232:319,1,70,8|2,0:0|0:1,0:0:0:0:
180,172,65488,6,0,L|183:102,1,70,4|2,0:0|0:1,0:0:0:0:
126,39,65818,2,0,L|264:77,1,140,8|2,0:0|0:1,0:0:0:0:
324,131,66312,1,0,0:0:0:0:
382,70,66477,2,0,L|377:-9,1,70,8|0,0:0|0:0,0:0:0:0:
324,131,66807,6,0,L|319:200,1,70,2|2,0:1|0:1,0:0:0:0:
239,175,67137,2,0,P|247:248|259:325,1,140,8|2,0:0|0:1,0:0:0:0:
324,364,67631,1,2,0:1:0:0:
324,364,67796,2,0,L|396:358,1,70,8|0,0:0|0:0,0:0:0:0:
247,321,68126,6,0,L|177:315,1,70,4|0,0:0|0:0,0:0:0:0:
105,358,68455,2,0,L|96:216,1,140,8|2,0:0|0:1,0:0:0:0:
167,173,68950,2,0,L|172:102,1,70,2|8,0:1|0:0,0:0:0:0:
88,58,69279,6,0,L|92:127,1,70,4|0,0:0|0:0,0:0:0:0:
167,173,69609,1,2,0:1:0:0:
167,173,69774,2,0,L|162:242,1,70,12|0,0:0|0:0,0:0:0:0:
92,290,70104,1,2,0:1:0:0:
92,290,70268,1,2,0:1:0:0:
167,327,70433,2,0,L|236:322,1,70,8|2,0:0|0:1,0:0:0:0:
250,310,70681,1,2,0:1:0:0:
262,297,70763,6,0,L|257:228,1,70,4|0,0:0|0:0,0:0:0:0:
339,247,71093,2,0,P|329:181|315:108,1,140,8|2,0:0|0:1,0:0:0:0:
244,62,71587,1,2,0:1:0:0:
319,25,71752,2,0,L|399:31,1,70,8|0,0:0|0:0,0:0:0:0:
244,62,72082,6,0,L|164:68,1,70,2|2,0:1|0:1,0:0:0:0:
111,123,72411,2,0,B|95:159|111:191|111:191|127:223|111:259,1,140,8|2,0:0|0:1,0:0:0:0:
41,305,72906,1,2,0:1:0:0:
117,339,73071,2,0,L|199:333,1,70,8|0,0:0|0:0,0:0:0:0:
297,265,73400,6,0,L|228:260,2,70,4|2|8,0:0|0:1|0:0,0:0:0:0:
349,331,73895,2,0,L|333:185,1,140,0|2,0:0|0:1,0:0:0:0:
280,126,74389,2,0,P|283:89|287:50,1,70,8|0,0:0|0:0,0:0:0:0:
340,182,74719,6,0,P|337:216|333:251,1,70,2|2,0:1|0:1,0:0:0:0:
264,299,75049,1,8,0:0:0:0:
264,299,75214,2,0,P|255:227|243:153,1,140,0|2,0:0|0:1,0:0:0:0:
181,104,75708,1,8,0:0:0:0:
244,48,75873,1,8,0:0:0:0:
244,48,75955,1,2,1:0:0:0:
244,48,76038,6,0,L|320:54,1,70,4|2,0:0|0:1,0:0:0:0:
378,107,76363,1,8,0:0:0:0:
378,107,76526,1,0,0:0:0:0:
340,182,76689,2,0,L|346:252,1,70,2|2,0:1|0:1,0:0:0:0:
264,299,77014,2,0,L|270:228,1,70,8|0,0:0|0:0,0:0:0:0:
188,178,77340,6,0,L|194:248,2,70,2|2|8,0:1|0:1|0:0,0:0:0:0:
135,112,77828,1,0,0:0:0:0:
135,112,77991,2,0,L|141:41,1,70,2|2,0:1|0:1,0:0:0:0:
213,85,78324,2,0,L|207:155,1,70,8|0,0:0|0:0,0:0:0:0:
145,212,78657,6,0,L|151:282,1,70,4|0,0:0|0:0,0:0:0:0:
220,329,78991,2,0,L|226:258,1,70,8|0,0:0|0:0,0:0:0:0:
131,187,79324,2,0,L|125:257,1,70,2|2,0:1|0:1,0:0:0:0:
216,309,79657,2,0,L|210:238,1,70,8|0,0:0|0:0,0:0:0:0:
111,158,79991,2,0,L|105:228,1,70,4|2,0:0|0:1,0:0:0:0:
211,286,80324,2,0,L|205:215,1,70,8|2,0:0|0:1,0:0:0:0:
144,87,80657,6,0,L|149:30,3,35,2|8|8|8,1:1|0:0|0:0|0:0,0:0:0:0:
156,117,80991,2,0,L|161:174,3,35,2|2|8|4,1:1|1:0|1:3|1:3,0:0:0:0:
177,176,81324,6,0,L|167:326,2,140,4|8|2,0:0|0:0|0:1,0:0:0:0:
249,133,82147,1,2,0:1:0:0:
304,195,82311,2,0,L|381:187,1,70,8|0,0:0|0:0,0:0:0:0:
422,273,82641,6,0,L|352:265,1,70,2|2,0:1|0:1,0:0:0:0:
304,195,82970,2,0,P|294:265|284:344,1,140,8|2,0:0|0:1,0:0:0:0:
208,300,83464,1,2,0:1:0:0:
208,300,83629,2,0,L|139:308,1,70,8|0,0:0|0:0,0:0:0:0:
57,286,83958,5,2,0:1:0:0:
57,286,84123,1,2,0:1:0:0:
99,213,84287,2,0,B|115:177|99:145|99:145|83:113|99:77,1,140,8|2,0:0|0:1,0:0:0:0:
167,28,84781,1,2,0:1:0:0:
233,79,84946,2,0,L|307:70,1,70,8|0,0:0|0:0,0:0:0:0:
354,155,85275,6,0,L|284:146,1,70,2|2,0:1|0:1,0:0:0:0:
233,79,85605,2,0,L|244:235,1,140,8|2,0:0|0:1,0:0:0:0:
200,291,86098,1,2,0:1:0:0:
272,333,86263,2,0,L|348:323,1,70,8|2,0:0|1:1,0:0:0:0:
355,313,86510,1,2,0:1:0:0:
367,300,86592,6,0,L|357:223,1,70,4|0,0:0|0:0,0:0:0:0:
289,180,86922,2,0,L|298:103,1,70,8|0,0:0|0:0,0:0:0:0:
345,41,87251,1,2,0:1:0:0:
261,33,87416,2,0,L|215:95,1,70,2|8,0:1|0:0,0:0:0:0:
143,52,87745,6,0,P|145:119|154:212,1,140,2|2,0:1|0:1,0:0:0:0:
115,267,88239,2,0,P|172:231|248:177,1,140,8|2,0:0|0:1,0:0:0:0:
278,119,88733,1,2,0:1:0:0:
352,157,88898,2,0,L|423:144,1,70,8|0,0:0|0:0,0:0:0:0:
278,119,89227,6,0,L|207:106,1,70,2|0,0:1|0:0,0:0:0:0:
143,52,89556,2,0,P|136:121|134:191,1,140,12|8,0:0|0:0,0:0:0:0:
166,269,90050,1,2,0:1:0:0:
166,269,90215,1,4,0:3:0:0:
83,256,90379,6,0,P|146:226|211:200,1,140,4|0,0:0|0:0,0:0:0:0:
279,151,90873,2,0,P|249:214|223:279,1,140,8|2,0:0|0:1,0:0:0:0:
271,348,91367,1,2,0:1:0:0:
330,288,91532,2,0,L|406:299,1,70,8|2,0:0|0:1,0:0:0:0:
413,309,91779,1,2,0:1:0:0:
424,322,91861,6,0,L|412:182,2,140,4|8|2,0:0|0:0|0:1,0:0:0:0:
343,294,92685,1,2,0:1:0:0:
283,353,92849,2,0,L|207:342,1,70,8|0,0:0|0:0,0:0:0:0:
159,277,93179,6,0,L|83:288,1,70,4|2,0:0|0:1,0:0:0:0:
41,356,93508,2,0,L|46:207,1,140,8|2,0:0|0:1,0:0:0:0:
109,161,94002,1,2,0:1:0:0:
174,213,94167,2,0,L|245:204,1,70,8|0,0:0|0:0,0:0:0:0:
296,139,94496,6,0,L|367:148,1,70,4|0,0:0|0:0,0:0:0:0:
409,218,94826,1,8,0:0:0:0:
323,219,94991,1,0,0:0:0:0:
323,219,95156,2,0,L|252:228,1,70,2|2,0:1|0:1,0:0:0:0:
206,297,95487,1,8,0:0:0:0:
125,274,95652,1,0,0:0:0:0:
134,190,95817,6,0,L|126:131,3,35,2|2|2|2,1:1|1:1|1:1|1:1,0:0:0:0:
109,123,96147,2,0,L|117:64,3,35,8|2|2|2,0:0|1:1|1:1|1:1,0:0:0:0:
131,62,96478,1,8,0:0:0:0:
158,41,96560,1,2,1:1:0:0:
193,37,96643,1,2,1:1:0:0:
224,51,96726,1,2,1:1:0:0:
244,79,96808,6,0,L|260:202,1,105,4|8,0:0|0:0,0:0:0:0:
250,199,97139,2,0,L|331:178,1,70,2|8,0:1|0:0,0:0:0:0:
369,115,97469,2,0,P|412:88|472:103,1,105,2|8,0:1|0:0,0:0:0:0:
475,110,97799,2,0,L|469:188,1,70,2|8,0:1|0:0,0:0:0:0:
400,260,98130,6,0,L|394:182,1,70,4|0,1:2|0:0,0:0:0:0:
321,97,98460,2,0,L|315:175,1,70,12|0,1:2|0:0,0:0:0:0:
246,269,98791,2,0,L|240:191,1,70,4|0,1:2|1:2,0:0:0:0:
242,105,99121,1,0,1:2:0:0:
323,226,99286,1,4,1:2:0:0:
