osu file format v14

[General]
AudioFilename: dilemma.mp3
AudioLeadIn: 0
PreviewTime: 39040
Countdown: 0
SampleSet: Soft
StackLeniency: 0.4
Mode: 0
LetterboxInBreaks: 0
WidescreenStoryboard: 0

[Editor]
Bookmarks: 8781,19345,30363,35074,35157,35239,39123,60214,76038,86922,94496,99286
DistanceSpacing: 2
BeatDivisor: 4
GridSize: 32
TimelineZoom: 1.8

[Metadata]
Title:Dilemma
TitleUnicode:ジレンマ
Artist:ecosystem
ArtistUnicode:ecosystem
Creator:pkhg
Version:Easy
Source:銀魂´
Tags:atsuro battle gintama' gintama gintoki kagura shinpachi sunrise tv size 2012 enchousen
BeatmapID:925713
BeatmapSetID:418313

[Difficulty]
HPDrainRate:3
CircleSize:3
OverallDifficulty:2
ApproachRate:3
SliderMultiplier:1
SliderTickRate:2

[Events]
//Background and Video events
Video,-65,"dilemma.avi"
0,0,"gintama_up_by_gin_uzumaki-d8p5403.jpg",0,0
//Break Periods
//Storyboard Layer 0 (Background)
//Storyboard Layer 1 (Fail)
//Storyboard Layer 2 (Pass)
//Storyboard Layer 3 (Foreground)
//Storyboard Sound Samples

[TimingPoints]
1550,322.58064516129,7,2,1,60,1,0
3808,331.491712707182,7,2,1,60,1,0
7439,330.123796423659,4,2,1,60,1,0
8781,330.123796423659,4,2,1,60,1,0
19668,-100,4,2,2,50,0,0
19751,-100,4,2,1,60,0,0
20989,-100,4,2,2,50,0,0
21071,-100,4,2,1,60,0,0
21979,327.868852459016,4,2,1,60,1,0
23618,-100,4,2,2,50,0,0
23700,-100,4,2,1,60,0,0
24929,-100,4,2,2,50,0,0
25011,-100,4,2,1,60,0,0
26241,-100,4,2,2,50,0,0
26323,-100,4,2,1,50,0,0
27224,333.333333333333,4,2,1,60,1,0
28557,326.086956521739,4,2,1,60,1,0
28638,-100,4,1,1,75,0,0
29535,-100,4,2,1,60,0,0
29861,330.578512396694,4,2,1,60,1,0
30191,-100,4,2,2,50,0,0
30274,-100,4,2,1,60,0,0
35480,-100,4,2,2,50,0,0
35563,-100,4,2,1,60,0,0
36472,324.499729583559,4,2,1,60,1,0
36796,-100,4,2,2,50,0,0
36877,-100,4,2,1,60,0,0
37769,336.889387984279,4,2,1,60,1,0
39032,-100,4,2,1,5,0,0
39116,329.67032967033,4,2,1,60,1,0
40764,-100,4,2,2,50,0,0
40846,-100,4,2,1,60,0,0
44720,-100,4,2,2,50,0,0
44802,-100,4,2,1,60,0,0
51313,-100,4,2,2,50,0,0
51396,-100,4,2,1,60,0,0
57495,-100,4,2,1,5,0,0
57577,324.324324324324,4,2,1,60,1,0
58874,333.333333333333,4,2,1,60,1,0
59207,-100,4,2,2,50,0,0
59290,-100,4,2,1,60,0,0
59540,-100,4,2,2,50,0,0
59874,-100,4,2,1,60,0,0
60214,329.67032967033,4,2,1,60,1,1
63181,-100,4,2,2,50,0,1
63263,-100,4,2,1,60,0,1
64499,-100,4,2,2,50,0,1
64582,-100,4,2,1,60,0,1
67137,-100,4,2,2,50,0,1
67219,-100,4,2,1,60,0,1
69115,-100,4,2,2,50,0,1
69197,-100,4,2,1,60,0,1
70681,-100,4,2,1,60,0,0
70763,-100,4,2,1,60,0,1
73730,-100,4,2,2,50,0,1
73812,-100,4,2,1,60,0,1
75049,-100,4,2,2,50,0,1
75131,-100,4,2,1,60,0,1
76038,325.55615843733,4,2,1,60,1,1
77991,333.333333333333,4,2,1,60,1,1
78657,333.333333333333,4,2,1,60,1,1
81240,-100,4,2,1,60,0,0
81324,329.308452250274,4,2,1,60,1,1
81406,-100,4,2,1,60,0,0
84287,-100,4,2,2,50,0,0
84370,-100,4,2,1,60,0,0
88239,-100,4,2,2,50,0,0
88321,-100,4,2,1,60,0,0
90215,-100,4,2,2,50,0,0
90297,-100,4,2,1,60,0,0
94496,330.396475770925,7,2,1,60,1,0
98873,-100,7,2,2,50,0,0
99204,-100,7,2,1,60,0,0

[Colours]
Combo1 : 58,58,58
Combo2 : 216,216,216
Combo3 : 255,66,66

[HitObjects]
244,44,1550,6,0,P|251:144|258:254,1,200,2|2,0:0|0:0,0:0:0:0:
425,134,2840,2,0,P|418:233|411:333,1,200,2|8,0:0|0:0,0:0:0:0:
318,360,3808,6,0,B|278:336|222:360|222:360|166:384|126:360,1,200,4|2,0:0|0:1,0:0:0:0:
57,286,4802,1,0,0:0:0:0:
144,237,5133,2,0,P|159:142|82:78,1,200,2|4,0:1|0:0,0:0:0:0:
62,178,6128,6,0,L|257:109,1,200,4|2,0:0|0:1,0:0:0:0:
323,46,7122,1,0,0:0:0:0:
398,112,7439,2,0,P|404:161|413:227,2,100,4|8|8,0:0|0:0|0:0,0:0:0:0:
323,46,8429,1,8,1:2:0:0:
252,117,8781,6,0,P|204:127|149:133,1,100,4|8,0:0|0:0,0:0:0:0:
65,179,9441,2,0,P|60:230|56:289,1,100,2|8,0:1|0:0,0:0:0:0:
116,358,10101,1,2,0:1:0:0:
200,304,10431,1,8,0:0:0:0:
288,350,10761,2,0,P|338:348|392:342,1,100,2|8,0:1|0:0,0:0:0:0:
457,270,11421,6,0,P|461:220|465:165,1,100,2|8,0:1|0:0,0:0:0:0:
374,213,12082,2,0,L|370:163|366:113,1,100,2|8,0:1|0:0,0:0:0:0:
297,41,12742,2,0,P|249:38|198:55,1,100,2|8,0:1|0:0,0:0:0:0:
172,150,13402,1,2,0:1:0:0:
77,117,13732,1,8,0:0:0:0:
30,205,14062,6,0,P|26:259|22:318,2,100,4|8|2,0:0|0:0|0:1,0:0:0:0:
77,117,15053,1,8,0:0:0:0:
172,150,15383,2,0,P|208:184|245:218,1,100,2|8,0:1|0:0,0:0:0:0:
293,305,16043,1,2,0:1:0:0:
385,267,16373,1,8,0:0:0:0:
347,174,16703,6,0,P|341:124|337:70,1,100,4|8,0:0|0:0,0:0:0:0:
256,133,17364,2,0,P|250:182|246:237,1,100,2|8,0:1|0:0,0:0:0:0:
168,170,18024,2,0,P|162:120|158:66,1,100,2|12,0:1|0:0,0:0:0:0:
79,132,18684,2,0,P|73:181|69:236,1,100,2|2,1:0|0:1,0:0:0:0:
117,319,19344,6,0,B|166:330|166:330|214:318|214:318|264:329,1,150,4|2,0:0|0:1,0:0:0:0:
412,345,20335,1,8,0:0:0:0:
372,253,20665,2,0,B|359:198|392:160|392:160|354:105,1,150,2|2,0:1|0:1,0:0:0:0:
233,42,21655,1,8,0:0:0:0:
150,99,21979,6,0,P|100:103|45:95,2,100,2|8|0,0:1|0:0|0:0,0:0:0:0:
233,42,22962,1,8,0:0:0:0:
308,107,23290,2,0,B|331:152|331:152|323:260,1,150,2|2,0:1|0:1,0:0:0:0:
218,358,24274,1,12,0:0:0:0:
140,294,24601,6,0,P|95:283|1:332,2,150,4|2|8,0:0|0:1|0:0,0:0:0:0:
218,358,25913,2,0,B|182:315|182:315|202:210,2,150,2|2|8,0:1|0:1|0:0,0:0:0:0:
299,303,27224,5,2,0:1:0:0:
378,364,27557,1,8,0:0:0:0:
435,282,27890,2,0,P|441:231|444:180,1,100,0|8,0:0|0:0,0:0:0:0:
396,91,28557,6,0,P|327:50|356:180,1,300,2|8,0:1|0:0,0:0:0:0:
443,182,29861,6,0,P|440:232|431:349,2,150,4|2|8,0:0|0:1|0:0,0:0:0:0:
396,91,31183,1,2,0:1:0:0:
314,148,31513,1,8,0:0:0:0:
254,67,31844,2,0,P|204:61|149:65,1,100,0|8,0:0|0:0,0:0:0:0:
82,133,32505,6,0,P|74:185|68:248,1,100,2|8,0:1|0:0,0:0:0:0:
165,205,33166,2,0,P|170:254|177:304,1,100,0|8,0:0|0:0,0:0:0:0:
251,372,33827,2,0,P|258:322|263:272,1,100,2|8,0:1|0:0,0:0:0:0:
256,172,34489,1,0,0:0:0:0:
165,205,34819,1,10,0:3:0:0:
182,106,35150,6,0,P|248:73|330:106,2,150,4|2|8,0:0|0:1|0:0,0:0:0:0:
165,205,36472,2,0,P|147:132|82:94,2,150,2|0|12,0:1|0:0|0:0,0:0:0:0:
69,192,37769,5,4,0:0:0:0:
107,284,38105,1,8,0:0:0:0:
206,295,38442,2,0,L|308:290,1,100,2|10,0:1|0:3,0:0:0:0:
372,212,39116,6,0,L|471:216,2,100,4|8|2,0:0|0:0|0:1,0:0:0:0:
273,192,40105,1,8,0:0:0:0:
250,92,40434,2,0,P|342:120|372:212,1,200,2|2,0:1|0:1,0:0:0:0:
305,290,41423,1,8,0:0:0:0:
206,269,41753,6,0,L|106:277,2,100,2|8|2,0:1|0:0|0:1,0:0:0:0:
305,290,42742,1,8,0:0:0:0:
273,192,43072,2,0,P|266:138|269:91,1,100,2|8,0:1|0:0,0:0:0:0:
351,35,43731,2,0,P|357:84|355:134,1,100,2|8,0:1|0:0,0:0:0:0:
353,234,44390,6,0,P|294:281|188:224,1,200,4|2,0:0|0:1,0:0:0:0:
195,132,45379,1,8,0:0:0:0:
107,180,45709,2,0,P|106:231|111:293,1,100,2|8,0:1|0:0,0:0:0:0:
180,350,46368,2,0,P|228:363|277:373,1,100,2|8,0:1|0:0,0:0:0:0:
372,341,47028,6,0,P|420:327|469:317,2,100,2|8|2,0:1|0:0|0:1,0:0:0:0:
294,277,48017,1,8,0:0:0:0:
365,207,48346,2,0,P|366:159|359:103,1,100,2|12,0:1|0:0,0:0:0:0:
285,40,49006,1,2,0:1:0:0:
211,107,49335,1,8,0:0:0:0:
117,71,49665,6,0,P|65:73|7:79,2,100,4|8|2,0:0|0:0|0:1,0:0:0:0:
211,107,50654,1,8,0:0:0:0:
177,201,50984,2,0,B|185:254|156:300|156:300|178:353|239:341,1,200,2|2,0:1|0:1,0:0:0:0:
308,275,51973,1,8,0:0:0:0:
383,340,52302,6,0,P|431:346|496:342,2,100,2|8|2,0:1|0:0|0:1,0:0:0:0:
308,275,53291,1,8,0:0:0:0:
300,175,53621,2,0,P|302:120|292:69,1,100,2|8,0:1|0:0,0:0:0:0:
211,133,54280,2,0,P|208:182|216:232,1,100,2|12,0:1|0:0,0:0:0:0:
308,275,54940,6,0,L|417:265,2,100,4|8|2,0:0|0:0|0:1,0:0:0:0:
225,331,55929,1,8,0:0:0:0:
166,250,56258,2,0,P|162:200|166:140,1,100,2|8,0:1|0:0,0:0:0:0:
221,67,56918,1,2,0:1:0:0:
303,122,57247,1,8,0:0:0:0:
389,67,57577,6,0,P|441:62|491:62,2,100,2|8|2,0:1|0:0|0:1,0:0:0:0:
303,122,58549,1,8,0:0:0:0:
388,167,58874,6,0,P|419:239|282:203,1,300,2|8,3:2|0:0,0:0:0:0:
303,122,60214,6,0,P|306:70|307:12,1,100,4|8,0:0|0:0,0:0:0:0:
211,50,60873,2,0,P|208:101|207:160,1,100,2|8,0:1|0:0,0:0:0:0:
276,221,61532,2,0,P|274:270|271:320,1,100,2|8,0:1|0:0,0:0:0:0:
176,349,62192,2,0,P|177:299|180:249,1,100,2|8,0:1|0:0,0:0:0:0:
107,179,62851,6,0,P|119:100|133:32,2,150,4|0|8,0:0|0:0|0:0,0:0:0:0:
192,231,64170,2,0,P|117:242|44:257,2,150,2|0|8,0:1|0:0|0:0,0:0:0:0:
280,276,65488,6,0,P|329:279|386:283,2,100,4|8|2,0:0|0:0|0:1,0:0:0:0:
198,218,66477,1,8,0:0:0:0:
240,127,66807,2,0,P|312:65|409:99,1,200,2|2,0:1|0:1,0:0:0:0:
333,164,67796,1,8,0:0:0:0:
255,226,68126,6,0,P|206:222|157:180,1,100,4|8,0:0|0:0,0:0:0:0:
109,109,68785,2,0,B|122:161|122:161|104:262,2,150,2|4|12,0:1|0:0|0:0,0:0:0:0:
29,47,70104,1,2,0:1:0:0:
118,2,70433,1,8,0:0:0:0:
198,61,70763,6,0,P|243:78|298:80,1,100,4|8,0:0|0:0,0:0:0:0:
383,34,71422,1,2,0:1:0:0:
439,116,71752,1,8,0:0:0:0:
379,196,72082,2,0,P|373:247|373:295,1,100,2|8,0:1|0:0,0:0:0:0:
473,309,72741,2,0,P|478:257|479:210,1,100,2|8,0:1|0:0,0:0:0:0:
439,116,73400,6,0,P|368:96|302:132,2,150,4|0|8,0:0|0:0|0:0,0:0:0:0:
379,196,74719,2,0,P|314:229|243:209,2,150,2|0|8,0:1|0:0|0:0,0:0:0:0:
439,116,76038,6,0,P|433:66|427:14,2,100,4|8|2,0:0|0:0|0:1,0:0:0:0:
379,196,77014,1,8,0:0:0:0:
294,142,77340,2,0,P|241:133|187:128,1,100,2|8,0:1|0:0,0:0:0:0:
231,219,77991,2,0,P|181:224|132:232,1,100,2|8,0:1|0:0,0:0:0:0:
82,319,78657,5,4,0:0:0:0:
163,377,78991,1,8,0:0:0:0:
242,318,79324,2,0,P|238:268|231:219,1,100,2|8,0:1|0:0,0:0:0:0:
138,257,79991,2,0,P|141:207|149:157,1,100,4|8,0:0|0:0,0:0:0:0:
222,90,80657,1,2,1:1:0:0:
305,145,80991,1,2,1:1:0:0:
384,82,81324,6,0,P|434:77|496:69,2,100,4|8|2,0:0|0:0|0:1,0:0:0:0:
305,145,82311,1,8,0:0:0:0:
222,90,82641,2,0,P|172:94|122:101,1,100,2|8,0:1|0:0,0:0:0:0:
80,192,83299,2,0,P|129:187|179:180,1,100,2|8,0:1|0:0,0:0:0:0:
222,90,83958,6,0,B|196:163|196:163|225:281,1,200,2|2,0:1|0:1,0:0:0:0:
303,338,84946,1,8,0:0:0:0:
386,282,85275,2,0,P|434:273|489:266,2,100,2|8|2,0:1|0:0|0:1,0:0:0:0:
303,338,86263,1,8,0:0:0:0:
292,238,86592,6,0,P|284:188|276:139,1,100,4|8,0:0|0:0,0:0:0:0:
204,69,87251,2,0,P|195:118|188:167,1,100,2|8,0:1|0:0,0:0:0:0:
96,127,87910,2,0,P|108:229|124:333,1,200,0|2,0:0|0:1,0:0:0:0:
205,381,88898,1,8,0:0:0:0:
290,328,89227,6,0,P|337:318|392:316,1,100,2|12,0:1|0:0,0:0:0:0:
481,352,89886,2,0,B|431:323|431:323|441:211,1,150,8|4,0:0|0:0,0:0:0:0:
487,143,90709,1,0,0:0:0:0:
256,192,90873,12,4,93179,0:0:0:0:
300,310,94496,6,0,P|251:305|198:303,1,100,4|8,0:0|0:0,0:0:0:0:
135,227,95156,2,0,P|183:222|237:220,1,100,2|8,0:1|0:0,0:0:0:0:
300,144,95817,2,0,P|251:139|198:137,1,100,2|8,1:1|0:0,0:0:0:0:
100,133,96478,1,8,0:0:0:0:
135,227,96808,6,0,B|191:254|204:318|204:318|234:283|320:283,1,200,4|2,0:0|0:1,0:0:0:0:
373,312,97799,1,2,0:1:0:0:
429,229,98130,2,0,P|432:181|433:123,1,100,4|12,1:2|1:2,0:0:0:0:
370,50,98791,2,0,B|340:32|298:50|298:50|256:67|226:50,1,150,4|4,1:2|1:2,0:0:0:0:
