osu file format v13

[General]
AudioFilename: ENERGY -TV Edit-.mp3
AudioLeadIn: 1000
PreviewTime: 53865
Countdown: 0
SampleSet: Normal
StackLeniency: 0.7
Mode: 0
LetterboxInBreaks: 0
WidescreenStoryboard: 0

[Editor]
DistanceSpacing: 1.4
BeatDivisor: 4
GridSize: 4
TimelineZoom: 1.8

[Metadata]
Title:Energy (TV Size)
TitleUnicode:Energy (TV Size)
Artist:earthmind
ArtistUnicode:earthmind
Creator:Ryuuka Toki
Version:Vivid
Source:Vividred Operation
Tags:earthmind OP gr8! Records
BeatmapID:458721
BeatmapSetID:111383

[Difficulty]
HPDrainRate:7
CircleSize:4
OverallDifficulty:8
ApproachRate:9
SliderMultiplier:1.6
SliderTickRate:1

[Events]
//Background and Video events
0,0,"BG.jpg",0,0
//Break Periods
//Storyboard Layer 0 (Background)
//Storyboard Layer 1 (Fail)
//Storyboard Layer 2 (Pass)
//Storyboard Layer 3 (Foreground)
//Storyboard Sound Samples
//Background Colour Transformations
3,100,163,162,255

[TimingPoints]
256,355.029585798817,4,1,1,40,1,0
433,-100,4,2,1,40,0,0
611,-100,4,1,1,40,0,0
788,-100,4,2,1,40,0,0
966,-100,4,1,1,40,0,0
1143,-100,4,2,1,40,0,0
1321,-100,4,1,1,40,0,0
1498,-100,4,2,1,40,0,0
1853,-100,4,2,1,40,0,0
2031,-100,4,1,1,40,0,0
2208,-100,4,2,1,40,0,0
2386,-100,4,1,1,40,0,0
3273,-100,4,2,1,40,0,0
3451,-100,4,1,1,40,0,0
3628,-100,4,2,1,40,0,0
3806,-100,4,1,1,40,0,0
3983,-100,4,2,1,40,0,0
4161,-100,4,1,1,40,0,0
4338,-100,4,2,1,40,0,0
4516,-100,4,1,1,40,0,0
4693,-100,4,2,1,40,0,0
4871,-100,4,1,1,40,0,0
5048,-100,4,2,1,40,0,0
5226,-100,4,1,1,40,0,0
5936,-100,4,1,1,40,0,0
6113,-100,4,2,1,40,0,0
6291,-100,4,1,1,40,0,0
6469,-100,4,2,1,40,0,0
6824,-100,4,2,1,40,0,0
7001,-100,4,1,1,40,0,0
7179,-100,4,2,1,40,0,0
7356,-100,4,1,1,40,0,0
7711,-100,4,2,1,40,0,0
7889,-100,4,2,1,40,0,0
8066,-100,4,1,1,40,0,0
8244,-100,4,2,1,40,0,0
8421,-100,4,1,1,40,0,0
8776,-100,4,1,1,40,0,0
9042,-100,4,1,1,5,0,0
9131,-100,4,1,1,40,0,0
9398,-100,4,2,1,5,0,0
9486,-100,4,1,1,40,0,0
9753,-100,4,2,1,5,0,0
9841,-100,4,1,1,40,0,0
10906,-100,4,1,1,60,0,0
11616,-100,4,1,1,40,0,0
13924,-100,4,2,1,40,0,0
14102,-100,4,1,1,40,0,0
14279,-100,4,2,1,40,0,0
14457,-100,4,1,1,40,0,0
36824,-83.3333333333333,4,1,1,40,0,0
38599,-83.3333333333333,4,1,1,40,0,0
40019,-83.3333333333333,4,2,1,20,0,0
45699,-83.3333333333333,4,1,1,30,0,0
45877,-83.3333333333333,4,2,1,30,0,0
46054,-83.3333333333333,4,1,1,30,0,0
46232,-83.3333333333333,4,2,1,30,0,0
46409,-83.3333333333333,4,1,1,30,0,0
46587,-83.3333333333333,4,2,1,30,0,0
46764,-83.3333333333333,4,1,1,30,0,0
46942,-83.3333333333333,4,2,1,30,0,0
47119,-83.3333333333333,4,1,1,40,0,0
47297,-83.3333333333333,4,2,1,40,0,0
47474,-83.3333333333333,4,1,1,40,0,0
47652,-83.3333333333333,4,2,1,40,0,0
47829,-83.3333333333333,4,1,1,40,0,0
48007,-83.3333333333333,4,2,1,40,0,0
48184,-83.3333333333333,4,1,1,40,0,0
53865,-83.3333333333333,4,1,1,45,0,1
53865,-83.3333333333333,4,1,1,45,0,1
71261,-83.3333333333333,4,1,1,40,0,1
72504,-66.6666666666667,4,1,1,40,0,1
72770,-66.6666666666667,4,2,1,5,0,1
72859,-66.6666666666667,4,1,1,40,0,1
73125,-66.6666666666667,4,2,1,5,0,1
73214,-66.6666666666667,4,1,1,40,0,1
73569,-83.3333333333333,4,1,1,40,0,1
75522,-83.3333333333333,4,1,1,45,0,1
76937,-83.3333333333333,4,1,1,45,0,0

[Colours]
Combo1 : 255,128,192
Combo2 : 255,0,0
Combo3 : 18,124,255

[HitObjects]
72,64,256,6,0,P|124:60|184:64,1,80,0|0,0:0|0:0,0:0:0:0:
204,120,611,2,0,P|252:140|288:140,1,80
360,152,966,2,0,L|352:248,2,80,0|0|0,0:0|0:0|0:0,0:0:0:0:
344,76,1498,2,0,B|244:52|192:128,1,160
172,192,2031,2,0,L|152:272,1,80
220,316,2386,2,0,P|288:340|384:308,1,160
336,168,3096,6,0,P|332:212|308:248,1,80
224,164,3451,2,0,P|208:128|208:84,1,80,0|0,0:0|0:0,0:0:0:0:
276,48,3806,1,0,0:0:0:0:
356,36,3983,2,0,L|468:16,2,80,0|0|0,0:0|0:0|0:0,0:0:0:0:
408,100,4516,2,0,P|396:160|388:192,1,80
360,252,4871,2,0,P|382:218|393:180,1,80
316,188,5226,2,0,P|240:212|164:188,1,160
296,344,5936,6,0,L|223:309,2,80,0|0|0,0:0|0:0|0:0,0:0:0:0:
292,264,6469,2,0,P|212:228|140:296,1,160,0|0,0:0|0:0,0:0:0:0:
92,252,7001,1,0,0:0:0:0:
92,252,7179,1,0,0:0:0:0:
112,176,7356,6,0,P|172:128|192:48,1,160
272,52,7889,2,0,L|352:104,1,80
416,72,8244,1,0,1:0:0:0:
416,72,8421,1,0,0:0:0:0:
416,184,8776,6,0,P|400:240|336:308,1,120
292,316,9131,2,0,P|222:264|240:208,1,120
264,184,9486,2,0,P|334:230|332:288,1,120
360,340,9841,1,0,0:0:0:0:
468,352,10019,1,0,0:0:0:0:
464,240,10196,2,0,L|449:162,1,80
336,88,10551,1,4,0:0:0:0:
336,88,10906,5,4,0:0:0:0:
288,104,10995,1,0,0:0:0:0:
240,112,11083,1,0,0:0:0:0:
192,104,11172,1,0,0:0:0:0:
144,88,11261,1,0,0:0:0:0:
256,288,11616,5,6,0:0:0:0:
352,296,11971,2,0,L|424:248,1,80
400,160,12327,1,0,0:0:0:0:
400,160,12504,1,0,0:0:0:0:
240,48,12859,1,4,0:0:0:0:
48,72,13214,5,0,0:0:0:0:
112,144,13392,1,0,0:0:0:0:
104,240,13569,1,0,0:0:0:0:
192,280,13747,6,0,L|304:304,1,80
392,184,14102,2,0,L|336:128,1,80
248,88,14457,5,4,0:0:0:0:
144,248,14812,1,0,0:0:0:0:
72,72,15167,1,0,0:0:0:0:
72,72,15344,1,0,0:0:0:0:
196,168,15522,2,0,P|236:160|292:160,1,80,0|4,0:0|0:0,0:0:0:0:
400,176,16054,6,0,L|416:216,2,40,0|0|0,0:0|0:0|0:0,0:0:0:0:
300,208,16409,2,0,L|316:268,2,40,0|0|0,0:0|0:0|0:0,0:0:0:0:
200,244,16764,2,4,L|212:300,2,40,0|0|0,0:0|0:0|0:0,0:0:0:0:
96,64,17297,6,0,P|88:112|88:160,1,80
108,236,17652,1,0,0:0:0:0:
172,304,17829,1,0,0:0:0:0:
244,244,18007,2,0,P|292:252|340:252,1,80
420,240,18362,1,0,0:0:0:0:
484,168,18539,1,0,0:0:0:0:
440,84,18717,6,0,P|368:108|280:124,1,160,0|0,0:0|0:0,0:0:0:0:
192,96,19250,1,0,0:0:0:0:
60,64,19427,2,0,L|109:130,1,80
100,224,19782,1,0,0:0:0:0:
176,280,19960,1,0,0:0:0:0:
272,284,20137,6,0,P|328:268|352:236,1,80,0|0,0:0|0:0,0:0:0:0:
416,116,20492,2,0,P|416:164|408:204,1,80
316,168,20847,1,0,0:0:0:0:
220,156,21025,1,0,0:0:0:0:
168,88,21202,1,0,0:0:0:0:
264,20,21380,2,0,P|296:80|316:172,1,160,0|0,0:0|0:0,0:0:0:0:
344,276,21912,1,0,0:0:0:0:
256,348,22090,2,0,L|216:264,1,80
216,140,22445,1,0,0:0:0:0:
216,140,22534,1,0,0:0:0:0:
216,140,22622,1,4,0:0:0:0:
392,48,22800,1,0,0:0:0:0:
392,48,22977,5,0,0:0:0:0:
352,184,23155,1,0,0:0:0:0:
324,92,23332,2,0,P|284:112|220:128,1,80
160,60,23687,1,0,0:0:0:0:
72,128,23865,1,0,0:0:0:0:
148,212,24042,1,0,0:0:0:0:
44,256,24220,1,0,0:0:0:0:
44,256,24309,1,0,0:0:0:0:
44,256,24398,6,0,P|52:312|68:352,1,80,0|0,0:0|0:0,0:0:0:0:
180,320,24753,2,0,P|218:308|257:304,1,80
352,168,25108,1,0,0:0:0:0:
224,120,25285,1,4,0:0:0:0:
288,240,25463,1,0,0:0:0:0:
304,80,25640,1,0,0:0:0:0:
196,48,25818,5,0,0:0:0:0:
92,104,25995,1,0,0:0:0:0:
88,224,26173,1,0,0:0:0:0:
192,280,26350,1,0,0:0:0:0:
192,280,26528,1,4,0:0:0:0:
192,280,26616,1,0,0:0:0:0:
192,280,26705,2,0,L|304:272,1,80
488,268,27060,1,4,0:0:0:0:
424,80,27415,1,0,0:0:0:0:
280,80,27593,1,4,0:0:0:0:
280,80,27948,5,0,0:0:0:0:
256,80,28037,1,0,0:0:0:0:
232,80,28125,1,0,0:0:0:0:
208,80,28214,1,0,0:0:0:0:
184,80,28303,1,0,0:0:0:0:
160,80,28392,1,0,0:0:0:0:
136,80,28480,1,0,0:0:0:0:
96,312,28658,6,0,P|176:312|240:288,1,120,4|0,0:0|0:0,0:0:0:0:
272,280,29013,1,0,0:0:0:0:
424,212,29190,1,0,0:0:0:0:
272,188,29368,1,0,0:0:0:0:
400,300,29545,1,0,0:0:0:0:
352,148,29723,1,0,0:0:0:0:
420,60,29900,2,0,P|376:40|320:40,1,80
232,56,30256,1,0,0:0:0:0:
72,64,30433,1,4,0:0:0:0:
72,64,30522,1,0,0:0:0:0:
72,64,30611,1,0,0:0:0:0:
192,144,30788,1,0,0:0:0:0:
120,240,30966,1,0,0:0:0:0:
208,152,31143,1,0,0:0:0:0:
224,280,31321,1,0,0:0:0:0:
384,144,31498,6,0,L|368:224,1,80,4|0,0:0|0:0,0:0:0:0:
352,48,31853,1,0,0:0:0:0:
240,72,32031,1,0,0:0:0:0:
256,192,32208,1,4,0:0:0:0:
256,192,32297,1,0,0:0:0:0:
256,192,32386,1,0,0:0:0:0:
392,264,32563,2,0,L|288:280,1,80
152,288,32918,1,0,0:0:0:0:
76,196,33096,1,0,0:0:0:0:
192,172,33273,6,0,L|296:148,1,80,0|0,0:0|0:0,0:0:0:0:
300,148,33540,1,0,0:0:0:0:
300,148,33628,1,4,0:0:0:0:
432,112,33806,1,0,0:0:0:0:
288,32,33983,1,0,0:0:0:0:
208,296,34338,5,0,0:0:0:0:
300,220,34516,1,0,0:0:0:0:
228,108,34693,1,0,0:0:0:0:
144,192,34871,1,0,0:0:0:0:
56,136,35048,2,0,L|80:60,1,80
40,232,35403,2,0,P|80:256|144:276,1,80,0|4,0:0|0:0,0:0:0:0:
80,60,35758,1,0,0:0:0:0:
104,208,35936,2,0,L|136:304,1,80,0|4,0:0|0:0,0:0:0:0:
200,40,36291,2,0,P|272:60|360:40,1,160
354,43,36824,6,0,P|362:99|362:163,1,95.9999970703126,4|0,0:0|0:0,0:0:0:0:
308,264,37179,1,0,0:0:0:0:
212,184,37356,1,0,0:0:0:0:
184,304,37534,2,0,P|142:327|95:337,1,95.9999970703126,4|0,0:0|0:0,0:0:0:0:
48,224,37889,1,0,0:0:0:0:
144,144,38066,1,0,0:0:0:0:
412,280,38244,2,0,P|434:212|429:184,1,95.9999970703126,4|0,0:0|0:0,0:0:0:0:
144,40,38599,5,4,0:0:0:0:
144,40,38954,1,0,0:0:0:0:
96,112,39131,1,0,0:0:0:0:
216,72,39309,1,0,0:0:0:0:
112,184,39486,1,0,0:0:0:0:
280,104,39664,1,0,0:0:0:0:
132,256,39841,1,0,0:0:0:0:
352,224,40019,5,0,0:0:0:0:
256,220,40196,1,0,0:0:0:0:
256,124,40374,1,0,0:0:0:0:
256,220,40551,1,8,0:0:0:0:
80,80,40906,5,0,0:0:0:0:
60,112,41084,1,0,0:0:0:0:
84,140,41261,1,8,0:0:0:0:
180,272,41616,5,0,0:0:0:0:
204,244,41793,1,0,0:0:0:0:
184,212,41971,1,8,0:0:0:0:
328,172,42327,5,0,0:0:0:0:
308,140,42505,1,0,0:0:0:0:
332,112,42682,1,8,0:0:0:0:
428,244,43037,5,0,0:0:0:0:
452,272,43214,1,0,0:0:0:0:
432,304,43392,1,8,0:0:0:0:
324,144,43747,5,0,0:0:0:0:
296,168,43924,1,0,0:0:0:0:
264,148,44102,1,8,0:0:0:0:
188,92,44279,5,0,0:0:0:0:
296,60,44457,1,0,0:0:0:0:
192,224,44634,1,0,0:0:0:0:
352,164,44812,1,8,0:0:0:0:
352,164,45167,1,0,0:0:0:0:
352,164,45256,1,0,0:0:0:0:
352,164,45344,2,0,P|340:116|320:72,1,95.9999970703126
136,44,45699,6,0,L|80:128,1,95.9999970703126,0|2,0:0|0:0,0:0:0:0:
188,148,46054,2,0,L|164:241,1,95.9999970703126,0|2,0:0|0:0,0:0:0:0:
384,312,46409,2,0,L|328:228,1,95.9999970703126,0|2,0:0|0:0,0:0:0:0:
436,208,46764,2,0,L|412:114,1,95.9999970703126,0|2,0:0|0:0,0:0:0:0:
204,36,47119,2,0,L|312:44,1,95.9999970703126,0|2,0:0|0:0,0:0:0:0:
268,144,47474,2,0,L|336:216,1,95.9999970703126,0|2,0:0|0:0,0:0:0:0:
164,304,47829,2,0,L|144:200,1,95.9999970703126
88,80,48184,1,0,0:0:0:0:
224,40,48362,1,0,0:0:0:0:
340,220,48540,5,4,0:0:0:0:
340,220,48895,2,0,P|264:236|220:240,1,95.9999970703126
140,140,49250,1,0,0:0:0:0:
76,268,49427,1,0,0:0:0:0:
224,40,49605,2,0,P|248:84|264:136,1,95.9999970703126
292,268,49960,5,4,0:0:0:0:
160,320,50137,1,0,0:0:0:0:
40,72,50315,2,0,P|44:128|56:172,1,95.9999970703126
153,329,50670,1,4,0:0:0:0:
346,333,50847,1,0,0:0:0:0:
416,151,51025,1,0,0:0:0:0:
253,51,51202,1,0,0:0:0:0:
67,107,51380,5,4,0:0:0:0:
82,222,51735,1,4,0:0:0:0:
256,112,52090,1,0,0:0:0:0:
336,192,52267,1,0,0:0:0:0:
256,272,52445,1,0,0:0:0:0:
176,192,52622,1,0,0:0:0:0:
256,192,52977,12,0,53687,0:0:0:0:
436,224,53865,5,4,1:0:0:0:
416,48,54042,2,0,P|368:52|284:76,1,95.9999970703126
244,148,54398,1,0,0:0:0:0:
384,300,54575,2,0,P|440:216|452:184,1,95.9999970703126
444,196,54841,1,0,0:0:0:0:
444,196,54930,1,0,0:0:0:0:
300,28,55108,2,0,P|280:84|256:128,1,95.9999970703126
88,60,55462,1,4,0:0:0:0:
88,60,55551,1,0,0:0:0:0:
88,60,55640,5,0,0:0:0:0:
92,200,55818,1,0,0:0:0:0:
204,304,55995,2,0,L|332:296,1,95.9999970703126,0|4,0:0|0:0,0:0:0:0:
336,288,56261,1,0,0:0:0:0:
336,288,56350,1,0,0:0:0:0:
408,156,56528,1,0,0:0:0:0:
304,48,56705,1,0,0:0:0:0:
184,108,56883,1,0,0:0:0:0:
112,272,57060,5,4,0:0:0:0:
112,272,57149,1,0,0:0:0:0:
112,272,57238,2,0,P|182:297|232:309,1,95.9999970703126
320,332,57593,1,0,0:0:0:0:
344,152,57770,1,0,0:0:0:0:
444,232,57948,1,0,0:0:0:0:
280,96,58125,1,0,0:0:0:0:
184,216,58303,2,0,P|132:232|80:240,1,95.9999970703126,4|0,0:0|0:0,0:0:0:0:
320,84,58658,2,0,P|365:69|412:61,1,95.9999970703126,4|0,0:0|0:0,0:0:0:0:
148,44,59013,2,0,P|116:92|88:160,1,95.9999970703126
92,164,59279,1,0,0:0:0:0:
92,164,59368,1,4,0:0:0:0:
288,304,59545,1,4,0:0:0:0:
417,135,59900,6,0,P|435:91|440:44,1,95.9999970703126,4|0,0:0|0:0,0:0:0:0:
212,120,60256,2,0,P|228:172|256:208,1,95.9999970703126
288,220,60522,1,0,0:0:0:0:
288,220,60611,1,0,0:0:0:0:
312,24,60788,1,0,0:0:0:0:
120,160,60966,1,0,0:0:0:0:
324,116,61143,2,0,L|428:136,1,95.9999970703126,4|0,0:0|0:0,0:0:0:0:
432,324,61498,2,0,L|316:356,1,95.9999970703126,4|0,0:0|0:0,0:0:0:0:
80,276,61853,1,4,0:0:0:0:
80,276,61942,1,0,0:0:0:0:
80,276,62031,2,0,L|90:180,1,95.9999970703126
196,40,62386,5,0,0:0:0:0:
344,128,62563,2,0,L|360:232,1,95.9999970703126,4|0,0:0|0:0,0:0:0:0:
152,96,62918,1,4,0:0:0:0:
80,208,63096,2,0,P|152:192|272:224,1,191.999994140625
400,264,63628,1,4,0:0:0:0:
416,64,63806,1,0,0:0:0:0:
244,76,63983,1,4,0:0:0:0:
244,76,64072,1,0,0:0:0:0:
244,76,64161,1,0,0:0:0:0:
72,96,64338,1,4,0:0:0:0:
112,240,64516,2,0,P|136:292|192:352,1,95.9999970703126
383,201,64871,5,0,0:0:0:0:
370,179,64960,1,0,0:0:0:0:
356,156,65048,1,0,0:0:0:0:
345,131,65137,1,0,0:0:0:0:
332,108,65226,1,0,0:0:0:0:
318,84,65315,1,0,0:0:0:0:
308,59,65403,1,0,0:0:0:0:
48,56,65581,6,0,B|128:76|175:181,1,143.999995605469,4|0,0:0|0:0,0:0:0:0:
168,172,65936,1,0,0:0:0:0:
256,296,66113,1,4,0:0:0:0:
256,296,66202,1,0,0:0:0:0:
256,296,66291,1,0,0:0:0:0:
384,328,66469,2,0,L|488:312,1,95.9999970703126,4|0,0:0|0:0,0:0:0:0:
484,176,66824,1,4,0:0:0:0:
408,76,67001,5,0,0:0:0:0:
328,176,67179,1,0,0:0:0:0:
256,296,67356,2,0,P|156:296|120:284,1,95.9999970703126,0|0,0:0|0:0,0:0:0:0:
136,272,67622,2,0,L|84:260,1,47.9999985351563
32,140,67889,1,0,0:0:0:0:
112,40,68066,1,0,0:0:0:0:
164,164,68244,1,0,0:0:0:0:
292,232,68421,6,4,P|289:184|293:136,1,95.9999970703126
304,28,68776,1,0,0:0:0:0:
164,164,68954,1,0,0:0:0:0:
164,164,69042,1,0,0:0:0:0:
164,164,69131,1,0,0:0:0:0:
112,40,69309,1,0,0:0:0:0:
36,140,69486,1,0,0:0:0:0:
70,299,69664,2,0,L|164:320,1,95.9999970703126,4|0,0:0|0:0,0:0:0:0:
36,140,70019,1,4,0:0:0:0:
216,80,70196,1,0,0:0:0:0:
200,240,70374,2,0,L|256:240,3,31.9999990234375,0|0|0|0,0:0|0:0|0:0|0:0,0:0:0:0:
324,168,70729,1,0,0:0:0:0:
112,88,71084,1,4,0:0:0:0:
348,64,71616,5,0,0:0:0:0:
348,64,71971,2,0,P|300:88|216:104,1,95.9999970703126
152,88,72327,1,0,0:0:0:0:
388,208,72504,2,0,P|344:264|240:272,1,180.000006866455,4|0,0:0|0:0,0:0:0:0:
228,228,72859,2,0,P|200:172|104:208,1,180.000006866455,4|0,0:0|0:0,0:0:0:0:
80,200,73214,2,4,P|40:112|164:52,1,240.000009155274,4|0,0:0|0:0,0:0:0:0:
300,48,73747,6,0,L|364:148,1,95.9999970703126,0|0,0:0|0:0,0:0:0:0:
168,96,74102,2,0,L|88:164,1,95.9999970703126,4|0,0:0|0:0,0:0:0:0:
152,304,74457,1,0,0:0:0:0:
280,268,74634,1,0,0:0:0:0:
236,136,74812,1,4,0:0:0:0:
104,152,74989,1,0,0:0:0:0:
216,32,75167,1,4,0:0:0:0:
216,200,75344,1,0,0:0:0:0:
352,80,75522,5,0,0:0:0:0:
352,80,75611,1,0,0:0:0:0:
352,80,75699,1,0,0:0:0:0:
100,152,75877,1,4,0:0:0:0:
100,152,76232,1,0,0:0:0:0:
116,188,76321,1,0,0:0:0:0:
140,216,76409,1,0,0:0:0:0:
172,236,76498,1,0,0:0:0:0:
212,240,76587,1,0,0:0:0:0:
248,228,76676,1,0,0:0:0:0:
280,204,76764,1,0,0:0:0:0:
304,172,76853,1,0,0:0:0:0:
320,136,76942,5,4,0:0:0:0:
320,136,77297,2,0,L|372:232,1,95.9999970703126
344,256,77563,2,0,L|304:288,1,47.9999985351563
188,136,77829,1,4,0:0:0:0:
436,40,78184,1,0,0:0:0:0:
452,192,78362,1,0,0:0:0:0:
316,200,78540,1,0,0:0:0:0:
308,40,78717,1,0,0:0:0:0:
308,40,78806,1,0,0:0:0:0:
308,40,78895,1,0,0:0:0:0:
176,64,79072,2,0,P|124:56|72:64,1,95.9999970703126,4|0,0:0|0:0,0:0:0:0:
264,296,79427,2,0,P|311:301|358:293,1,95.9999970703126,4|0,0:0|0:0,0:0:0:0:
432,96,79782,5,4,0:0:0:0:
240,32,79960,2,0,L|171:116,1,95.9999970703126
116,80,80226,2,0,L|116:128,1,47.9999985351563
156,288,80492,1,0,0:0:0:0:
272,144,80670,1,4,0:0:0:0:
408,296,81025,5,0,0:0:0:0:
396,184,81202,1,0,0:0:0:0:
264,204,81380,1,0,0:0:0:0:
152,88,81557,1,0,0:0:0:0:
152,88,81646,1,0,0:0:0:0:
152,88,81735,1,0,0:0:0:0:
316,52,81912,2,0,P|360:80|416:96,1,95.9999970703126
244,276,82267,2,0,P|200:248|144:232,1,95.9999970703126
256,64,82622,5,4,0:0:0:0:
64,60,82800,2,0,P|64:120|72:164,1,95.9999970703126
92,184,83066,1,0,0:0:0:0:
92,184,83155,1,0,0:0:0:0:
316,140,83332,1,0,0:0:0:0:
244,292,83510,1,4,0:0:0:0:
184,116,83865,5,0,0:0:0:0:
184,116,83954,1,0,0:0:0:0:
184,116,84042,2,0,B|280:140|380:72,1,191.999994140625
252,28,84575,1,0,0:0:0:0:
280,232,84753,1,0,0:0:0:0:
368,104,84930,1,0,0:0:0:0:
152,104,85108,1,0,0:0:0:0:
208,288,85285,1,0,0:0:0:0:
228,68,85463,5,0,0:0:0:0:
120,240,85640,1,0,0:0:0:0:
120,52,86528,1,0,0:0:0:0:
224,220,86705,1,4,0:0:0:0:
