osu file format v13

[General]
AudioFilename: ENERGY -TV Edit-.mp3
AudioLeadIn: 1000
PreviewTime: 53865
Countdown: 0
SampleSet: Normal
StackLeniency: 0.7
Mode: 0
LetterboxInBreaks: 0
WidescreenStoryboard: 0

[Editor]
DistanceSpacing: 1.3
BeatDivisor: 4
GridSize: 4
TimelineZoom: 1

[Metadata]
Title:Energy (TV Size)
TitleUnicode:Energy (TV Size)
Artist:earthmind
ArtistUnicode:earthmind
Creator:Ryuuka Toki
Version:Normal
Source:Vividred Operation
Tags:earthmind OP gr8! Records
BeatmapID:295576
BeatmapSetID:111383

[Difficulty]
HPDrainRate:4
CircleSize:3
OverallDifficulty:3
ApproachRate:5
SliderMultiplier:1.2
SliderTickRate:1

[Events]
//Background and Video events
0,0,"BG.jpg",0,0
//Break Periods
//Storyboard Layer 0 (Background)
//Storyboard Layer 1 (Fail)
//Storyboard Layer 2 (Pass)
//Storyboard Layer 3 (Foreground)
//Storyboard Sound Samples
//Background Colour Transformations
3,100,163,162,255

[TimingPoints]
256,355.029585798817,4,1,1,40,1,0
8776,-100,4,2,1,60,0,0
10906,-100,4,1,1,65,0,0
22977,-100,4,3,1,65,0,0
28658,-100,4,1,1,65,0,0
40019,-100,4,2,1,30,0,0
43569,-100,4,1,1,40,0,0
45699,-100,4,3,1,50,0,0
45699,-100,4,2,1,50,0,0
48539,-100,4,1,1,50,0,0
49960,-100,4,2,1,50,0,0
52800,-100,4,2,1,50,0,0
53865,-100,4,2,1,50,0,1
54220,-100,4,2,1,50,0,1
65581,-100,4,1,1,50,0,1
76942,-100,4,1,1,50,0,0
86883,-100,4,2,1,50,0,0

[Colours]
Combo1 : 255,128,192
Combo2 : 255,0,0
Combo3 : 18,124,255

[HitObjects]
172,172,256,6,4,P|121:132|124:76,1,120,4|8,0:0|0:1,0:1:0:0:
276,108,966,1,0,1:2:0:0:
428,136,1321,2,0,L|368:248,1,120,8|8,0:0|0:1,0:1:0:0:
244,348,2031,1,8,1:1:0:0:
148,220,2386,2,0,P|124:192|144:112,1,120,0|8,0:0|0:0,0:0:0:0:
268,28,3096,5,0,0:0:0:0:
244,184,3451,2,0,P|268:240|312:288,1,120,0|0,0:0|0:0,0:0:0:0:
416,232,4161,1,8,1:0:0:0:
340,96,4516,2,0,P|176:40|120:188,1,360,0|8,1:2|0:0,1:0:0:0:
156,332,5936,21,4,1:0:0:0:
308,304,6291,2,0,P|368:276|396:228,1,120,0|0,1:0|1:0,1:0:0:0:
380,76,7001,2,0,P|440:96|469:151,1,120,8|0,1:0|1:0,1:0:0:0:
472,300,7711,1,8,1:0:0:0:
336,220,8066,2,0,L|208:220,1,120,2|2,1:2|2:2,1:0:0:0:
60,204,8776,21,0,1:0:0:0:
124,60,9131,1,0,1:1:0:0:
232,172,9486,1,8,0:1:0:0:
272,320,9841,1,8,1:1:0:0:
384,212,10196,2,0,B|444:184,2,60,0|0|8,1:0|1:0|1:0,0:0:0:0:
256,192,10906,12,0,11971,0:0:0:0:
168,32,12682,6,0,L|196:84,1,60
420,148,13392,1,8,0:0:0:0:
292,248,13747,6,0,B|228:216|242:149,1,120,0|8,0:0|0:0,1:0:0:0:
384,216,14457,2,0,B|444:252|428:319,1,120,0|8,0:0|0:0,0:0:0:0:
276,348,15167,1,0,0:0:0:0:
132,288,15522,6,0,L|220:300,1,60,8|0,0:0|0:0,0:0:0:0:
424,288,16232,1,0,0:0:0:0:
392,136,16587,1,0,0:0:0:0:
260,52,16942,1,10,1:2:0:0:
128,136,17297,6,0,B|100:208|172:260,1,120,0|8,0:0|0:0,1:0:0:0:
276,340,18007,1,8,1:1:0:0:
432,344,18362,2,8,B|492:308|492:152|408:112,1,240,8|8,1:1|0:0,1:1:0:0:
300,44,19427,2,0,L|300:128,2,60,0|0|0,0:0|0:0|0:0,0:0:0:0:
168,128,20137,2,0,P|150:183|175:237,1,120,0|8,0:0|0:0,0:0:0:0:
284,348,20847,1,0,1:2:0:0:
284,348,21202,1,8,1:1:0:0:
440,324,21557,2,0,P|496:233|493:208,1,120,0|8,0:0|0:0,1:0:0:0:
432,84,22267,1,0,1:2:0:0:
312,184,22622,1,8,1:1:0:0:
164,132,22977,22,8,L|124:72,2,60
164,288,23687,2,8,L|120:336,2,60,8|8|8,0:0|0:0|0:0,0:0:0:0:
320,268,24398,2,0,P|339:323|395:338,1,120,0|8,0:2|0:1,1:2:0:0:
464,200,25108,2,0,P|433:150|379:128,1,120,0|8,3:0|1:0,0:0:0:0:
224,152,25818,6,0,P|227:80|282:38,1,120,0|10,1:0|2:1,1:0:0:0:
412,28,26528,1,0,1:0:0:0:
372,180,26883,1,8,1:0:0:0:
372,180,27060,2,0,P|435:230|430:326,1,180,0|8,1:0|0:0,1:0:0:0:
280,284,27948,2,0,L|248:324,4,30,0|0|0|0|0,1:0|1:0|1:0|1:0|1:0,0:0:0:0:
168,172,28658,5,2,1:2:0:0:
240,36,29013,1,4,1:1:0:0:
396,36,29368,2,0,P|449:67|444:129,1,120,2|10,1:2|1:0,1:0:0:0:
444,276,30078,1,0,1:2:0:0:
368,276,30256,1,2,1:2:0:0:
288,276,30433,2,0,P|224:212|236:184,1,120,8|0,0:0|0:0,1:0:0:0:
340,88,31143,1,8,1:0:0:0:
488,144,31498,5,0,1:0:0:0:
456,296,31853,1,8,1:0:0:0:
300,304,32208,1,0,0:0:0:0:
336,152,32563,2,0,P|268:145|225:198,1,120,8|0,0:0|0:0,1:0:0:0:
144,308,33273,1,8,1:0:0:0:
60,176,33628,1,0,0:0:0:0:
340,40,34338,6,0,P|328:76|248:96,1,120,0|8,0:0|0:0,0:0:0:0:
164,228,35048,1,0,0:0:0:0:
316,272,35403,1,8,0:0:0:0:
316,272,35581,2,0,P|436:216|340:124,1,300,0|8,0:0|0:0,1:0:0:0:
196,108,36824,6,0,B|152:184|200:228,1,120,8|0,0:0|0:0,0:0:0:0:
332,152,37534,2,0,P|396:204|392:252,1,120,8|0,0:0|0:0,0:0:0:0:
280,340,38244,2,0,B|252:278|185:278,1,120,8|0,0:0|0:0,0:0:0:0:
48,348,38954,2,0,P|108:302|112:294,1,70,8|0,0:0|0:0,0:0:0:0:
120,232,39309,2,0,L|68:168,1,60
68,108,39664,2,0,L|132:68,1,60,8|0,0:0|0:0,0:0:0:0:
196,96,40019,6,0,P|240:40|292:36,1,120
360,64,40551,1,0,0:0:0:0:
288,192,40906,2,0,L|320:208|352:224,2,60
188,312,41616,2,0,L|216:256,2,60
76,248,42327,2,0,L|20:228,2,60
188,140,43037,2,0,L|264:100,2,60
328,68,43747,6,0,L|408:60,2,60,0|0|0,2:0|2:0|2:0,0:0:0:0:
344,144,44279,2,0,L|424:136,3,60,0|0|0|0,2:0|2:0|2:0|2:0,0:0:0:0:
204,284,45344,2,0,L|136:252,1,60,0|0,0:0|0:0,0:0:0:0:
180,184,45699,6,0,L|248:184,2,60,0|0|8,1:0|1:0|1:0,0:0:0:0:
40,112,46409,2,0,L|40:52,2,60,0|0|8,1:0|1:0|1:0,0:0:0:0:
96,260,47119,2,0,L|36:260,2,60,0|0|8,1:0|1:0|1:0,0:0:0:0:
252,260,47829,2,0,L|316:260,2,60,0|0|8,1:0|1:0|1:0,0:0:0:0:
112,192,48540,5,0,0:0:0:0:
112,192,48895,1,8,0:0:0:0:
264,160,49250,1,0,0:0:0:0:
264,160,49605,1,8,0:0:0:0:
116,108,49960,2,0,L|92:48,2,60,0|0|0,1:0|1:0|1:0,0:0:0:0:
272,80,50670,2,0,L|340:42,2,60,0|0|8,1:0|1:0|1:0,0:0:0:0:
364,208,51380,2,0,L|388:224,2,30,0|0|0,1:0|1:0|1:0,0:0:0:0:
312,268,51735,21,12,1:2:0:0:
208,148,52090,2,0,L|175:97,3,60,0|0|0|0,1:0|1:0|1:0|1:0,0:0:0:0:
332,92,52977,2,0,L|354:71,8,30,0|0|0|0|0|0|0|0|0,1:0|1:0|1:0|1:0|1:0|1:0|1:0|1:0|1:0,0:0:0:0:
260,232,54042,6,0,P|208:264|188:268,1,60,0|4,1:0|0:0,0:0:0:0:
60,220,54575,1,8,1:1:0:0:
108,72,54930,2,0,B|164:28|240:68,1,120,8|8,1:1|1:1,1:1:0:0:
348,148,55640,1,0,1:0:0:0:
340,304,55995,2,0,P|280:292|228:228,1,120,8|0,1:0|1:0,0:0:0:0:
172,112,56705,1,0,1:0:0:0:
172,112,56883,1,0,1:0:0:0:
172,112,57060,2,0,L|312:88,1,120,0|0,1:0|1:0,1:0:0:0:
444,72,57770,1,0,1:0:0:0:
324,172,58125,1,8,1:0:0:0:
324,172,58303,2,0,L|204:236,1,120,0|0,1:0|1:0,0:0:0:0:
140,364,59013,2,0,P|236:340|292:260,1,180,0|0,1:0|1:0,0:0:0:0:
260,124,59900,22,0,P|308:76|364:60,1,120,0|12,1:0|1:1,0:0:0:0:
488,148,60611,2,0,P|440:196|384:212,1,120,0|12,1:0|1:1,0:0:0:0:
316,232,61143,1,4,0:0:0:0:
160,240,61498,2,0,P|100:256|56:308,1,120,4|0,1:0|1:0,0:0:0:0:
160,84,62386,6,0,P|104:68|44:16,1,120,12|0,1:1|1:1,1:0:0:0:
64,188,63096,1,8,1:1:0:0:
64,188,63451,2,0,P|140:180|200:148,1,120,2|8,1:2|1:1,1:0:0:0:
320,96,64161,1,0,1:0:0:0:
404,228,64516,1,0,1:0:0:0:
248,240,64871,2,0,L|245:269,4,30,0|0|0|0|0,1:0|1:0|1:0|1:0|1:0,0:0:0:0:
320,96,65581,5,0,0:0:0:0:
192,184,65936,1,12,0:0:0:0:
192,184,66291,2,0,B|120:140|120:140|88:40,1,180
244,72,67179,1,0,0:0:0:0:
396,112,67534,2,0,P|400:208|356:288,1,180
208,296,68421,2,0,P|160:332|88:300,1,120,0|8,0:0|0:0,0:0:0:0:
132,164,69131,1,0,0:0:0:0:
260,72,69486,2,0,B|300:120|300:120|296:192,1,120,8|0,0:0|0:0,0:0:0:0:
408,288,70196,2,0,P|383:299|268:296,1,120,0|8,1:1|0:1,0:0:0:0:
152,228,70906,1,0,0:0:0:0:
120,156,71084,2,0,B|208:64|304:144,1,180,4|8,0:0|0:0,0:0:0:0:
220,272,71971,21,0,1:0:0:0:
220,272,72149,1,2,1:2:0:0:
284,228,72327,2,0,L|344:196,1,60
204,116,72859,1,4,0:0:0:0:
204,116,73214,1,0,0:0:0:0:
432,60,73747,22,0,P|471:104|480:162,1,120,0|0,0:0|0:0,0:0:0:0:
364,268,74457,2,0,P|338:315|272:309,1,120
164,208,75167,2,0,P|154:150|191:105,1,120
312,200,75877,1,8,0:0:0:0:
452,128,76232,22,0,L|416:108,6,30
256,192,76942,12,0,78717,0:0:0:0:
144,268,79072,6,0,P|76:232|44:176,1,120,0|8,0:0|0:0,1:0:0:0:
172,100,79782,2,0,P|240:136|276:188,1,120,0|8,0:0|1:1,1:0:0:0:
420,196,80492,1,0,1:0:0:0:
328,324,80847,2,0,P|271:312|249:259,1,120,8|0,0:0|1:1,1:0:0:0:
124,168,81557,1,8,1:0:0:0:
240,64,81912,2,0,P|299:65|346:101,1,120,0|8,0:0|1:1,1:0:0:0:
256,192,82622,12,0,84042,0:0:0:0:
264,244,84398,5,8,1:0:0:0:
108,240,84753,2,0,L|57:272,2,60
228,140,85463,5,8,1:0:0:0:
228,140,85640,1,8,1:0:0:0:
448,140,86528,1,10,1:1:0:0:
448,140,86705,1,6,1:1:0:0:
