osu file format v13

[General]
AudioFilename: ENERGY -TV Edit-.mp3
AudioLeadIn: 2000
PreviewTime: 53865
Countdown: 0
SampleSet: Normal
StackLeniency: 0.7
Mode: 0
LetterboxInBreaks: 0
WidescreenStoryboard: 0

[Editor]
DistanceSpacing: 1
BeatDivisor: 4
GridSize: 4
TimelineZoom: 1

[Metadata]
Title:Energy (TV Size)
TitleUnicode:Energy (TV Size)
Artist:earthmind
ArtistUnicode:earthmind
Creator:Ryuuka Toki
Version:Easy
Source:Vividred Operation
Tags:earthmind OP gr8! Records
BeatmapID:296365
BeatmapSetID:111383

[Difficulty]
HPDrainRate:2
CircleSize:2
OverallDifficulty:2
ApproachRate:3
SliderMultiplier:1
SliderTickRate:1

[Events]
//Background and Video events
0,0,"BG.jpg",0,0
//Break Periods
//Storyboard Layer 0 (Background)
//Storyboard Layer 1 (Fail)
//Storyboard Layer 2 (Pass)
//Storyboard Layer 3 (Foreground)
//Storyboard Sound Samples
//Background Colour Transformations
3,100,163,162,255

[TimingPoints]
256,355.029585798817,4,1,1,30,1,0
8776,-100,4,2,1,30,0,0
10547,-100,4,1,1,30,0,0
11971,-100,4,1,1,30,0,0
22977,-100,4,1,1,30,0,0
28658,-100,4,1,1,30,0,0
36824,-100,4,1,1,30,0,0
40019,-100,4,2,1,30,0,0
43569,-100,4,2,1,40,0,0
45699,-100,4,3,1,50,0,0
45699,-100,4,1,1,50,0,0
46764,-100,4,1,1,55,0,0
48539,-100,4,1,1,70,0,0
49960,-100,4,2,1,60,0,0
53865,-100,4,1,1,60,0,1
64871,-100,4,1,1,60,0,1
76764,-100,4,1,1,60,0,0
86883,-100,4,2,1,60,0,0

[Colours]
Combo1 : 255,128,192
Combo2 : 255,0,0
Combo3 : 18,124,255

[HitObjects]
124,164,256,5,4,0:0:0:0:
292,52,966,1,8,1:1:0:0:
224,240,1676,1,0,0:0:0:0:
408,196,2386,2,0,P|396:140|348:116,1,100,0|8,0:0|0:0,0:0:0:0:
276,168,3096,5,0,0:0:0:0:
112,284,3806,1,0,0:0:0:0:
276,168,4516,2,0,P|340:60|360:76,1,200,0|0,1:2|0:0,1:0:0:0:
404,256,5936,5,4,0:0:0:0:
212,288,6646,1,0,0:0:0:0:
144,96,7356,1,0,0:0:0:0:
220,28,7711,1,8,0:0:0:0:
288,104,8066,1,0,0:0:0:0:
352,304,8776,6,0,P|434:244|434:147,1,200,4|0,0:0|0:0,0:0:0:0:
352,100,9841,1,8,3:0:0:0:
256,192,10196,12,4,11616,0:0:0:0:
257,279,12327,6,0,P|324:224|304:152,2,150
220,184,13747,2,0,B|188:124|243:79,1,100,0|8,0:0|0:0,1:0:0:0:
256,192,14457,12,0,15877,0:0:0:0:
208,240,16587,5,0,0:0:0:0:
264,156,16942,1,10,1:2:0:0:
164,160,17297,2,0,B|156:104|204:64,1,100,4|8,0:0|0:0,1:0:0:0:
392,104,18362,2,8,B|404:224|288:252,1,200
232,56,19782,1,8,1:0:0:0:
144,100,20137,6,0,P|171:140|217:155,1,100,0|8,0:0|0:0,0:0:0:0:
384,48,21202,1,8,1:1:0:0:
352,152,21557,2,0,P|432:156|464:176,1,100,0|8,0:0|0:0,1:0:0:0:
456,264,22267,1,8,0:0:0:0:
240,300,22977,6,0,P|194:256|186:204,1,100,0|12,0:0|0:0,0:0:0:0:
228,132,23687,2,0,P|274:176|282:228,1,100,0|8,0:0|0:0,0:0:0:0:
336,296,24398,2,0,P|423:269|440:208,1,150,0|2,0:2|2:2,1:2:0:0:
348,84,25818,6,0,P|304:56|252:52,1,100,0|10,1:0|2:1,1:0:0:0:
160,72,26528,1,0,0:0:0:0:
144,176,26883,2,0,P|216:216|336:188,1,200,8|8,1:0|0:0,1:0:0:0:
400,128,27948,1,0,1:0:0:0:
300,300,28658,6,0,P|256:316|200:300,1,100,4|8,0:0|0:0,0:0:0:0:
36,184,29723,1,8,0:0:0:0:
204,76,30433,6,0,P|249:58|294:78,1,100,8|0,0:0|0:0,1:0:0:0:
496,88,31498,2,0,L|480:186,1,100,0|8,0:0|0:0,0:0:0:0:
324,312,32563,6,0,P|276:323|240:292,1,100,8|0,0:0|0:0,1:0:0:0:
236,184,33273,1,8,0:0:0:0:
140,216,33628,1,0,1:0:0:0:
324,312,34338,6,0,P|371:310|391:267,1,100,0|8,0:0|0:0,0:0:0:0:
356,168,35048,1,0,0:0:0:0:
256,164,35403,2,8,P|208:268|96:224,1,250,8|0,0:0|0:0,1:0:0:0:
92,80,36824,6,0,B|116:24|196:48,1,100,8|0,0:0|0:0,0:0:0:0:
276,48,37534,2,0,B|332:25|372:98,1,100,8|0,0:0|0:0,0:0:0:0:
436,148,38244,2,0,B|492:172|468:252,1,100,8|0,0:0|0:0,0:0:0:0:
292,312,39309,2,0,L|244:200,1,100,0|8,0:0|0:0,0:0:0:0:
168,168,40019,6,0,P|216:124|308:140,1,150
400,100,40906,2,0,P|448:80|504:100,1,100,0|8,0:0|0:0,0:0:0:0:
452,184,41616,2,0,P|396:200|344:188,1,100,0|8,0:0|0:0,0:0:0:0:
320,288,42327,2,0,P|264:268|216:276,1,100,0|8,0:0|0:0,0:0:0:0:
123,239,43037,2,0,P|87:204|69:159,1,100,0|8,0:0|0:0,0:0:0:0:
288,52,44279,6,0,P|376:24|468:80,1,200,0|8,0:0|0:0,0:0:0:0:
368,120,45344,5,0,1:0:0:0:
416,216,45699,2,0,L|316:223,1,100,8|8,0:0|0:0,0:0:0:0:
368,308,46409,2,0,L|268:315,1,100,0|8,0:0|0:0,0:0:0:0:
224,224,47119,2,0,L|124:231,1,100,0|8,0:0|0:0,0:0:0:0:
172,320,47829,2,0,L|72:327,1,100,0|8,0:0|0:0,0:0:0:0:
36,232,48540,5,4,0:0:0:0:
32,132,48895,1,8,0:0:0:0:
128,108,49250,2,0,L|132:220,1,100,0|8,0:0|0:0,0:0:0:0:
176,300,49960,5,4,1:0:0:0:
256,240,50315,1,8,1:0:0:0:
304,152,50670,2,0,P|344:108|390:102,1,100,0|8,1:0|1:0,0:0:0:0:
392,200,51380,2,0,P|427:237|426:302,1,100,4|8,1:0|1:1,0:0:0:0:
256,192,52090,12,0,53510,1:0:0:0:
320,276,54220,6,0,P|275:232|235:228,1,100,4|8,1:0|0:0,0:0:0:0:
232,328,54930,1,0,0:0:0:0:
132,324,55285,1,8,0:0:0:0:
52,276,55640,2,0,P|96:232|136:228,1,100,4|8,1:0|0:0,0:0:0:0:
132,324,56350,1,0,0:0:0:0:
324,288,57060,6,0,P|328:224|304:184,1,100,0|8,1:0|1:1,1:0:0:0:
228,248,57770,1,0,0:0:0:0:
128,244,58125,2,0,P|52:188|172:84,1,300,8|6,0:0|0:0,0:0:0:0:
288,224,59900,22,0,P|336:272|376:288,1,100,0|12,1:0|0:1,0:0:0:0:
428,208,60611,2,0,P|380:160|340:144,1,100,0|8,1:0|0:1,0:0:0:0:
204,284,61676,1,8,0:0:0:0:
72,132,62386,22,0,P|104:92|168:64,1,100,8|0,0:1|0:1,1:0:0:0:
240,96,63096,1,0,0:0:0:0:
240,196,63451,2,0,P|300:248|336:252,1,100,0|8,0:2|0:1,1:0:0:0:
124,304,64516,2,0,P|75:294|38:261,1,100,8|0,1:0|1:0,0:0:0:0:
76,64,65581,21,4,0:0:0:0:
120,152,65936,1,8,0:0:0:0:
212,188,66291,2,0,B|212:56|328:52,1,200
320,152,67356,1,8,0:0:0:0:
224,320,68066,1,12,0:0:0:0:
188,220,68421,22,0,P|252:196|268:164,1,100,0|8,0:0|0:0,0:0:0:0:
324,92,69131,1,0,0:0:0:0:
228,68,69486,2,0,B|112:56|80:184,1,200,8|0,0:0|0:0,0:0:0:0:
340,180,71084,6,0,P|390:178|472:252,1,150,0|0,0:0|0:0,0:0:0:0:
368,280,71971,2,0,P|318:282|236:208,1,150
184,144,72859,1,0,0:0:0:0:
112,216,73214,1,4,0:0:0:0:
32,88,73747,22,0,P|112:36|224:52,1,200,0|8,0:0|0:0,0:0:0:0:
224,144,74812,2,0,P|271:158|308:191,1,100
308,292,75522,1,0,0:0:0:0:
136,192,76232,1,0,0:0:0:0:
256,192,76764,12,4,78362,0:0:0:0:
140,112,79072,6,0,P|72:148|48:184,1,100,0|8,0:0|0:0,1:0:0:0:
148,208,79782,2,0,P|168:248|216:276,1,100,0|8,0:0|1:1,1:0:0:0:
296,332,80492,2,0,L|316:268,1,50
324,184,81025,6,0,P|240:152|232:80,1,150,4|0,0:0|1:1,1:0:0:0:
324,84,81912,2,0,P|384:104|400:148,1,100,0|12,0:0|1:1,1:0:0:0:
256,192,82622,12,4,84042,0:0:0:0:
304,232,84753,6,0,P|248:280|208:284,1,100
172,192,85463,2,0,L|240:192,1,50,0|0,0:0|0:0,0:0:0:0:
468,116,86528,2,0,L|400:116,1,50,0|4,0:0|0:0,0:0:0:0:
