osu file format v12

[General]
AudioFilename: 01. ENERGY.mp3
AudioLeadIn: 2000
PreviewTime: -1
Countdown: 0
SampleSet: Normal
StackLeniency: 0.7
Mode: 0
LetterboxInBreaks: 0

[Editor]
DistanceSpacing: 0.92
BeatDivisor: 4
GridSize: 8

[Metadata]
Title:ENERGY (TV Size)
TitleUnicode:ENERGY (TV Size)
Artist:earthmind
ArtistUnicode:earthmind
Creator:biwako
Version:Insane
Source:
Tags:
BeatmapID:230110
BeatmapSetID:83302

[Difficulty]
HPDrainRate:7
CircleSize:4
OverallDifficulty:7
ApproachRate:8
SliderMultiplier:2
SliderTickRate:1

[Events]
//Background and Video events
//Break Periods
//Storyboard Layer 0 (Background)
//Storyboard Layer 1 (Fail)
//Storyboard Layer 2 (Pass)
//Storyboard Layer 3 (Foreground)
//Storyboard Sound Samples
//Background Colour Transformations
3,100,163,162,255

[TimingPoints]
250,355.029585798817,4,1,0,100,1,0
1492,-133.333333333333,4,1,0,100,0,0
11610,-100,4,1,0,100,0,0
40013,-200,4,1,0,100,0,0
45693,-100,4,1,0,100,0,0

[HitObjects]
256,64,250,1,0,0:0:0:0:
256,64,605,1,0,0:0:0:0:
256,64,960,1,0,0:0:0:0:
344,72,1137,1,0,0:0:0:0:
424,112,1315,1,0,0:0:0:0:
472,192,1492,2,0,L|472:344,1,150
384,360,2025,2,0,L|384:208,2,150.000005722046
40,42,3090,2,0,L|40:192,1,150
40,192,3800,1,0,0:0:0:0:
56,272,3977,1,0,0:0:0:0:
104,336,4155,1,0,0:0:0:0:
184,328,4332,2,0,L|344:328,1,150.000005722046
344,248,4865,2,0,L|184:248,1,150.000005722046
194,248,5575,1,0,0:0:0:0:
384,64,5930,1,0,0:0:0:0:
312,40,6107,1,0,0:0:0:0:
232,40,6285,1,0,0:0:0:0:
160,56,6463,1,0,0:0:0:0:
160,56,6818,1,0,0:0:0:0:
136,128,6995,1,0,0:0:0:0:
152,200,7173,2,0,L|152:352,2,150.000005722046
136,128,8060,2,0,P|208:96|280:96,1,150.000005722046
360,184,8770,2,0,L|360:32,2,150.000005722046
360,184,9835,1,0,0:0:0:0:
376,256,10013,2,0,P|304:288|232:288,1,150.000005722046
288,216,10545,1,0,0:0:0:0:
288,216,10900,2,0,L|136:216,1,150.000005722046
96,104,11610,6,0,P|192:80|296:88,1,200,0|8,0:0|0:0,0:0:0:0:
408,152,12232,1,0,0:0:0:0:
408,152,12321,2,0,L|416:256,1,100
415,251,12853,2,0,P|344:320|248:336,1,200
160,352,13386,2,0,L|152:248|152:248,1,100
132,32,13741,2,0,L|140:136,1,100
160,352,14096,2,0,L|152:248,1,100
97,133,14451,2,0,P|168:64|264:48,1,200
368,136,15072,1,0,0:0:0:0:
368,136,15161,1,0,0:0:0:0:
392,224,15338,1,0,0:0:0:0:
392,224,15693,2,0,P|384:328|304:336,1,200
304,248,16226,1,0,0:0:0:0:
304,248,16403,1,0,0:0:0:0:
116,248,16581,2,0,L|112:248|216:248,1,100
396,248,16936,2,0,L|400:248|296:248,1,100
352,168,17291,2,0,L|152:168,2,200
368,80,18178,1,0,0:0:0:0:
280,48,18356,1,0,0:0:0:0:
192,40,18534,2,0,P|104:64|64:160,1,200
152,136,19066,2,0,L|152:336,2,200
360,248,20131,2,0,L|360:48,2,200
448,256,21019,1,0,0:0:0:0:
472,168,21196,1,0,0:0:0:0:
448,72,21374,2,0,P|344:56|272:112,1,200
360,136,21906,2,0,L|160:88,1,200
68,65,22528,1,0,0:0:0:0:
68,65,22616,2,0,B|56:64|165:89,1,100
160,176,22971,2,0,L|264:200,2,100
160,176,23504,1,0,0:0:0:0:
176,264,23681,2,0,L|72:240,2,100
352,304,24214,2,0,P|408:240|416:128,1,200
160,80,24924,1,0,0:0:0:0:
160,80,25102,2,0,P|104:144|96:256,1,200
256,344,25812,2,0,L|456:312,2,200
352,192,26877,1,0,0:0:0:0:
352,192,27054,2,0,L|152:224,1,200
64,232,27587,2,0,P|48:184|48:136,1,100
128,88,27942,1,0,0:0:0:0:
155,76,28031,1,0,0:0:0:0:
189,71,28119,1,0,0:0:0:0:
223,71,28208,1,0,0:0:0:0:
256,76,28297,1,0,0:0:0:0:
284,93,28386,1,0,0:0:0:0:
306,115,28474,1,0,0:0:0:0:
318,143,28563,1,0,0:0:0:0:
320,176,28652,2,0,L|104:176|120:176,1,200
200,288,29273,1,0,0:0:0:0:
200,288,29362,2,0,L|96:288,2,100
392,288,29894,2,0,P|432:216|424:96,1,200
344,64,30427,2,0,L|192:48,1,150
194,48,30782,2,0,L|96:72|96:72,2,100
256,328,31492,2,0,L|456:280,2,200
184,272,32380,1,0,0:0:0:0:
264,240,32557,1,0,0:0:0:0:
256,56,32735,2,0,L|56:104,1,200
248,144,33267,2,0,L|88:184|88:184,1,150
102,180,33622,2,0,P|88:232|96:280,2,100
280,136,34332,1,0,0:0:0:0:
360,168,34510,1,0,0:0:0:0:
344,256,34687,1,0,0:0:0:0:
360,168,34865,1,0,0:0:0:0:
360,168,34954,1,0,0:0:0:0:
360,168,35042,1,0,0:0:0:0:
280,136,35220,1,0,0:0:0:0:
344,256,35397,1,0,0:0:0:0:
240,368,35575,2,0,L|136:192,1,200
138,195,36107,1,0,0:0:0:0:
272,16,36285,2,0,L|376:192,1,200
400,360,36818,2,0,P|416:312|416:264,1,100
280,32,37173,2,0,L|256:136,1,100
280,352,37528,2,0,L|256:248,1,100
416,96,37883,2,0,B|336:144|336:152|328:152,1,100
416,288,38238,2,0,B|336:240|336:232|328:232,1,100
488,192,38593,1,0,0:0:0:0:
488,192,38948,1,0,0:0:0:0:
416,136,39125,1,0,0:0:0:0:
392,248,39303,1,0,0:0:0:0:
312,96,39480,1,0,0:0:0:0:
288,280,39658,1,0,0:0:0:0:
208,56,39835,1,0,0:0:0:0:
176,320,40013,2,0,P|56:344|88:192,1,300
112,264,41255,1,0,0:0:0:0:
112,264,41433,2,0,P|240:232|416:232,1,300
352,296,42676,1,0,0:0:0:0:
352,296,42764,1,0,0:0:0:0:
352,296,42853,2,0,P|472:320|440:168,1,300
424,104,44096,1,0,0:0:0:0:
424,104,44184,1,0,0:0:0:0:
424,104,44273,2,0,L|472:72,2,50
344,88,44806,2,0,B|296:72|248:104|192:88,1,150
16,64,45693,1,0,0:0:0:0:
16,64,46048,1,0,0:0:0:0:
16,64,46226,1,0,0:0:0:0:
16,64,46403,1,0,0:0:0:0:
16,64,46581,1,0,0:0:0:0:
16,64,46758,1,0,0:0:0:0:
0,192,47113,1,0,0:0:0:0:
0,192,47468,1,0,0:0:0:0:
0,192,47646,1,0,0:0:0:0:
0,192,47823,1,0,0:0:0:0:
0,192,48001,1,0,0:0:0:0:
0,192,48178,1,0,0:0:0:0:
16,320,48534,1,0,0:0:0:0:
16,320,48889,1,0,0:0:0:0:
16,320,49066,1,0,0:0:0:0:
16,320,49244,1,0,0:0:0:0:
16,320,49421,1,0,0:0:0:0:
16,320,49599,1,0,0:0:0:0:
64,248,49776,1,0,0:0:0:0:
64,248,49954,1,0,0:0:0:0:
64,248,50131,1,0,0:0:0:0:
64,248,50309,1,0,0:0:0:0:
64,248,50486,1,0,0:0:0:0:
64,248,50664,1,0,0:0:0:0:
64,248,50841,1,0,0:0:0:0:
64,248,51019,1,0,0:0:0:0:
136,120,51374,1,0,0:0:0:0:
136,120,51729,1,0,0:0:0:0:
136,120,52084,1,0,0:0:0:0:
256,48,52261,1,0,0:0:0:0:
384,80,52439,1,0,0:0:0:0:
440,192,52616,1,0,0:0:0:0:
440,192,52971,1,0,0:0:0:0:
440,192,53326,1,0,0:0:0:0:
400,328,53504,1,0,0:0:0:0:
256,360,53681,1,0,0:0:0:0:
208,352,53770,1,0,0:0:0:0:
168,336,53859,1,0,0:0:0:0:
136,312,53948,1,0,0:0:0:0:
112,272,54036,1,0,0:0:0:0:
104,224,54125,1,0,0:0:0:0:
104,176,54214,2,0,B|104:72|104:72|104:72,2,100
184,208,54747,1,0,0:0:0:0:
184,208,54835,1,0,0:0:0:0:
184,208,54924,2,0,P|280:176|376:208,1,200
448,64,55457,2,0,P|352:96|256:64,1,200
260,67,55989,1,0,0:0:0:0:
104,176,56167,1,0,0:0:0:0:
104,176,56255,1,0,0:0:0:0:
104,176,56344,2,0,L|104:280,2,100
368,192,57054,2,0,L|472:208,2,100
344,272,57587,1,0,0:0:0:0:
344,272,57676,1,0,0:0:0:0:
344,272,57764,2,0,L|240:256|240:256,2,100
176,200,58297,2,0,P|224:120|328:104,1,200
323,102,58829,1,0,0:0:0:0:
328,256,59007,1,0,0:0:0:0:
328,256,59096,1,0,0:0:0:0:
328,256,59184,2,0,L|392:336,2,100
256,312,59717,1,0,0:0:0:0:
256,312,59806,1,0,0:0:0:0:
256,312,59894,2,0,L|192:232,1,100
128,296,60250,2,0,L|64:216,1,100
65,217,60516,1,0,0:0:0:0:
65,217,60605,1,0,0:0:0:0:
72,128,60782,1,0,0:0:0:0:
128,56,60960,1,0,0:0:0:0:
416,64,61137,2,0,L|216:64,1,200
216,64,61670,1,0,0:0:0:0:
96,152,61847,2,0,L|296:152,1,200
296,152,62380,1,0,0:0:0:0:
96,320,62557,2,0,L|296:320,1,200
428,240,63090,2,0,L|328:240,1,100
304,240,63356,1,0,0:0:0:0:
280,240,63445,2,0,P|248:144|288:56,1,200
102,137,63977,2,0,P|134:233|96:320,1,200
193,342,64510,2,0,L|95:320,1,100
160,256,64865,1,0,0:0:0:0:
198,249,64954,1,0,0:0:0:0:
236,243,65042,1,0,0:0:0:0:
275,236,65131,1,0,0:0:0:0:
313,230,65220,1,0,0:0:0:0:
352,224,65309,1,0,0:0:0:0:
390,217,65397,1,0,0:0:0:0:
390,217,65575,2,0,L|408:320,1,100
480,256,65930,2,0,L|462:153,1,100
460,133,66196,1,0,0:0:0:0:
456,112,66285,2,0,P|376:56|280:72,1,200
56,272,66818,2,0,P|136:328|232:312,1,200
232,311,67350,1,0,0:0:0:0:
256,128,67528,1,0,0:0:0:0:
256,128,67616,1,0,0:0:0:0:
256,128,67705,2,0,L|256:232,2,100
256,40,68415,1,0,0:0:0:0:
336,88,68593,1,0,0:0:0:0:
256,128,68770,1,0,0:0:0:0:
336,176,68948,1,0,0:0:0:0:
256,40,69125,1,0,0:0:0:0:
176,176,69303,1,0,0:0:0:0:
336,176,69480,1,0,0:0:0:0:
432,280,69658,2,0,P|328:264|256:320,1,200
257,318,70190,1,0,0:0:0:0:
168,136,70368,1,0,0:0:0:0:
168,136,70457,1,0,0:0:0:0:
168,136,70545,1,0,0:0:0:0:
80,344,70723,2,0,L|64:240,1,100
56,152,71078,2,0,P|112:56|192:32,1,200
192,31,71610,1,0,0:0:0:0:
328,48,71877,1,0,0:0:0:0:
328,48,71965,2,0,L|440:56,2,100
472,208,72498,2,0,L|256:192|256:192,1,200
272,193,73031,1,0,0:0:0:0:
72,264,73208,2,0,L|288:280|288:280,1,200
271,278,73741,1,0,0:0:0:0:
456,248,74096,2,0,L|352:240,1,100
456,136,74451,2,0,L|352:144,1,100
328,360,74806,2,0,L|256:280,1,100
328,24,75161,2,0,L|256:104,1,100
0,192,75516,1,0,0:0:0:0:
0,192,75871,2,0,L|208:192,1,200
232,192,76315,1,0,0:0:0:0:
264,192,76403,1,0,0:0:0:0:
296,192,76492,1,0,0:0:0:0:
328,192,76581,1,0,0:0:0:0:
360,192,76670,1,0,0:0:0:0:
392,192,76758,1,0,0:0:0:0:
424,192,76847,1,0,0:0:0:0:
456,192,76936,2,0,P|504:104|456:24,1,200
320,48,77557,1,0,0:0:0:0:
320,48,77646,2,0,L|216:48,2,100
112,128,78178,2,0,L|312:128,1,200
312,128,78711,1,0,0:0:0:0:
448,256,79066,2,0,L|344:256,1,100
64,256,79421,2,0,L|168:256,1,100
448,256,79776,2,0,P|480:160|440:72,1,200
448,256,80397,1,0,0:0:0:0:
448,256,80486,2,0,L|448:360,2,100
441,73,81019,2,0,P|352:32|256:72,1,200
256,192,81551,1,0,0:0:0:0:
392,328,81906,1,0,0:0:0:0:
368,328,81995,1,0,0:0:0:0:
344,328,82084,1,0,0:0:0:0:
256,328,82261,1,0,0:0:0:0:
208,312,82350,1,0,0:0:0:0:
168,296,82439,1,0,0:0:0:0:
128,264,82528,1,0,0:0:0:0:
96,232,82616,2,0,P|80:144|184:120,1,200
304,96,83238,1,0,0:0:0:0:
304,96,83326,2,0,L|408:96,2,100
456,176,83859,2,0,L|256:176,1,200
152,236,84392,1,0,0:0:0:0:
152,236,84569,1,0,0:0:0:0:
152,48,84747,2,0,L|152:148,1,100
152,336,85102,2,0,L|152:236,1,100
256,192,85457,1,0,0:0:0:0:
256,192,85634,1,0,0:0:0:0:
256,192,86522,1,0,0:0:0:0:
256,192,86699,1,0,0:0:0:0:
