osu file format v12

[General]
AudioFilename: ARCADIA.mp3
AudioLeadIn: 0
PreviewTime: 54299
Countdown: 0
SampleSet: Soft
StackLeniency: 0.7
Mode: 3
LetterboxInBreaks: 0
SpecialStyle: 0
WidescreenStoryboard: 1

[Editor]
DistanceSpacing: 1
BeatDivisor: 4
GridSize: 8

[Metadata]
Title:ARCADIA
TitleUnicode:ARCADIA
Artist:earthmind
ArtistUnicode:earthmind
Creator:Simple_Star
Version:NM
Source:Fate/stay night Realta Nua
Tags:
BeatmapID:311121
BeatmapSetID:121542

[Difficulty]
HPDrainRate:7
CircleSize:4
OverallDifficulty:7
ApproachRate:5
SliderMultiplier:1.4
SliderTickRate:1

[Events]
//Background and Video events
0,0,"BG.jpg",0,0
Video,0,"ARCADIA.flv"
//Break Periods
//Storyboard Layer 0 (Background)
//Storyboard Layer 1 (Fail)
//Storyboard Layer 2 (Pass)
//Storyboard Layer 3 (Foreground)
//Storyboard Sound Samples
//Background Colour Transformations
3,100,163,162,255

[TimingPoints]
401,338.983050847458,4,2,0,30,1,0
54638,-100,4,2,0,30,0,1
65147,-100,4,2,0,30,0,0
65486,-100,4,2,0,30,0,1
75655,-100,4,2,0,30,0,0
76333,-100,4,2,0,30,0,1
76417,-100,4,2,0,30,0,0

[HitObjects]
192,192,401,1,0,0:0:0:0:
320,192,740,1,0,0:0:0:0:
64,192,1079,1,0,0:0:0:0:
448,192,1418,1,0,0:0:0:0:
192,192,1587,1,0,0:0:0:0:
320,192,1926,1,0,0:0:0:0:
64,192,2265,1,0,0:0:0:0:
192,192,2434,1,0,0:0:0:0:
320,192,2604,1,0,0:0:0:0:
448,192,2774,1,0,0:0:0:0:
320,192,2944,1,0,0:0:0:0:
192,192,3113,1,0,0:0:0:0:
64,192,3452,1,0,0:0:0:0:
448,192,3791,1,0,0:0:0:0:
320,192,3960,1,0,0:0:0:0:
192,192,4130,1,0,0:0:0:0:
320,192,4299,1,0,0:0:0:0:
192,192,4469,1,0,0:0:0:0:
64,192,4638,1,0,0:0:0:0:
192,192,4808,1,0,0:0:0:0:
320,192,4977,1,0,0:0:0:0:
64,192,5147,1,0,0:0:0:0:
448,192,5147,1,0,0:0:0:0:
192,192,5486,1,0,0:0:0:0:
320,192,5486,1,0,0:0:0:0:
64,192,5825,1,0,0:0:0:0:
448,192,5825,1,0,0:0:0:0:
192,192,6163,1,0,0:0:0:0:
64,192,6502,1,0,0:0:0:0:
448,192,6672,1,0,0:0:0:0:
320,192,6841,1,0,0:0:0:0:
64,192,7011,1,0,0:0:0:0:
320,192,7519,1,0,0:0:0:0:
192,192,7858,1,0,0:0:0:0:
64,192,8197,1,0,0:0:0:0:
320,192,8367,1,0,0:0:0:0:
448,192,8706,1,0,0:0:0:0:
192,192,8875,1,0,0:0:0:0:
448,192,9214,1,0,0:0:0:0:
320,192,9553,1,0,0:0:0:0:
64,192,9723,1,0,0:0:0:0:
192,192,10231,1,0,0:0:0:0:
448,192,10570,1,0,0:0:0:0:
64,192,10909,1,0,0:0:0:0:
64,192,11079,1,0,0:0:0:0:
192,192,11417,1,0,0:0:0:0:
320,192,11587,1,0,0:0:0:0:
192,192,11926,1,0,0:0:0:0:
320,192,12095,1,0,0:0:0:0:
448,192,12265,1,0,0:0:0:0:
448,192,12435,1,0,0:0:0:0:
320,192,12773,1,0,0:0:0:0:
64,192,12943,1,0,0:0:0:0:
448,192,13282,1,0,0:0:0:0:
320,192,13451,1,0,0:0:0:0:
192,192,13621,1,0,0:0:0:0:
192,192,13791,1,0,0:0:0:0:
64,192,14129,1,0,0:0:0:0:
448,192,14299,1,0,0:0:0:0:
64,192,14638,1,0,0:0:0:0:
192,192,14807,1,0,0:0:0:0:
320,192,14977,1,0,0:0:0:0:
448,192,15146,1,0,0:0:0:0:
64,192,15485,1,0,0:0:0:0:
192,192,15655,1,0,0:0:0:0:
320,192,15824,1,0,0:0:0:0:
448,192,15994,1,0,0:0:0:0:
320,192,16163,1,0,0:0:0:0:
192,192,16333,1,0,0:0:0:0:
64,192,16502,1,0,0:0:0:0:
448,192,16672,1,0,0:0:0:0:
192,192,16841,1,0,0:0:0:0:
64,192,17180,1,0,0:0:0:0:
320,192,17350,1,0,0:0:0:0:
192,192,17689,1,0,0:0:0:0:
448,192,17858,1,0,0:0:0:0:
320,192,18197,1,0,0:0:0:0:
64,192,18367,1,0,0:0:0:0:
448,192,18706,128,0,19045:0:0:0:0:
192,192,18706,1,0,0:0:0:0:
64,192,19045,128,0,19384:0:0:0:0:
320,192,19384,1,0,0:0:0:0:
192,192,19723,1,0,0:0:0:0:
448,192,19723,1,0,0:0:0:0:
64,192,20231,1,0,0:0:0:0:
320,192,20570,1,0,0:0:0:0:
192,192,20570,1,0,0:0:0:0:
192,192,20909,1,0,0:0:0:0:
448,192,21079,1,0,0:0:0:0:
192,192,21587,1,0,0:0:0:0:
320,192,21757,1,0,0:0:0:0:
448,192,21926,1,0,0:0:0:0:
320,192,22096,1,0,0:0:0:0:
64,192,22434,1,0,0:0:0:0:
192,192,22435,1,0,0:0:0:0:
64,192,22943,1,0,0:0:0:0:
64,192,23282,1,0,0:0:0:0:
320,192,23282,1,0,0:0:0:0:
192,192,23621,1,0,0:0:0:0:
448,192,23791,1,0,0:0:0:0:
320,192,24299,1,0,0:0:0:0:
64,192,24469,1,0,0:0:0:0:
320,192,24638,1,0,0:0:0:0:
64,192,24808,1,0,0:0:0:0:
192,192,24808,1,0,0:0:0:0:
448,192,25146,1,0,0:0:0:0:
320,192,25147,1,0,0:0:0:0:
192,192,25655,1,0,0:0:0:0:
448,192,25994,1,0,0:0:0:0:
64,192,25994,1,0,0:0:0:0:
192,192,26333,1,0,0:0:0:0:
320,192,26502,1,0,0:0:0:0:
448,192,27011,1,0,0:0:0:0:
320,192,27180,1,0,0:0:0:0:
192,192,27350,1,0,0:0:0:0:
64,192,27519,1,0,0:0:0:0:
448,192,27858,1,0,0:0:0:0:
320,192,27858,1,0,0:0:0:0:
192,192,28367,1,0,0:0:0:0:
64,192,28706,1,0,0:0:0:0:
192,192,28706,1,0,0:0:0:0:
448,192,29045,1,0,0:0:0:0:
192,192,29214,1,0,0:0:0:0:
64,192,29553,1,0,0:0:0:0:
448,192,29723,1,0,0:0:0:0:
192,192,29892,1,0,0:0:0:0:
448,192,30062,1,0,0:0:0:0:
64,192,30231,1,0,0:0:0:0:
192,192,30231,1,0,0:0:0:0:
64,192,30570,1,0,0:0:0:0:
448,192,30570,1,0,0:0:0:0:
192,192,31078,1,0,0:0:0:0:
320,192,31418,128,0,31757:0:0:0:0:
192,192,31757,128,0,32096:0:0:0:0:
448,192,32095,1,0,0:0:0:0:
64,192,32434,1,0,0:0:0:0:
192,192,32604,1,0,0:0:0:0:
320,192,32774,1,0,0:0:0:0:
192,192,32943,1,0,0:0:0:0:
64,192,33282,1,0,0:0:0:0:
320,192,33621,1,0,0:0:0:0:
192,192,33960,1,0,0:0:0:0:
448,192,34129,1,0,0:0:0:0:
320,192,34468,1,0,0:0:0:0:
192,192,34807,1,0,0:0:0:0:
64,192,35146,1,0,0:0:0:0:
192,192,35316,1,0,0:0:0:0:
320,192,35486,1,0,0:0:0:0:
192,192,35655,1,0,0:0:0:0:
320,192,35994,1,0,0:0:0:0:
448,192,35994,1,0,0:0:0:0:
192,192,36333,1,0,0:0:0:0:
320,192,36502,1,0,0:0:0:0:
64,192,36672,1,0,0:0:0:0:
320,192,36841,1,0,0:0:0:0:
192,192,37180,1,0,0:0:0:0:
448,192,37350,1,0,0:0:0:0:
64,192,37519,1,0,0:0:0:0:
320,192,37689,1,0,0:0:0:0:
192,192,37858,1,0,0:0:0:0:
448,192,38028,1,0,0:0:0:0:
192,192,38197,1,0,0:0:0:0:
320,192,38367,1,0,0:0:0:0:
448,192,38367,1,0,0:0:0:0:
64,192,38706,1,0,0:0:0:0:
192,192,38706,1,0,0:0:0:0:
448,192,38875,1,0,0:0:0:0:
320,192,39045,1,0,0:0:0:0:
192,192,39214,1,0,0:0:0:0:
64,192,39384,1,0,0:0:0:0:
448,192,39553,1,0,0:0:0:0:
192,192,39892,1,0,0:0:0:0:
320,192,40062,1,0,0:0:0:0:
448,192,40231,1,0,0:0:0:0:
64,192,40401,1,0,0:0:0:0:
192,192,40570,1,0,0:0:0:0:
320,192,40740,1,0,0:0:0:0:
192,192,40909,1,0,0:0:0:0:
64,192,41079,1,0,0:0:0:0:
448,192,41079,1,0,0:0:0:0:
320,192,41248,1,0,0:0:0:0:
192,192,41418,1,0,0:0:0:0:
320,192,41587,1,0,0:0:0:0:
64,192,41757,1,0,0:0:0:0:
320,192,41926,1,0,0:0:0:0:
192,192,42096,1,0,0:0:0:0:
448,192,42265,1,0,0:0:0:0:
64,192,42435,1,0,0:0:0:0:
448,192,42604,1,0,0:0:0:0:
320,192,42774,1,0,0:0:0:0:
64,192,42943,1,0,0:0:0:0:
448,192,43113,1,0,0:0:0:0:
64,192,43282,1,0,0:0:0:0:
320,192,43452,1,0,0:0:0:0:
448,192,43621,1,0,0:0:0:0:
192,192,43791,1,0,0:0:0:0:
320,192,43960,1,0,0:0:0:0:
64,192,44130,1,0,0:0:0:0:
320,192,44299,1,0,0:0:0:0:
192,192,44469,1,0,0:0:0:0:
448,192,44638,1,0,0:0:0:0:
64,192,44807,1,0,0:0:0:0:
448,192,44977,1,0,0:0:0:0:
192,192,45316,1,0,0:0:0:0:
448,192,45486,1,0,0:0:0:0:
320,192,45655,1,0,0:0:0:0:
64,192,45824,128,0,46163:0:0:0:0:
448,192,46163,128,0,46502:0:0:0:0:
192,192,46502,1,0,0:0:0:0:
192,192,46841,1,0,0:0:0:0:
320,192,47011,1,0,0:0:0:0:
64,192,47180,1,0,0:0:0:0:
320,192,47350,1,0,0:0:0:0:
192,192,47519,1,0,0:0:0:0:
448,192,47689,1,0,0:0:0:0:
192,192,48028,1,0,0:0:0:0:
320,192,48197,1,0,0:0:0:0:
64,192,48367,1,0,0:0:0:0:
320,192,48536,1,0,0:0:0:0:
192,192,48706,1,0,0:0:0:0:
64,192,48875,1,0,0:0:0:0:
448,192,48875,1,0,0:0:0:0:
192,192,49045,1,0,0:0:0:0:
320,192,49214,1,0,0:0:0:0:
448,192,49214,128,0,50739:0:0:0:0:
64,192,51079,1,0,0:0:0:0:
192,192,51248,1,0,0:0:0:0:
320,192,51418,1,0,0:0:0:0:
448,192,51587,1,0,0:0:0:0:
192,192,51757,1,0,0:0:0:0:
320,192,51926,1,0,0:0:0:0:
448,192,51926,1,0,0:0:0:0:
192,192,52095,1,0,0:0:0:0:
64,192,52265,1,0,0:0:0:0:
320,192,52434,1,0,0:0:0:0:
448,192,52604,1,0,0:0:0:0:
320,192,52773,1,0,0:0:0:0:
64,192,52943,1,0,0:0:0:0:
192,192,53113,1,0,0:0:0:0:
320,192,53113,1,0,0:0:0:0:
448,192,53451,1,0,0:0:0:0:
64,192,53621,1,0,0:0:0:0:
320,192,53790,1,0,0:0:0:0:
448,192,53960,1,0,0:0:0:0:
192,192,53960,1,0,0:0:0:0:
64,192,54129,1,0,0:0:0:0:
448,192,54130,1,0,0:0:0:0:
448,192,54638,1,0,0:0:0:0:
64,192,54638,1,0,0:0:0:0:
192,192,54808,1,0,0:0:0:0:
320,192,54977,1,0,0:0:0:0:
192,192,55147,1,0,0:0:0:0:
448,192,55316,1,0,0:0:0:0:
192,192,55486,1,0,0:0:0:0:
448,192,55655,1,0,0:0:0:0:
64,192,55825,1,0,0:0:0:0:
320,192,55825,1,0,0:0:0:0:
448,192,56163,1,0,0:0:0:0:
64,192,56502,1,0,0:0:0:0:
192,192,56841,1,0,0:0:0:0:
320,192,57011,1,0,0:0:0:0:
192,192,57180,1,0,0:0:0:0:
448,192,57350,1,0,0:0:0:0:
64,192,57519,1,0,0:0:0:0:
320,192,57689,1,0,0:0:0:0:
192,192,57858,1,0,0:0:0:0:
320,192,58028,1,0,0:0:0:0:
64,192,58197,1,0,0:0:0:0:
320,192,58367,1,0,0:0:0:0:
192,192,58536,1,0,0:0:0:0:
64,192,58536,1,0,0:0:0:0:
448,192,58875,1,0,0:0:0:0:
64,192,59214,1,0,0:0:0:0:
320,192,59553,1,0,0:0:0:0:
192,192,59723,1,0,0:0:0:0:
448,192,59892,1,0,0:0:0:0:
192,192,60062,128,0,60740:0:0:0:0:
64,192,60062,1,0,0:0:0:0:
320,192,60401,1,0,0:0:0:0:
448,192,60740,1,0,0:0:0:0:
64,192,61079,1,0,0:0:0:0:
320,192,61079,1,0,0:0:0:0:
192,192,61418,1,0,0:0:0:0:
448,192,61418,128,0,62096:0:0:0:0:
320,192,61757,1,0,0:0:0:0:
64,192,62096,1,0,0:0:0:0:
192,192,62435,1,0,0:0:0:0:
320,192,62604,1,0,0:0:0:0:
64,192,62774,1,0,0:0:0:0:
448,192,62774,1,0,0:0:0:0:
192,192,62943,1,0,0:0:0:0:
320,192,63113,1,0,0:0:0:0:
448,192,63282,1,0,0:0:0:0:
64,192,63452,1,0,0:0:0:0:
192,192,63621,1,0,0:0:0:0:
320,192,63791,1,0,0:0:0:0:
192,192,63960,1,0,0:0:0:0:
448,192,64130,1,0,0:0:0:0:
64,192,64299,1,0,0:0:0:0:
448,192,64469,1,0,0:0:0:0:
192,192,64638,1,0,0:0:0:0:
320,192,64808,1,0,0:0:0:0:
64,192,64977,1,0,0:0:0:0:
448,192,65147,1,0,0:0:0:0:
192,192,65316,1,0,0:0:0:0:
320,192,65486,1,0,0:0:0:0:
448,192,65486,1,0,0:0:0:0:
64,192,65655,1,0,0:0:0:0:
320,192,65825,1,0,0:0:0:0:
192,192,65994,1,0,0:0:0:0:
448,192,66163,1,0,0:0:0:0:
192,192,66333,1,0,0:0:0:0:
320,192,66502,1,0,0:0:0:0:
64,192,66672,1,0,0:0:0:0:
192,192,66672,1,0,0:0:0:0:
448,192,67011,1,0,0:0:0:0:
320,192,67350,1,0,0:0:0:0:
192,192,67689,1,0,0:0:0:0:
448,192,67858,1,0,0:0:0:0:
64,192,68028,1,0,0:0:0:0:
320,192,68197,1,0,0:0:0:0:
192,192,68197,1,0,0:0:0:0:
320,192,68536,1,0,0:0:0:0:
64,192,68706,1,0,0:0:0:0:
448,192,69045,1,0,0:0:0:0:
192,192,69384,1,0,0:0:0:0:
320,192,69723,1,0,0:0:0:0:
64,192,70062,1,0,0:0:0:0:
448,192,70401,1,0,0:0:0:0:
320,192,70739,1,0,0:0:0:0:
192,192,70909,128,0,71248:0:0:0:0:
64,192,70909,1,0,0:0:0:0:
448,192,71248,1,0,0:0:0:0:
320,192,71587,128,0,72265:0:0:0:0:
64,192,72265,1,0,0:0:0:0:
192,192,72604,1,0,0:0:0:0:
448,192,72774,1,0,0:0:0:0:
64,192,73113,1,0,0:0:0:0:
320,192,73452,128,0,75655:0:0:0:0:
64,192,75655,1,0,0:0:0:0:
448,192,75994,1,0,0:0:0:0:
192,192,76163,1,0,0:0:0:0:
320,192,76333,1,0,0:0:0:0:
448,192,76333,1,0,0:0:0:0:
64,192,76672,1,0,0:0:0:0:
448,192,76672,1,0,0:0:0:0:
320,192,76841,1,0,0:0:0:0:
192,192,77011,1,0,0:0:0:0:
320,192,77180,1,0,0:0:0:0:
448,192,77350,1,0,0:0:0:0:
64,192,77519,1,0,0:0:0:0:
192,192,77519,1,0,0:0:0:0:
448,192,77858,1,0,0:0:0:0:
192,192,78028,1,0,0:0:0:0:
320,192,78197,1,0,0:0:0:0:
64,192,78367,1,0,0:0:0:0:
320,192,78536,1,0,0:0:0:0:
192,192,78706,1,0,0:0:0:0:
448,192,78875,1,0,0:0:0:0:
320,192,78875,1,0,0:0:0:0:
64,192,79214,1,0,0:0:0:0:
320,192,79384,1,0,0:0:0:0:
192,192,79553,1,0,0:0:0:0:
448,192,79723,1,0,0:0:0:0:
192,192,79892,1,0,0:0:0:0:
320,192,80062,1,0,0:0:0:0:
64,192,80231,1,0,0:0:0:0:
192,192,80231,1,0,0:0:0:0:
448,192,80570,1,0,0:0:0:0:
64,192,80740,1,0,0:0:0:0:
448,192,80909,1,0,0:0:0:0:
192,192,81079,1,0,0:0:0:0:
320,192,81248,1,0,0:0:0:0:
192,192,81418,1,0,0:0:0:0:
448,192,81587,1,0,0:0:0:0:
64,192,81587,1,0,0:0:0:0:
320,192,81926,1,0,0:0:0:0:
192,192,82096,1,0,0:0:0:0:
448,192,82265,1,0,0:0:0:0:
64,192,82435,1,0,0:0:0:0:
320,192,82604,1,0,0:0:0:0:
192,192,82774,1,0,0:0:0:0:
448,192,82943,1,0,0:0:0:0:
192,192,82943,1,0,0:0:0:0:
64,192,83282,1,0,0:0:0:0:
448,192,83452,1,0,0:0:0:0:
192,192,83621,1,0,0:0:0:0:
320,192,83791,1,0,0:0:0:0:
64,192,83960,1,0,0:0:0:0:
448,192,84130,1,0,0:0:0:0:
64,192,84299,1,0,0:0:0:0:
448,192,84299,1,0,0:0:0:0:
192,192,84638,1,0,0:0:0:0:
320,192,84808,1,0,0:0:0:0:
448,192,84977,1,0,0:0:0:0:
320,192,85147,1,0,0:0:0:0:
192,192,85316,1,0,0:0:0:0:
448,192,85486,1,0,0:0:0:0:
320,192,85486,1,0,0:0:0:0:
192,192,85655,1,0,0:0:0:0:
448,192,85824,1,0,0:0:0:0:
64,192,85825,1,0,0:0:0:0:
320,192,85994,1,0,0:0:0:0:
192,192,86163,1,0,0:0:0:0:
448,192,86333,1,0,0:0:0:0:
64,192,86502,1,0,0:0:0:0:
192,192,86672,1,0,0:0:0:0:
320,192,86841,1,0,0:0:0:0:
448,192,87011,1,0,0:0:0:0:
64,192,87180,1,0,0:0:0:0:
192,192,87180,1,0,0:0:0:0:
320,192,87350,1,0,0:0:0:0:
448,192,87350,1,0,0:0:0:0:
64,192,87689,1,0,0:0:0:0:
320,192,87689,1,0,0:0:0:0:
192,192,87858,1,0,0:0:0:0:
448,192,87858,1,0,0:0:0:0:
192,192,88197,1,0,0:0:0:0:
320,192,88197,1,0,0:0:0:0:
448,192,88367,1,0,0:0:0:0:
64,192,88367,1,0,0:0:0:0:
